This file was generated by Ched 2.7.0.0.
#TITLE ""
#ARTIST ""
#DESIGNER ""
#DIFFICULTY 0
#PLAYLEVEL
#SONGID ""
#WAVE ""
#WAVEOFFSET 0
#JACKET ""
#REQUEST "ticks_per_beat 480"
#00002: 4
#BPM01: 120
#00008: 01
#TIL00: ""
#VOLUME: ""
#HISPEED 00
#MEASUREHS 00
#0391f:11
#0391a:1414
#03912:0014000000000014
#03916:00000000000000000000001400000000
#03917:00000014000000000000000000000000
#00718:0013
#0071b:0013001300130013
#00716:0000000000000013
#00713:00000000000000000000001300000000
#00715:0000001300000000
#00712:23000013000000000000000000000000
#00515:0013
#00512:0013001300130013
#00517:0000000000000013
#0051a:00000000000000000000001300000000
#00518:0000001300000000
#0051b:23000013000000000000000000000000
#00510:41
#00314:0013
#00315:00000013000000000000000000000000
#0031b:0013001300130013
#00316:00000000000000000000001300000000
#00312:23
#00119:0013
#00118:00000013000000000000000000000000
#00112:0013001300130013
#00117:00000000000000000000001300000000
#0011b:23
#04614:00001400000014000000001400000000
#04612:1414
#04618:00000024000000000000140000001400
#0461a:2414
#02418:14001400000000001400001400000000
#02412:0000001300000013
#02414:24000024000000001400140000000000
#0241b:0000001300000013
#0601b:00000013
#0601a:2400000000000000001400000000000024000000240000000000000000000000
#06016:1400000014140000
#06017:00000014000000000000000000000000
#06012:00001300000013000000000000000013
#06015:0000000000000013
#06018:00000000000000000000000000130000
#05612:2400000024241300
#05617:1400000014140000
#05615:00000014000000000000000000001300
#0561b:00001300000013000000000000130000
#05618:00000000000000000000000000000013
#0401a:1400001400000000
#04015:1400001400000000
#04017:00000014000000001400000000000000
#04012:00000014000000001400000000000000
#04016:00000014
#05917:0000000000000000000014000000000000000000000000000000001400000000
#05916:00000000000000001400000000140000
#05919:00000000000000000000001400000000
#05918:2600000000000000000000140000000000000000000000000000000000000000
#0591a:00000014000000002400000000000000
#05912:0013001300130013
#05812:2400000000000000001400000000000024000000240000002400000000001600
#05816:1400000014140000
#05815:00000014000000000000000000000000
#05818:0000000000000016
#0581a:00000014
#0581b:0013001300000000
#05715:0000000000000000000014000000000000000000000000000000001400000000
#05716:00000000000000001400000000140000
#05713:00000000000000000000001400000000
#05714:0000000000000000000000140000000000000000000000000000000000000000
#05712:26000014000000002400000000000000
#0571b:0013001300130013
#05517:0014
#05513:00000000000000000000001400000000
#0551b:0013001300130013
#05512:26000014000000002400000000000000
#0501a:14000000140000140000000000000000
#05012:0014001400001616
#05018:00000000000000000000000000160016
#05016:0000000000000000000000000000000000000014000000000000000000000000
#05015:00140000
#05017:0014000000000000
#05112:16
#03816:00000000000000140000000000000000
#03818:00140000001400000000000000000000
#0381a:0000000000001400000000000000000000000000001400000000000000000000
#03812:2400002400000014
#03814:0024240000000000
#03810:41
#00412:00000013000000001300130013000000
#00416:13
#00415:00000000000000000000000000000013
#00418:0000000013130013
#0041b:0013001300001300
#0021b:00000013000000001300130013000000
#00218:00000000000000000000000000000013
#00215:0000000013130013
#00212:0013001300001300
#00217:13
#00815:00000013000000000000000000000000
#0081b:0013001300000000
#00818:1300000013131414
#00812:0000000013130000
#00814:00000000000000000000000000140000
#00819:00000000000000000000000000000054
#0271b:0013
#02712:0014001400002400
#02718:00000000000000000000130000000013
#0271a:14140024
#02715:2400240054130000
#02714:00000000000000530000000000000000
#02217:00130000000000000000000000001400
#02212:1313000000241400
#0221a:00000000000000140000240014000000
#02218:00130000
#02214:0000001400000000
#05415:1400000014140013
#05417:00000014000000000000000000000000
#05418:00000000000000000000000000000013
#05412:0013001300001400
#0541a:2400000024242400
#05315:0014
#05319:00000000000000000000001400000000
#05312:0013001300130013
#0531a:00000014000000002400000000000000
#05318:26
#03612:0000000013000000000000000000000000000013000000000000000000000000
#03617:0000000000002400000000000000000000000014000000000000000000000000
#03618:00000000000000000000000000130013
#03615:0000000000000013
#03616:0000002300000000
#0361a:24000000000000240000000000000000
#03212:0015000000130000
#03219:15
#03214:00000000001400140000000000000000
#0321b:00000000000000000013000000000000
#03215:00000000000000000000000000130013
#03218:0000141400001313
#03414:00000013
#03419:00000013
#0341a:0000000000240000
#03412:24002400240000240000000000000000
#03416:00240024002400000000000000000000
#0281a:00000000140000000000000000130013
#02813:0014000000001313
#02815:0000001300000000
#02814:14
#02818:00000000000000130000000000000000
#02812:00140000
#02819:0014000000000000
#05217:14140000
#05216:0000000000000000000000000000000000000014000000000000000000000000
#05215:0014000000000000
#05212:24000000240000240000000000260026
#05218:0000000000002626
#0521a:0024002400000000
#04819:0000000000000000000000000000001400140014001400140014001400140014
#0481a:24002400240000241414141414141414
#04813:0000000000000000000000000000001400140014001400140014001400140014
#04812:13000000000000141414141414141414
#04815:00000024002400000000000000000000
#04715:00000013
#0471b:00130013
#04717:00000000000000130000000000000000
#04712:2400001300130013
#0471f:21
#0471a:24
#04710:0041
#0411a:14
#04118:0013131300000000
#04115:00000013001300000000000000000000
#04112:24000000000000240000000000000000
#03514:0000000000000013
#03517:00000012
#03519:0000000000000013
#03512:0000000000240000
#0351a:24002400240000240000000000000000
#03516:00240024002400000000000000000000
#03118:00000000000013000013000013000000
#03115:1300130000130013
#03112:00000000000000140000000000000000
#0311a:14
#03014:00000013
#03012:0025000000130000
#03016:0000000000000014
#03019:2425000000001300
#0301b:0000000000130000
#03018:0000000000000000135353005300000000000000000000000000000000000000
#03013:24000000000000250000000000000000
#02914:00000013
#02912:0025000000130000
#02919:0025000000001300
#02916:2400000000000014
#0291b:0000000000130000
#02915:0000001300000000
#02918:00000000000000250000000000000000
#02910:41
#02512:0000000000130013
#02518:1400140000000013
#02516:00000013
#02517:0000000000130000
#0251b:00000000000000130000000000000000
#02515:0000001300000000
#02514:0014000000000000
#02315:00000013
#02312:1300000000130013
#0231b:00130000130000130000000013000000
#02318:0000000000130000
#02316:0013131300000000
#02116:0000130000130013
#02114:0013000000001300
#0211b:0000130000000013
#02119:00000013
#02117:00000000000000130000000000000000
#02112:1300001300000000
#0211a:24
#02110:41
#01915:00130013000013000000000000000000
#01916:0000000000000014
#0191b:00000000001300002300000000000000
#01918:1313000000000000
#01919:00000000000000000063002300000000
#01917:00000063
#01816:0000000023000014
#01818:0013001300000000
#01815:00000013001300000000000000000000
#01812:14000063
#01814:00000000000000000063002300000000
#01716:0000000000000014
#01715:0013001300000000
#01718:00000013001300000000000000000000
#01719:00000000000000000063002300000000
#01717:0023
#0171a:24
#0171b:00000063
#0161b:0000130000130000
#01615:13000000001300000013000000000000
#01612:00000013000000130000001300000000
#01618:0000001313000000
#01219:0000000000000014
#01213:0000000000000014
#01216:0000000014540000
#01212:13000000000000130000000000000000
#01218:1313001300000000
#01215:00000013001300000000000000000000
#0121b:00130000
#01217:00000000000000000054005400000000
#01118:00000000000000000000001300000000
#01115:0013001300130013
#01112:2313
#0111b:0013
#01518:0013001300130013
#01515:00000000000000130000001300000000
#01512:00000000000000000013000000000000
#0151b:2313
#01015:0013
#01018:13000013000000000000130000000000
#0141b:00000000000000000013000000000000
#01418:00000000000000130000000000000000
#01412:0000001300000000
#01415:13000013000000001300130000000000
#00612:0013001300001300
#00615:1300000013130013
#00618:00000013000000000000000000000013
#0061b:0000000013131300
#04915:00000000000000130000000000000013
#04918:0013001324000000
#04912:00240024
#04913:0000000000240000
#0491a:00240024
#04919:0000000000240000
#01312:2400000013000013
#0131b:00000000000000000000001300000000
#01315:0013001300130000
#01318:00000000000000130013000000000000
#01310:41
#03314:0000000000000013
#03317:00000012
#03319:0000000000000013
#03312:0000000000240000
#0331a:24002400240000240000000000000000
#03316:00240024002400000000000000000000
#02612:00001300000000130000000000000000
#02615:0000000000000000000000000000000000000000001300000000000000000000
#02616:00130000
#02617:0023002300000000
#0261b:23230000
#02012:14
#0201a:14
#02019:0024
#02013:0024
#0091b:0000000013000013
#00912:00000000000000000000001300000000
#00918:0013001300130000
#00915:00000000000000130013000000000000
#0091a:64
#0451c:52
#04518:00000000000000520000000052000000
#04318:52
#0431c:00000000000000520000000052000000
#04412:00000000000000620000000062000000
#04416:62
#05956:00000000000000000000000000641400
#05957:0000000000000000000064001400000000000000000000000000006400000000
#05958:1600000000000000000000640000000000000000000000000000000000000000
#05959:00000000000000000000002400000000
#0595a:00000024000000000000000000000000
#05756:00000000000000000000000000541400
#05755:0000000000000000000054001400000000000000000000000000005400000000
#05752:16000024000000000000000000000000
#05753:00000000000000000000002400000000
#05754:0000000000000000000000540000000000000000000000000000000000000000
#04952:14140014
#0495a:14140014
#0475a:0014000000000000
#04752:0014000000000000
#0475b:00530053
#04757:00000000000000530000000000000000
#03956:00000000000000003400002400000000
#0395a:1454
#03957:00000064000000000000000000000000
#03556:00000000000000340000000000000000
#0355a:00000000000000240000000000000000
#03456:00000000000000440000000000000000
#03452:00000000000000240000000000000000
#03454:00000013
#03459:00000013
#03356:00000000000000340000000000000000
#0335a:00000000000000240000000000000000
#02852:0000000000140000
#0285a:0000000000140000
#02855:0000006300000000
#02858:00000000000000530000000000000000
#00853:13
#00855:00000023000000000000000000000000
#00752:13000053000000001300000000000000
#00756:0000000000000053
#00753:00000000000000000000005300000000
#00755:0000005300000000
#01552:13
#01555:00000000000000000000006300000000
#01458:0000000000000013
#01455:0000000000630000
#0065a:13
#00658:00000023000000000000000000000000
#0065b:00000013
#0055b:13000063000000001300000000000000
#00557:0000000000000063
#0055a:00000000000000000000006300000000
#00558:0000006300000000
#0215b:0000630000130013
#0215a:14
#02157:00000000000000630000000000000000
#0115b:13
#01158:00000000000000000000005300000000
#04152:34000000000000340000000000000000
#01055:0000000000000013
#01058:0000000000530000
#0095a:14
#00952:00000000000000000000006300000000
#03656:0000006300000000
#0365a:64000000000000640000000000000000
#03657:0000000000006400000000000000000000000024000000000000000000000000
#03652:0000000000000000000000000000000000000023000000000000000000000000
#02752:00000014
#0275a:54540014
#0275b:0053
#02758:0000000000630000
#02755:0000000000630000
#02657:0000005300000000
#02652:00000000000000630000000000000000
#02655:0000000000000000000000000000000000000000002300000000000000000000
#02656:00630000
#05358:16
#05359:00000000000000000000002400000000
#0535a:00000024000000000000000000000000
#05252:00000000000000540000000000000000
#05256:0000000000000000000000000000000000000024000000000000000000000000
#04855:00000000005400000000000000000000
#0485a:00000000000000545454545454545454
#04859:0000000000000000000000000000005400540054005400540054005400540054
#04853:0000000000000000000000000000006400640064006400640064006400640064
#04852:00000000000000646464646464646464
#03053:00000000000000150000000000000000
#01352:14
#0135b:00000000000000000000005300000000
#05552:16000024000000000000000000000000
#05553:00000000000000000000002400000000
#04658:00000014000000000000000000000000
#0465a:14
#04654:00000000000000000000001400000000
#04652:0014
#02958:00000000000000150000000000000000
#02454:14000014000000000000000000000000
#02458:00000000000000001400001400000000
#0175a:14
#01755:0000005300000000
#00352:13
#00355:00000063000000000000000000000000
#00356:00000000000000000000006300000000
#0015b:13
#00158:00000053000000000000000000000000
#00157:00000000000000000000005300000000
#0605a:0000000000000000002400000000000000000000000000000000000000000000
#06057:00000054000000000000000000000000
#05852:0000000000000000002400000000000000000000000000000000000000000000
#05855:00000064000000000000000000000000
#05655:00000054000000000000000000000000
#0505a:00000000000000640000000000000000
#05056:0000000000000000000000000000000000000024000000000000000000000000
#05152:16
#03856:00000000000000640000000000000000
#0385a:0000000000000000000000000000000000000000002400000000000000000000
#02257:0000000000000024
#02252:0063000000001400
#0225a:00000000000000140000000064000000
#02258:00630000
#03252:0035000000000000
#03259:45
#03254:00000000000000140000000000000000
#05457:00000064000000000000000000000000
#04055:5400005400000000
#04057:0044
#04052:00000054000000005400000000000000
#04056:00000024
#03158:00000053
#03155:5300530000530000
#03152:00000000000000140000000000000000
#0315a:14
#02552:0000000000000063
#02558:14140000
#02556:00000063
#02557:0000000000630000
#0255b:00000000000000630000000000000000
#02554:0014000000000000
#01955:0000005300000000
#01858:0000006300000000
#01852:14
#0165b:0000000000630000
#01652:00000000000000000000005300000000
#00452:00000023000000000000000000000000
#0025b:00000023000000000000000000000000
#0235b:00000000000000630000000053000000
#02358:0000000000630000
#02052:14
#0205a:14
#001380:00000013000000000000000000000000
#0013b0:0000002300000000
#001370:00000000000000000000001300000000
#0013a0:0000000000000023
#0023b0:00000013000000000000000000000000
#002380:0000002300000000
#003350:00000013000000000000000000000000
#003320:0000002300000000
#003360:00000000000000000000001300000000
#003330:0000000000000023
#004320:00000013000000000000000000000000
#004350:0000002300000000
#0053b0:00000013000000002300000000000000
#005380:0000003300000000
#0053a0:00000000000000000000001300000000
#005370:0000000000000033
#0063a0:23
#006380:00000013000000000000000000000000
#0063b0:0000002300000000
#007320:00000013000000002300000000000000
#007350:0000003300000000
#007330:00000000000000000000001300000000
#007360:0000000000000033
#008330:23
#008350:00000013000000000000000000000000
#008320:0000002300000000
#009320:1323000000000000
#009350:00000013000023000000000000000000
#009320:00000000000000000000001300000000
#009350:0000000000000023
#010350:00130023000000000000000000000000
#010320:0000132300000000
#0103b1:0000001323000000
#010381:0000000000130000
#0103b1:00000053
#0113b1:23
#010350:00000000000000000000001300002300
#011381:00000013000023000000000000000000
#011381:00000000000000000000001300000000
#0113b1:0000000000000023
#0133b1:1323000000000000
#013381:00000013000023000000000000000000
#0133b1:00000000000000000000001300000000
#013381:0000000000000023
#014381:00130023000000000000000000000000
#0143b1:0000132300000000
#014351:0000000000130000
#014321:00000053
#015321:23
#014380:00000000000000000000001300002300
#015351:00000013000023000000000000000000
#015351:00000000000000000000001300000000
#015321:0000000000000023
#016381:00130023000000000000000000000000
#0163b1:0000000000130000
#016381:0000000000000023
#016320:00000000000000000000001300000000
#016350:0000000000000023
#017350:0000001300000000
#017320:0000000053000023
#018380:0000001300000000
#0183b0:0000000053000023
#019350:0000001300000000
#019320:0000000053000023
#0213b0:00130000
#021370:0000002300000000
#021370:00000000000000130000000000000000
#0213b0:0000000000230000
#022320:0013000000000000
#022350:00230000
#022381:00130000
#0223b1:0000002300000000
#0223a1:00000014
#022371:0000000000000054
#0233a1:24
#0233b1:00000000000000130000000033000000
#023381:0000000000330023
#0253b1:00000000000000130000000023000000
#025371:0000000000330000
#025360:00000013
#025320:0000000000000033
#026360:23
#026360:00130000
#026320:0000002300000000
#026371:0000001300000000
#0263b1:0000000000000000000000000000000000000000005300000000000023000000
#026320:00000000000000130000000000002300
#026350:0000000000000000000000000000000000000000005300000000000000000000
#0273a0:14
#027370:0024000000000000
#0273a0:00140000
#027370:0000002400000000
#0273b0:0013
#027380:0000000000530000
#0273a0:00000024
#027351:0000000000130000
#027321:00000024
#028351:0000001300000000
#028321:0000000000240000
#028380:00000000000000130000000000000000
#0283a0:0000000000240000
#031350:13
#031320:0023000000000000
#031381:0013230000000000
#031350:00130000
#031320:0000002300000000
#031350:0000000000130000
#031320:00000023
#031381:00000013
#0313b1:0000000000000023
#033361:00000000001400240000000000000000
#0333a0:00000000000000140000000000000000
#033360:0000000000240000
#034360:00000000001400240000000000000000
#034321:00000000000000140000000000000000
#034361:0000000000240000
#035361:00000000001400240000000000000000
#0353a0:00000000000000140000000000000000
#035360:0000000000240000
#0363a0:14
#036370:0024000000000000
#036370:00000014000000000000000000000000
#0363a0:0000002400000000
#036361:0000001300000000
#036321:0000000000000000000000000000000000000053000000000000000000000000
#036351:00000023
#0363a0:00000000000000140000000024000000
#036370:0000000000000000000000000000000000000054000000000000000000000000
#037320:13230000
#037330:0033000000000033000000000000000000000000000000000000000000000000
#037340:00330033000000000000000000000000
#037350:0000003300330000000000000000000000000000000000000000000000000000
#037360:0033000000000000
#037371:00132300
#037381:0000000000000000003300000000003300000000000000000000000000000000
#037391:00000000003300330000000000000000
#0373a1:0000000000000000000000330033000000000000000000000000000000000000
#0373b1:0000003300000000
#037340:000000133300
#037330:000000000000000000000000003300330000000000000000
#037320:000000000000003300000000
#037350:000000000000000000000000000000000033000000000000
#037360:00000023
#037391:000000000000000000130033
#037381:000000000000000000000000000000000000003300330000
#037371:000000000033
#0373a1:000000000000000000000000000000000000000000000033
#0383b1:23
#038361:00000000000000140000000000002400
#0383a1:0000000000000000000000000000000000000000005400000000000000000000
#039371:00000014000000000000000000000000
#0393a1:0000002400000000
#039360:0000001424000000
#0393a1:0000000014000024
#039361:00000000000000000000005400000000
#040351:1400003400000000
#040321:00000034000000003400000000000000
#040361:00000054
#041321:24
#0473a1:1424000000000000
#047320:1424000000000000
#0473b0:00130000
#047370:0000002300000000
#047370:00000000000000130000000000000000
#0473b0:0000000000230000
#0473b0:00000013
#047370:0000000000000023
#048350:00000000001400000000000000000000
#048320:00000000000000345454545454545454
#048330:0000000000000000000000000000005400540054005400540054005400540054
#049320:24
#0483a1:00000000000000145454545454545454
#048391:0000000000000000000000000000005400540054005400540054005400540054
#0493a1:24
#0503a1:00000000000000140000000024000000
#050361:0000000000000000000000000000000000000054000000000000000000000000
#052321:00000000000000140000000024000000
#052361:0000000000000000000000000000000000000054000000000000000000000000
#0533a1:00000014000000000000000000000000
#053371:0000002400000000
#053391:00000000000000000000001400000000
#053361:0000000000000024
#054371:00000014000000000000000000000000
#0543a1:0000002400000000
#055321:00000014000000000000000000000000
#055351:0000002400000000
#055331:00000000000000000000001400000000
#055361:0000000000000024
#056351:00000014000000000000000000000000
#056321:0000002400000000
#057321:00000014000000000000000000000000
#057351:00000000005424000000000000000000
#057341:0000000000000000000000540000000000000000000000000000000000000000
#057331:00000000000000000000001400000000
#057361:00000000000000000000000000542400
#057351:0000000000000000000000000000000000000000000000000000005400000000
#058351:00000014000024000000000000000000
#058321:0000000000000000005400000000000000000000000000000000000000000000
#0593a1:00000014000000000000000000000000
#059371:00000000005424000000000000000000
#059381:0000000000000000000000540000000000000000000000000000000000000000
#059391:00000000000000000000001400000000
#059361:00000000000000000000000000542400
#059371:0000000000000000000000000000000000000000000000000000005400000000
#060371:00000014000024000000000000000000
#0603a1:0000000000000000005400000000000000000000000000000000000000000000
#008980:0000000000000014
#0089a0:000000000000000000000000000000000000000000000000000000000000000000000000000000000000000000000000000000000000000000000000000000000000000000000000000000000000000000000000000000000000000000000000000000000000000000000000000000000000000000000000000000000000000000000000000000000000000000000000000000000000000000000000000000000000000000000000000000000000000000000000000000000000000000000000000000000000000000000000000000000000000000000000000000000000000000000000000000000000000000000000000000000000000000000000000000000000000000000000000000000000000000000000000000000000000000000000000000000000000000000000000000000000000000000000000000000000000000000000000000000000000000000000000000000000000000000000000000000000000000000000000000000000000000000000000000000000000000000000000000000000000000000000000000000000000000000000000000000000000000000000000000000000000000000000000000000000000000000000000000000000000000000000000000000000000000000000000000000000000000000000000000000000000000000000000000000000000000000000000000000000000000000000000000000000000000000000000000000000000000000000000000000000000000000000000000000000000000000000000000000000000000000000000000000000000000000000000000000000000000000000000000000000000000000000000000000000000000000000000000000000000000000000000000000000000000000000000000000000000000000000000000000000000000000000000000000000000000000000000000000000000000000000000000000000000000000000000000000000000000000000000000000000000000000000000000000000000000000000000000000000000000000000000000000000000000000000000000000000000000000000000000000000000000000000000000000000000000000000000000000000000000000000000000000000000000000000000000000000000000000000000000000000000000000000000000000000000000000000000000000000000000000000000000000000000000000000000000000000000000000000000000000000000000000000000000000000000000000000000000000000000000000000000000000000000000000000000000000000000000000000000000000000000000000000000000000000000000000000000000000000000000000000000000000000000000000000000000000000000000000000000000000000000000000000000000000000000000000000000000000000000000000000000000000000000000000000000000000000000000000000000000000000000000000000000000000000000000000000000000000000000000000000000000000000000000000000000000000000000000000000000000000000000000000000000000000000000000000000000000000000000000000000000000000000000000000000000000000000000000000000000000000000000000000000000000000000000000000000000000000000000000000000000000000000000000000000000000000000000000000000000000000000000000000000000000000000000000000000000000000000000000000000000000000000000000000000000000000000000000000000000000000000000000000000000000000000000000000000000000000000000000000000000000000000000000000000000000000000000000000000000000000000000000000000000000000000000000000000000000000000000000000000000000000000000000000000000000000000000000000000000000000000000000000000000000000000000000000000000000000000000000000000000000000000000000000000000000000000000000000000000000000000000000000000000000000000000000000000000000000000000000000000000000000000000000000000000000000000000000000000000000000000000000000000000000000000000000000000000000000000000000000000000000000000000000000000000000000000000000000000000000000000000000000000000000000000000000000000000000000000000000000000000000000000000000000000000000000000000000000000000000000000000000000000000000000000000000000000000000000000000000000000000000000000000000000000000000000000000000000000000000000000000000000000000000000000000000000000000000000000000000000000000000000000000000000000000000000000000000000000000000000000000000000000000000000000000000000000000000000000000000000000000000000000000000000000000000000000000000000000000000000000000000000000000000000000000000000000000000000000000000000000000000000000000000000000000000000000000000005454
#0099a0:24
#012960:0000000014540000
#012970:000000000000000000000000000000000000000000000000000000000000000000000000000000000000000000000000000000000000000000000000000000000000000000000000000000000000000000000000000000000000000000000000000000000000000000000000000000000000000000000000000000000000000000000000000000000000000000000000000000000000000000000000000000000000000000000000000000000000000000000000000000000000000000000000000000000000000000000000000000000000000000000000000000000000000000000000000000000000000000000000000000000000000000000000000000000000000000000000000000000000000000000000000000000000000000000000000000000000000000000000000000000000000000000000000000000000000000000000000000000000000000000000000000000000000000000000000000000000000000000000000000000000000000000000000000000000000000000000000000000000000000000000000000000000000000000000000000000000000000000000000000000000000000000000000000000000000000000000000000000000000000000000000000000000000000000000000000000000000000000000000000000000000000000000000000000000000000000000000000000000000000000000000000000000000000000000000000000000000000000000000000000000000000000000000000000000000000000000000000000000000000000000000000000000000000000000000000000000000000000000000000000000000000000000000000000000000000000000000000000000000000000000000000000000000000000000000000000000000000000000000000000000000000000000000000000000000000000000000000000000000000000000000000000000000000000000000000000000000000000000000000000000000000000000000000000000000000000000000000000000000000000000000000000000000000000000000000000000000000000000000000000000000000000000000000000000000000000000000000000000000000000000000000000000000000000000000000000000000000000000000000000000000000000000000000000000000000000000000000000000000000000000000000000000000000000000000000000000000000000000000000000000000000000000000000000000000000000000000000000000000000000000000000000000000000000000000000000000000000000000000000000000000000000000000000000000000000000000000000000000000000000000000000000000000000000000000000000000000000000000000000000000000000000000000000000000000000000000000000000000000000000000000000000000000000000000000000000000000000000000540000000000000000000000000000000000000000000000000000000000000000000000000000000000000000000000000000000000000000000000000000000000000000000000000000000000000000000000000000000000000000000000000000000000000000000000000000000000000000000000000000000000000000000000000000000000000000000000000000000000000000000000000000000000000000000000000000000000000000000000000000000000000000000000000000000000000000000000000000000000000000000000000000000000000000000000000000000000000000545454240000000000000000000000000000000000000000000000000000000000000000000000000000000000000000000000000000000000000000000000000000000000000000000000000000000000000000000000000000000000000000000000000000000000000000000000000000000000000000000000000000000000000000000000000000000000000000000000000000000000000000000000000000000000000000000000000000000000000000000000000000000000000000000000000000000000000000000000000000000000000000000000000000000000000000000000000000000000000000000000000000000000000000000000000000000000000000000000000000000000000000000000000000000000000000000000000000000000000000000000000000000000000000000000000000000000000000000000000000000000000000000000000000000000000000000000000000000000000000000000000000000000000000000000000000000000000000000000000000000000000000000000000000000000000000000000000000000000000000000000000000000000000000000000000000000000000000000000000000000000000000000000000000000000000000000000000000000000000000000000000000000000000000000000000000000000000000000000000000000000000000000000000000000000000000000000000000000000000000000000000000000000000000000000000000000000000000000000000000000000000000000000000000000000000000000000000000000000000000000000
#017970:0013
#017990:000000000000000000000000000000000000000000000000000000000000000000000000000000000000000000000000000000000000000000000000000000000000000000000000000000000000000000000000000000000000000000000000000000000000000000000000000000000000000000000000000000000000000000000000000000000000000000000000000000000000000000000000000000000000000000000000000000000000000000000000000000000000000000000000000000000000000000000000000000000000000000000000000000000000000000000000000000000000000000000000000000000000000000000000000000000000000000000000000000000000000000000000000000000000000000000000000000000000000000000000000000000000000000000000000000000000000000000000000000000000000000000000000000000000000000000000000000000000000000000000000000000000000000000000000000000000000000000000000000000000000000000000000000000000000000000000000000000000000000000000000000000000000000000000000000000000000000000000000000000000000000000000000000000000000000000000000000000000000000000000000000000000000000000000000000000000000000000000000000000000000000000000000000000000000000000000000000000000000000000000000000000000000000000000000000000000000000000000000000000000000000000000000000000000000000000000000000000000000000000000000000000000000000000000000000000000000000000000000000000000000000000000000000000000000000000000000000000000000000000000000000000000000000000000000000000000000000000000000000000000000000000000000000000000000000000000000000000000000000000000000000000000000000000000000000000000000000000000000000000000000000000000000000000000000000000000000000000000000000000000000000000000000000000000000000000000000000000000000000000000000000000000000000000000000000000000000000000000000000000000000000000000000000000000000000000000000000000000000000000000000000000000000000000000000000000000000000000000000000000000000000000000000000000000000000000000000000000000000000000000000000000000000000000000000000000000000000000000000000000000000000000000000000000000000000000000000000000000000000000000000000000000000000000000000000000000000000000000000000000000000000000000000000000000000000000000000000000000000000000000000000000000000000000000000000000000000000000000000000005353230000000000000000000000000000000000000000000000000000000000000000000000000000000000000000000000000000000000000000000000000000000000000000000000000000000000000000000000000000000000000000000000000000000000000000000000000000000000000000000000000000000000000000000000000000000000000000000000000000000000000000000000000000000000000000000000000000000000000000000000000000000000000000000000000000000000000000000000000000000000000000000000000000000000000000000000000000000000000000000000000000000000000000000000000000000000000000000000000000000000000000000000000000000000000000000000000000000000000000000000000000000000000000000000000000000000000000000000000000000000000000000000000000000000000000000000000000000000000000000000000000000000000000000000000000000000000000000000000000000000000000000000000000000000000000000000000000000000000000000000000000000000000000000000000000000000000000000000000000000000000000000000000000000000000000000000000000000000000000000000000000000000000000000000000000000000000000000000000000000000000000000000000000000000000000000000000000000000000000000000000000000000000000000000000000000000000000000000000000000000000000000000000000000000000000000000000000000000000000000000000000000000000000000000000000000000000000000000000000000000000000000000000000000000000000000000000000000000000000000000000000000000000000000000000000000000000000000000000000000000000000000000000000000000000000000000000000000000000000000000000000000000000000000000000000000000000000000000000000000000000000000000000000000000000000000000000000000000000000000000000000000000000000000000000000000000000000000000000000000000000000000000000000000000000000000000000000000000000000000000
#017990:00000000000000000000001300000000
#0179b0:000000000000000000000000000000000000000000000000000000000000000000000000000000000000000000000000000000000000000000000000000000000000000000000000000000000000000000000000000000000000000000000000000000000000000000000000000000000000000000000000000000000000000000000000000000000000000000000000000000000000000000000000000000000000000000000000000000000000000000000000000000000000000000000000000000000000000000000000000000000000000000000000000000000000000000000000000000000000000000000000000000000000000000000000000000000000000000000000000000000000000000000000000000000000000000000000000000000000000000000000000000000000000000000000000000000000000000000000000000000000000000000000000000000000000000000000000000000000000000000000000000000000000000000000000000000000000000000000000000000000000000000000000000000000000000000000000000000000000000000000000000000000000000000000000000000000000000000000000000000000000000000000000000000000000000000000000000000000000000000000000000000000000000000000000000000000000000000000000000000000000000000000000000000000000000000000000000000000000000000000000000000000000000000000000000000000000000000000000000000000000000000000000000000000000000000000000000000000000000000000000000000000000000000000000000000000000000000000000000000000000000000000000000000000000000000000000000000000000000000000000000000000000000000000000000000000000000000000000000000000000000000000000000000000000000000000000000000000000000000000000000000000000000000000000000000000000000000000000000000000000000000000000000000000000000000000000000000000000000000000000000000000000000000000000000000000000000000000000000000000000000000000000000000000000000000000000000000000000000000000000000000000000000000000000000000000000000000000000000000000000000000000000000000000000000000000000000000000000000000000000000000000000000000000000000000000000000000000000000000000000000000000000000000000000000000000000000000000000000000000000000000000000000000000000000000000000000000000000000000000000000000000000000000000000000000000000000000000000000000000000000000000000000000000000000000000000000000000000000000000000000000000000000000000000000000000000000000000000000000000000000000000000000000000000000000000000000000000000000000000000000000000000000000000000000000000000000000000000000000000000000000000000000000000000000000000000000000000000000000000000000000000000000000000000000000000000000000000000000000000000000000000000000000000000000000000000000000000000000000000000000000000000000000000000000000000000000000000000000000000000000000000000000000000000000000000000000000000000000000000000000000000000000000000000000000000000000000000000000000000000000000000000000000000000000000000000000000000000000000000000000000000000000000000000000000000000000000000000000000000000000000000000000000000000000000000000000000000000000000000000000000000000000000000000000000000000000000000000000005353230000000000000000000000000000000000000000000000000000000000000000000000000000000000000000000000000000000000000000000000000000000000000000000000000000000000000000000000000000000000000000000000000000000000000000000000000000000000000000000000000000000000000000000000000000000000000000000000000000000000000000000000000000000000000000000000000000000000000000000000000000000000000000000000000000000000000000000000000000000000000000000000000000000000000000000000000000000000000000000000000000000000000000000000000000000000000000000000000000000000000000000000000000000000000000000000000000000000000000000000000000000000000000000000000000000000000000000000000000000000000000000000000000000000000000000000000000000000000000000000000000000000000000000000000000000000000000000000000000000000000000000000000000000000000000000000000000000000000000000000000000000000000000000000000000000000000000000000000000000000000000000000000000000000000000000000000000000000000000000000
#018960:0013
#018940:000000000000000000000000000000000000000000000000000000000000000000000000000000000000000000000000000000000000000000000000000000000000000000000000000000000000000000000000000000000000000000000000000000000000000000000000000000000000000000000000000000000000000000000000000000000000000000000000000000000000000000000000000000000000000000000000000000000000000000000000000000000000000000000000000000000000000000000000000000000000000000000000000000000000000000000000000000000000000000000000000000000000000000000000000000000000000000000000000000000000000000000000000000000000000000000000000000000000000000000000000000000000000000000000000000000000000000000000000000000000000000000000000000000000000000000000000000000000000000000000000000000000000000000000000000000000000000000000000000000000000000000000000000000000000000000000000000000000000000000000000000000000000000000000000000000000000000000000000000000000000000000000000000000000000000000000000000000000000000000000000000000000000000000000000000000000000000000000000000000000000000000000000000000000000000000000000000000000000000000000000000000000000000000000000000000000000000000000000000000000000000000000000000000000000000000000000000000000000000000000000000000000000000000000000000000000000000000000000000000000000000000000000000000000000000000000000000000000000000000000000000000000000000000000000000000000000000000000000000000000000000000000000000000000000000000000000000000000000000000000000000000000000000000000000000000000000000000000000000000000000000000000000000000000000000000000000000000000000000000000000000000000000000000000000000000000000000000000000000000000000000000000000000000000000000000000000000000000000000000000000000000000000000000000000000000000000000000000000000000000000000000000000000000000000000000000000000000000000000000000000000000000000000000000000000000000000000000000000000000000000000000000000000000000000000000000000000000000000000000000000000000000000000000000000000000000000000000000000000000000000000000000000000000000000000000000000000000000000000000000000000000000000000000000000000000000000000000000000000000000000000000000000000000000000000000000000000000000000000005353230000000000000000000000000000000000000000000000000000000000000000000000000000000000000000000000000000000000000000000000000000000000000000000000000000000000000000000000000000000000000000000000000000000000000000000000000000000000000000000000000000000000000000000000000000000000000000000000000000000000000000000000000000000000000000000000000000000000000000000000000000000000000000000000000000000000000000000000000000000000000000000000000000000000000000000000000000000000000000000000000000000000000000000000000000000000000000000000000000000000000000000000000000000000000000000000000000000000000000000000000000000000000000000000000000000000000000000000000000000000000000000000000000000000000000000000000000000000000000000000000000000000000000000000000000000000000000000000000000000000000000000000000000000000000000000000000000000000000000000000000000000000000000000000000000000000000000000000000000000000000000000000000000000000000000000000000000000000000000000000000000000000000000000000000000000000000000000000000000000000000000000000000000000000000000000000000000000000000000000000000000000000000000000000000000000000000000000000000000000000000000000000000000000000000000000000000000000000000000000000000000000000000000000000000000000000000000000000000000000000000000000000000000000000000000000000000000000000000000000000000000000000000000000000000000000000000000000000000000000000000000000000000000000000000000000000000000000000000000000000000000000000000000000000000000000000000000000000000000000000000000000000000000000000000000000000000000000000000000000000000000000000000000000000000000000000000000000000000000000000000000000000000000000000000000000000000000000000000000000000
#018940:00000000000000000000001300000000
#018920:000000000000000000000000000000000000000000000000000000000000000000000000000000000000000000000000000000000000000000000000000000000000000000000000000000000000000000000000000000000000000000000000000000000000000000000000000000000000000000000000000000000000000000000000000000000000000000000000000000000000000000000000000000000000000000000000000000000000000000000000000000000000000000000000000000000000000000000000000000000000000000000000000000000000000000000000000000000000000000000000000000000000000000000000000000000000000000000000000000000000000000000000000000000000000000000000000000000000000000000000000000000000000000000000000000000000000000000000000000000000000000000000000000000000000000000000000000000000000000000000000000000000000000000000000000000000000000000000000000000000000000000000000000000000000000000000000000000000000000000000000000000000000000000000000000000000000000000000000000000000000000000000000000000000000000000000000000000000000000000000000000000000000000000000000000000000000000000000000000000000000000000000000000000000000000000000000000000000000000000000000000000000000000000000000000000000000000000000000000000000000000000000000000000000000000000000000000000000000000000000000000000000000000000000000000000000000000000000000000000000000000000000000000000000000000000000000000000000000000000000000000000000000000000000000000000000000000000000000000000000000000000000000000000000000000000000000000000000000000000000000000000000000000000000000000000000000000000000000000000000000000000000000000000000000000000000000000000000000000000000000000000000000000000000000000000000000000000000000000000000000000000000000000000000000000000000000000000000000000000000000000000000000000000000000000000000000000000000000000000000000000000000000000000000000000000000000000000000000000000000000000000000000000000000000000000000000000000000000000000000000000000000000000000000000000000000000000000000000000000000000000000000000000000000000000000000000000000000000000000000000000000000000000000000000000000000000000000000000000000000000000000000000000000000000000000000000000000000000000000000000000000000000000000000000000000000000000000000000000000000000000000000000000000000000000000000000000000000000000000000000000000000000000000000000000000000000000000000000000000000000000000000000000000000000000000000000000000000000000000000000000000000000000000000000000000000000000000000000000000000000000000000000000000000000000000000000000000000000000000000000000000000000000000000000000000000000000000000000000000000000000000000000000000000000000000000000000000000000000000000000000000000000000000000000000000000000000000000000000000000000000000000000000000000000000000000000000000000000000000000000000000000000000000000000000000000000000000000000000000000000000000000000000000000000000000000000000000000000000000000000000000000000000000000000000000000000000000000000000005353230000000000000000000000000000000000000000000000000000000000000000000000000000000000000000000000000000000000000000000000000000000000000000000000000000000000000000000000000000000000000000000000000000000000000000000000000000000000000000000000000000000000000000000000000000000000000000000000000000000000000000000000000000000000000000000000000000000000000000000000000000000000000000000000000000000000000000000000000000000000000000000000000000000000000000000000000000000000000000000000000000000000000000000000000000000000000000000000000000000000000000000000000000000000000000000000000000000000000000000000000000000000000000000000000000000000000000000000000000000000000000000000000000000000000000000000000000000000000000000000000000000000000000000000000000000000000000000000000000000000000000000000000000000000000000000000000000000000000000000000000000000000000000000000000000000000000000000000000000000000000000000000000000000000000000000000000000000000000000000000
#0199b0:0013
#019990:000000000000000000000000000000000000000000000000000000000000000000000000000000000000000000000000000000000000000000000000000000000000000000000000000000000000000000000000000000000000000000000000000000000000000000000000000000000000000000000000000000000000000000000000000000000000000000000000000000000000000000000000000000000000000000000000000000000000000000000000000000000000000000000000000000000000000000000000000000000000000000000000000000000000000000000000000000000000000000000000000000000000000000000000000000000000000000000000000000000000000000000000000000000000000000000000000000000000000000000000000000000000000000000000000000000000000000000000000000000000000000000000000000000000000000000000000000000000000000000000000000000000000000000000000000000000000000000000000000000000000000000000000000000000000000000000000000000000000000000000000000000000000000000000000000000000000000000000000000000000000000000000000000000000000000000000000000000000000000000000000000000000000000000000000000000000000000000000000000000000000000000000000000000000000000000000000000000000000000000000000000000000000000000000000000000000000000000000000000000000000000000000000000000000000000000000000000000000000000000000000000000000000000000000000000000000000000000000000000000000000000000000000000000000000000000000000000000000000000000000000000000000000000000000000000000000000000000000000000000000000000000000000000000000000000000000000000000000000000000000000000000000000000000000000000000000000000000000000000000000000000000000000000000000000000000000000000000000000000000000000000000000000000000000000000000000000000000000000000000000000000000000000000000000000000000000000000000000000000000000000000000000000000000000000000000000000000000000000000000000000000000000000000000000000000000000000000000000000000000000000000000000000000000000000000000000000000000000000000000000000000000000000000000000000000000000000000000000000000000000000000000000000000000000000000000000000000000000000000000000000000000000000000000000000000000000000000000000000000000000000000000000000000000000000000000000000000000000000000000000000000000000000000000000000000000000000000000000000000005353230000000000000000000000000000000000000000000000000000000000000000000000000000000000000000000000000000000000000000000000000000000000000000000000000000000000000000000000000000000000000000000000000000000000000000000000000000000000000000000000000000000000000000000000000000000000000000000000000000000000000000000000000000000000000000000000000000000000000000000000000000000000000000000000000000000000000000000000000000000000000000000000000000000000000000000000000000000000000000000000000000000000000000000000000000000000000000000000000000000000000000000000000000000000000000000000000000000000000000000000000000000000000000000000000000000000000000000000000000000000000000000000000000000000000000000000000000000000000000000000000000000000000000000000000000000000000000000000000000000000000000000000000000000000000000000000000000000000000000000000000000000000000000000000000000000000000000000000000000000000000000000000000000000000000000000000000000000000000000000000000000000000000000000000000000000000000000000000000000000000000000000000000000000000000000000000000000000000000000000000000000000000000000000000000000000000000000000000000000000000000000000000000000000000000000000000000000000000000000000000000000000000000000000000000000000000000000000000000000000000000000000000000000000000000000000000000000000000000000000000000000000000000000000000000000000000000000000000000000000000000000000000000000000000000000000000000000000000000000000000000000000000000000000000000000000000000000000000000000000000000000000000000000000000000000000000000000000000000000000000000000000000000000000000000000000000000000000000000000000000000000000000000000000000000000000000000000000000000000000000
#019990:00000000000000000000001300000000
#019970:000000000000000000000000000000000000000000000000000000000000000000000000000000000000000000000000000000000000000000000000000000000000000000000000000000000000000000000000000000000000000000000000000000000000000000000000000000000000000000000000000000000000000000000000000000000000000000000000000000000000000000000000000000000000000000000000000000000000000000000000000000000000000000000000000000000000000000000000000000000000000000000000000000000000000000000000000000000000000000000000000000000000000000000000000000000000000000000000000000000000000000000000000000000000000000000000000000000000000000000000000000000000000000000000000000000000000000000000000000000000000000000000000000000000000000000000000000000000000000000000000000000000000000000000000000000000000000000000000000000000000000000000000000000000000000000000000000000000000000000000000000000000000000000000000000000000000000000000000000000000000000000000000000000000000000000000000000000000000000000000000000000000000000000000000000000000000000000000000000000000000000000000000000000000000000000000000000000000000000000000000000000000000000000000000000000000000000000000000000000000000000000000000000000000000000000000000000000000000000000000000000000000000000000000000000000000000000000000000000000000000000000000000000000000000000000000000000000000000000000000000000000000000000000000000000000000000000000000000000000000000000000000000000000000000000000000000000000000000000000000000000000000000000000000000000000000000000000000000000000000000000000000000000000000000000000000000000000000000000000000000000000000000000000000000000000000000000000000000000000000000000000000000000000000000000000000000000000000000000000000000000000000000000000000000000000000000000000000000000000000000000000000000000000000000000000000000000000000000000000000000000000000000000000000000000000000000000000000000000000000000000000000000000000000000000000000000000000000000000000000000000000000000000000000000000000000000000000000000000000000000000000000000000000000000000000000000000000000000000000000000000000000000000000000000000000000000000000000000000000000000000000000000000000000000000000000000000000000000000000000000000000000000000000000000000000000000000000000000000000000000000000000000000000000000000000000000000000000000000000000000000000000000000000000000000000000000000000000000000000000000000000000000000000000000000000000000000000000000000000000000000000000000000000000000000000000000000000000000000000000000000000000000000000000000000000000000000000000000000000000000000000000000000000000000000000000000000000000000000000000000000000000000000000000000000000000000000000000000000000000000000000000000000000000000000000000000000000000000000000000000000000000000000000000000000000000000000000000000000000000000000000000000000000000000000000000000000000000000000000000000000000000000000000000000000000000000000000000000000005353230000000000000000000000000000000000000000000000000000000000000000000000000000000000000000000000000000000000000000000000000000000000000000000000000000000000000000000000000000000000000000000000000000000000000000000000000000000000000000000000000000000000000000000000000000000000000000000000000000000000000000000000000000000000000000000000000000000000000000000000000000000000000000000000000000000000000000000000000000000000000000000000000000000000000000000000000000000000000000000000000000000000000000000000000000000000000000000000000000000000000000000000000000000000000000000000000000000000000000000000000000000000000000000000000000000000000000000000000000000000000000000000000000000000000000000000000000000000000000000000000000000000000000000000000000000000000000000000000000000000000000000000000000000000000000000000000000000000000000000000000000000000000000000000000000000000000000000000000000000000000000000000000000000000000000000000000000000000000000000000
#027920:0000001400000000
#027950:0024
#030980:000000000000000000000000000000000000000000000000000000000000000000000000000000000000000000000000000000000000000000000000000000000000000000000000000000000000000000000000000000000000000000000000000000000000000000000000000000000000000000000000000000000000000000000000000000000000000000000000000000000000000000000000000000000000000000000000000000000000000000000000000000000000000000000000000000000000000000000000000000000000000000000000000000000000000000000000000000000000000000000000000000000000000000000000000000000000000000000000000000000000000000000000000000000000000000000000000000000000000000000000000000000000000000000000000000000000000000000000000000000000000000000000000000000000000000000000000000000000000000000000000000000000000000000000000000000000000000000000000000000000000000000000000000000000000000000000000000000000000000000000000000000000000000000000000000000000000000000000000000000000000000000000000000000000000000000000000000000000000000000000130000000000000000000000000000000000000000000000000000000000000000000000000000000000000000000000000000000000000000000000000000000000000000000000000000000000000000000000000000000000000000000000000000000000000000000000000000000000000000000000000000000000000000000000000000000000000000000000000000000000000000000000000000000000000000000000000000000000000000000000000000000000000000000000000000000000000000000000000000000000000000000000000000000000000000000000000000000000000000005353230000000000000000000000000000000000000000000000000000000000000000000000000000000000000000000000000000000000000000000000000000000000000000000000000000000000000000000000000000000000000000000000000000000000000000000000000000000000000000000000000000000000000000000000000000000000000000000000000000000000000000000000000000000000000000000000000000000000000000000000000000000000000000000000000000000000000000000000000000000000000000000000000000000000000000000000000000000000000000000000000000000000000000000000000000000000000000000000000000000000000000000000000000000000000000000000000000000000000000000000000000000000000000000000000000000000000000000000000000000000000000000000000000000000000000000000000000000000000000000000000000000000000000000000000000000000000000000000000000000000000000000000000000000000000000000000000000000000000000000000000000000000000000000000000000000000000000000000000000000000000000000000000000000000000000000000000000000000000000000000000000000000000000000000000000000000000000000000000000000000000000000000000000000000000000000000000000000000000000000000000000000000000000000000000000000000000000000000000000000000000000000000000000000000000000000000000000000000000000000000000000000000000000000000000000000000000000000000000000000000000000000000000000000000000000000000000000000000000000000000000000000000000000000000000000000000000000000000000000000000000000000000000000000000000000000000000000000000000000000000000000000000000000000000000000000000000000000000000000000000000000000000000000000000000000000000000000000000000000000000000000000000000000000000000000000000000000000000000000000000000000000000000000000000000000000000000000000000000000000000000000000000000000000000000000000000000000000000000000000000000000000000000000000000000000000000000000000000000000000000000000000000000000000000000000000000000000000000000000000000000000000000000000000000000000000000000000000000000000000000000000000000000000000000000000000000000000000000000000000000000000000000000000000000000000000000000000000000000000000000000000000000000000000000000000000000000000000000000000000000000000000000000000000000000000000000000000000000000000000000000000000000000000000000000000000000000000000000000000000000000000000000000000000000000000000000000000000000000000000000000000000000000000000000000000000000000000000000000000000000000000000000000000000000000000000000000000000000000000000000
#043980:12
#0439c0:000000000000000000000000000000000000000000000000000000000000000000000000000000000000000000000000000000000000000000000000000000000000000000000000000000000000000000000000000000000000000000000000000000000000000000000000000000000000000000000000000000000000000000000000000000000000000000000000000000000000000000000000000000000000000000000000000000000000000000000000000000000000000000000000000000000000000000000000000000000000000000000000000000000000000000000000000000000000000000000000000000000000000000000000000000000000000000000000000000000000000000000000000000000000000000000000000000000000000000000000000000000000000000000000000000000000000000000000000000000000000000000000000000000000000000000000000000000000000000000000000000000000000000000000000000000000000000000000000000000000000000000000000000000000000000000000000000000000000000000000000000000000000000000000000000000000000000000000000000000000000000000000000000000000000000000000000000000000000000000000000000000000000000000000000000000000000000000000000000000000000000000000000000000000000000000000000000000000000000000000000000000000000000000000000000000000000000000000000000000000000000000000000000000000000000000000000000000000000000000000000000000000000000000000000000000000000000000000000000000000000000000000000000000000000000000000000000000000000000000000000000000000000000000000000000000000000000000000000000000000000000000000000000000000000000000000000000000000000000000000000000000000000000000000000000000000000000000000000000000000000000000000000000000000000000000000000000000000000000000000000000000000000000000000000000000000000000000000000000000000000000000000000000000000000000000000000000000000000000000000520000000000000000000000000000000000000000000000000000000000000000000000000000000000000000000000000000000000000000000000000000000000000000000000000000000000000000000000000000000000000000000000000000000000000000000000000000000000000000000000000000000000000000000000000000000000000000000000000000000000000000000000000000000000000000000000000000000000000000000000000000000000000000000000000000000000000000000000000000000000000000000000000000000000000000000000000000000000000000000000000000000000000000000000000000000000000000000000000000000000000000000000000000000000000000000000000000000000000000000000000000000000000000000000000000000000000000000000000000000000000000000000000000000000000000000000000000000000000000000000000000000000000000000000000000000000000000000000000000000000000000000000000000000000000000000000000000000000000000000000000000000000000000000000000000000000000000000000000000000000000000000000000000000000000000000000000000000000000000000000000000000000000000000000000000000000000000000000000000000000000000000000000000000000000000000000000000000000000000000000000000000000000000000000000000000000000000000000000000000000000000000000000000000000000000000000000000000000000052525252220000000000000000000000000000000000000000000000000000000000000000000000000000000000000000000000000000000000000000000000000000000000000000000000000000000000000000000000000000000000000000000000000000000000000000000000000000000000000000000000000000000000000000000000000000000000000000000000000000000000000000000000000000000000000000000000000000000000000000000000000000000000000000000000000000000000000000000000000000000000000000000000000000000000000000000000000000000000000000000000000000000000000000000000000000000000000000000000000000000000000000000000000000000000000000000000000000000000000000000000000000000000000000000000000000000000000000000000000000000000000000000000000000000000000000000000000000000000000000000000000000000000000000000000000000000000000000000000000000000000000000000000000000000000000000000000000000000000000000000000000000000000000000000000000000000000000000000000000000000000000000000000000000000000000000000000000000000000000000000000
#044960:12
#044920:000000000000000000000000000000000000000000000000000000000000000000000000000000000000000000000000000000000000000000000000000000000000000000000000000000000000000000000000000000000000000000000000000000000000000000000000000000000000000000000000000000000000000000000000000000000000000000000000000000000000000000000000000000000000000000000000000000000000000000000000000000000000000000000000000000000000000000000000000000000000000000000000000000000000000000000000000000000000000000000000000000000000000000000000000000000000000000000000000000000000000000000000000000000000000000000000000000000000000000000000000000000000000000000000000000000000000000000000000000000000000000000000000000000000000000000000000000000000000000000000000000000000000000000000000000000000000000000000000000000000000000000000000000000000000000000000000000000000000000000000000000000000000000000000000000000000000000000000000000000000000000000000000000000000000000000000000000000000000000000000000000000000000000000000000000000000000000000000000000000000000000000000000000000000000000000000000000000000000000000000000000000000000000000000000000000000000000000000000000000000000000000000000000000000000000000000000000000000000000000000000000000000000000000000000000000000000000000000000000000000000000000000000000000000000000000000000000000000000000000000000000000000000000000000000000000000000000000000000000000000000000000000000000000000000000000000000000000000000000000000000000000000000000000000000000000000000000000000000000000000000000000000000000000000000000000000000000000000000000000000000000000000000000000000000000000000000000000000000000000000000000000000000000000000000000000000000000000000000000000000520000000000000000000000000000000000000000000000000000000000000000000000000000000000000000000000000000000000000000000000000000000000000000000000000000000000000000000000000000000000000000000000000000000000000000000000000000000000000000000000000000000000000000000000000000000000000000000000000000000000000000000000000000000000000000000000000000000000000000000000000000000000000000000000000000000000000000000000000000000000000000000000000000000000000000000000000000000000000000000000000000000000000000000000000000000000000000000000000000000000000000000000000000000000000000000000000000000000000000000000000000000000000000000000000000000000000000000000000000000000000000000000000000000000000000000000000000000000000000000000000000000000000000000000000000000000000000000000000000000000000000000000000000000000000000000000000000000000000000000000000000000000000000000000000000000000000000000000000000000000000000000000000000000000000000000000000000000000000000000000000000000000000000000000000000000000000000000000000000000000000000000000000000000000000000000000000000000000000000000000000000000000000000000000000000000000000000000000000000000000000000000000000000000000000000000000000000000000000052525252220000000000000000000000000000000000000000000000000000000000000000000000000000000000000000000000000000000000000000000000000000000000000000000000000000000000000000000000000000000000000000000000000000000000000000000000000000000000000000000000000000000000000000000000000000000000000000000000000000000000000000000000000000000000000000000000000000000000000000000000000000000000000000000000000000000000000000000000000000000000000000000000000000000000000000000000000000000000000000000000000000000000000000000000000000000000000000000000000000000000000000000000000000000000000000000000000000000000000000000000000000000000000000000000000000000000000000000000000000000000000000000000000000000000000000000000000000000000000000000000000000000000000000000000000000000000000000000000000000000000000000000000000000000000000000000000000000000000000000000000000000000000000000000000000000000000000000000000000000000000000000000000000000000000000000000000000000000000000000000000
#0459c0:12
#045980:000000000000000000000000000000000000000000000000000000000000000000000000000000000000000000000000000000000000000000000000000000000000000000000000000000000000000000000000000000000000000000000000000000000000000000000000000000000000000000000000000000000000000000000000000000000000000000000000000000000000000000000000000000000000000000000000000000000000000000000000000000000000000000000000000000000000000000000000000000000000000000000000000000000000000000000000000000000000000000000000000000000000000000000000000000000000000000000000000000000000000000000000000000000000000000000000000000000000000000000000000000000000000000000000000000000000000000000000000000000000000000000000000000000000000000000000000000000000000000000000000000000000000000000000000000000000000000000000000000000000000000000000000000000000000000000000000000000000000000000000000000000000000000000000000000000000000000000000000000000000000000000000000000000000000000000000000000000000000000000000000000000000000000000000000000000000000000000000000000000000000000000000000000000000000000000000000000000000000000000000000000000000000000000000000000000000000000000000000000000000000000000000000000000000000000000000000000000000000000000000000000000000000000000000000000000000000000000000000000000000000000000000000000000000000000000000000000000000000000000000000000000000000000000000000000000000000000000000000000000000000000000000000000000000000000000000000000000000000000000000000000000000000000000000000000000000000000000000000000000000000000000000000000000000000000000000000000000000000000000000000000000000000000000000000000000000000000000000000000000000000000000000000000000000000000000000000000000000000000000000520000000000000000000000000000000000000000000000000000000000000000000000000000000000000000000000000000000000000000000000000000000000000000000000000000000000000000000000000000000000000000000000000000000000000000000000000000000000000000000000000000000000000000000000000000000000000000000000000000000000000000000000000000000000000000000000000000000000000000000000000000000000000000000000000000000000000000000000000000000000000000000000000000000000000000000000000000000000000000000000000000000000000000000000000000000000000000000000000000000000000000000000000000000000000000000000000000000000000000000000000000000000000000000000000000000000000000000000000000000000000000000000000000000000000000000000000000000000000000000000000000000000000000000000000000000000000000000000000000000000000000000000000000000000000000000000000000000000000000000000000000000000000000000000000000000000000000000000000000000000000000000000000000000000000000000000000000000000000000000000000000000000000000000000000000000000000000000000000000000000000000000000000000000000000000000000000000000000000000000000000000000000000000000000000000000000000000000000000000000000000000000000000000000000000000000000000000000000000052525252220000000000000000000000000000000000000000000000000000000000000000000000000000000000000000000000000000000000000000000000000000000000000000000000000000000000000000000000000000000000000000000000000000000000000000000000000000000000000000000000000000000000000000000000000000000000000000000000000000000000000000000000000000000000000000000000000000000000000000000000000000000000000000000000000000000000000000000000000000000000000000000000000000000000000000000000000000000000000000000000000000000000000000000000000000000000000000000000000000000000000000000000000000000000000000000000000000000000000000000000000000000000000000000000000000000000000000000000000000000000000000000000000000000000000000000000000000000000000000000000000000000000000000000000000000000000000000000000000000000000000000000000000000000000000000000000000000000000000000000000000000000000000000000000000000000000000000000000000000000000000000000000000000000000000000000000000000000000000000000000
