This file was generated by Ched 2.7.0.0.
#TITLE ""
#ARTIST ""
#DESIGNER ""
#DIFFICULTY 0
#PLAYLEVEL
#SONGID ""
#WAVE ""
#WAVEOFFSET 0
#JACKET ""
#REQUEST "ticks_per_beat 480"
#00002: 4
#BPM01: 120
#00008: 01
#TIL00: ""
#VOLUME: ""
#HISPEED 00
#MEASUREHS 00
#00114:0014
#0011a:24
#0021a:14
#00214:0014
#00218:00000014
#00312:14
#00318:0014
#00412:14
#00418:0014
#00414:00000014
#0051a:2414
#00510:41
#00614:1414
#00618:00000014
#00712:1414
#00818:1414
#00814:00000014
#00914:0014
#0091a:24
#0101a:1414
#01014:00140000
#01112:14
#01118:0014
#01212:1414
#01218:00140000
#01314:0014
#0131a:24
#01310:41
#01418:14
#01412:00140000
#0141a:0014
#01512:14
#01518:0014
#01614:14
#0161a:00140000
#01612:0014
#01712:0014
#0171a:00000014
#01718:24
#0181a:0014
#01812:00000014
#01814:14
#01912:0014
#0191a:00000014
#01918:14
#02114:00140014
#02118:0014
#0211a:24
#02110:41
#02212:00140014
#02218:0014
#0221a:24
#02314:00140014
#02318:0014
#0231a:24
#02518:14
#02514:00140000
#0251a:0014
#02512:00000014
#02418:16
#02412:0016
#02614:00000000240000140000000000000000
#02618:24
#02818:00000000000000140000000000000000
#02914:0014
#02918:00000014
#0291a:24
#02910:41
#03018:0014
#03014:00000014
#03012:24
#03112:00140000
#03118:0014
#03114:00000014
#0311a:24
#0321a:14
#03212:00140000
#03218:0014
#03214:00000014
#04718:0014
#04712:00000014
#04714:00140000
#0471a:24
#0471f:21
#04710:0041
#04814:00000000240000140000000000000000
#0481a:24
#05014:24000000240000140000000000000000
#05018:0024000000000000
#05314:0014
#0541a:14
#05414:0014
#05418:00000014
#05512:14
#05518:0014
#05612:14
#05618:0014
#05614:00000014
#05714:0014
#0571a:24
#0581a:14
#05814:0014
#05818:00000014
#05912:14
#05918:0014
#06012:14
#06018:0014
#06014:00000014
#03316:00140014
#03312:0014
#0331a:24
#03416:00140000
#03412:0014
#0341a:24000014
#03516:00140014
#0351a:0014
#03512:24
#0361a:00140000
#03614:0014
#03618:00000014
#03612:24
#03712:1414
#03714:00140000
#0431a:14
#04416:14
#04512:14
#04618:15
#04613:0015
#03818:14
#03814:00140000
#0381a:0014
#03812:00000014
#03810:41
#03918:1414
#0391a:00140000
#0391f:11
#04014:1414
#04012:0000140000000014
#05218:24000000240000140000000000000000
#05214:0024000000000000
#0271a:0024
#02718:24
#02714:00240000
#02712:00000024
#04114:00000000000000240000000000000000
#04916:0024
#0491a:24000024
#04912:00240000
#01752:0014
#0175a:00000014
#0185a:0014
#01852:00000014
#01952:0014
#0195a:00000014
#02054:0014
#0215a:14
#02458:16
#02452:0016
#02654:00000000000000540000000000000000
#0295a:14
#02858:00000000000000540000000000000000
#03052:14
#04854:00000000000000540000000000000000
#05054:00000000000000540000000000000000
#05152:14
#0575a:14
#05754:0014
#03752:6464
#03754:00640000
#04658:15
#04653:0015
#05952:14
#05958:0014
#03958:6464
#0395a:00640000
#04054:5454
#04052:0000540000000024
#04154:00000000000000140000000000000000
#05258:00000000000000640000000000000000
#0535a:14
#05552:14
#0585a:14
#06052:14
#03452:0014
#0345a:00000014
#020340:1424
#026340:00000000140000340000000000000000
#026320:00000024
#028380:14000000340034340000000000000000
#0293a0:24
#037320:1434
#037340:00340024
#039380:1434
#0393a0:00340024
#040340:1434
#040320:0000340000000054
#041340:00000000540000240000000000000000
#048340:00000000140000340000000000000000
#048320:00000024
#050340:00000000140034340000000000000000
#051320:24
#052380:00000000140034340000000000000000
#0533a0:24
