This file was generated by Ched 2.7.0.0.
#TITLE ""
#ARTIST ""
#DESIGNER ""
#DIFFICULTY 0
#PLAYLEVEL
#SONGID ""
#WAVE ""
#WAVEOFFSET 0
#JACKET ""
#REQUEST "ticks_per_beat 480"
#00002: 4
#BPM01: 190
#00008: 01
#TIL00: ""
#VOLUME: ""
#HISPEED 00
#MEASUREHS 00
#01218:13
#01212:5200000023000013
#01217:0013
#01216:00130000
#0121b:00230000
#01315:13000013
#01318:0013000000000000
#01312:0000001300000000
#0131b:0000130000000013
#01317:0013
#01518:13000013
#01515:0013000000000000
#0151b:0000001300000000
#01512:0000130000000013
#01516:0013
#0511a:00141400
#05115:0000001400000000
#05112:0000000000140014
#05117:00000014
#07618:0000140000130013
#07615:0014000000001300
#07612:0000001400000000
#0311b:0000000013000013
#03112:0013000000000000
#03118:00130013
#03115:0000001300130000
#00012:0000131300001300
#0001b:13
#00018:0000131300001300
#0011b:0000131300001300
#00115:0000131300001300
#00218:0000131300001300
#00212:0000131300001300
#00415:0000000000130000
#0041b:53000013
#00412:1300000000000013
#00418:0013
#00416:00130000
#00516:0013
#00519:0000000000130000
#00514:00000013
#00517:0000000000000013
#0051b:0000001300000000
#01612:0000001300000000
#01615:0000000013000013
#01618:1300000000130000
#0161b:00000013
#01610:41
#01416:0013
#0141b:0000000023000013
#01417:00130000
#01412:00230000
#02118:1300000013000013
#02112:0013000000001300
#02115:0000130000130000
#0211b:0000001300000000
#02215:13
#02218:0000000000000013
#02217:00130000
#02216:0013
#02212:00230000
#0221b:0023
#02015:0000000000000013
#02018:13
#02016:00130000
#02017:0013
#0201b:00230000
#02012:0023
#02418:1300001300001300
#02415:0000000013000013
#02412:0000230000230000
#02518:0000000013000013
#02515:00130013
#02512:00130000000000000000000000000000
#0251b:0000230000230000
#02615:0013000000001300
#02618:0000130000000013
#0261b:00130000000000000000000000000000
#02612:0000230000230000
#02718:0013
#02715:0000000000130000
#0271b:23230013
#02712:2300230000000013
#03018:00131300
#03012:1300001300130000
#0301b:0000000000000013
#03818:00131300
#0381b:0013000000000013
#03815:0000001300000000
#03812:0000000000232300
#03912:0013000000000013
#03915:00131300
#03918:0000001300000000
#0391b:0000000000232300
#04015:00130000
#04018:0000001300000000
#0401b:0013000000000000
#04514:0000000000000014
#04518:00260014
#04512:2626
#04712:1313
#04717:0000000000130000
#0471b:0000130000000013
#04716:0000000000000013
#04718:26
#04812:0013000000000000
#04817:00130000
#04816:0013
#0481b:0013
#04917:13130000
#04912:1313
#04918:00000013
#04910:41
#0501b:00130013
#05016:1300000000000013
#05012:0013
#05218:0000000000000013
#0521a:0014001400000000
#05215:00140000
#05212:00000014
#05912:00131313
#05917:0000001300000000
#05919:0000000000130000
#0591b:0000000000000013
#0551b:1313
#05516:0000000000130000
#05512:2600130000000013
#05517:0000000000000013
#0561b:0013000000000000
#05616:00130000
#05617:0013
#05612:0013
#0601b:00000013
#06017:0013
#06012:0013
#06016:00000013
#06010:0041
#06112:14
#06116:0014001300000000
#0611a:00140000
#06118:00000013
#06115:0000000000000013
#06218:0000001300130000
#0621b:23130000
#0621f:11
#0621a:0000000000000024
#06212:2300000000000024
#06215:00232323
#0631a:0024001400000000
#06318:0014
#06316:0000140000140000
#06314:00000014
#06317:0000000000000013
#06312:0000000000000014
#06416:0013001300000000
#0641b:00130000
#06417:0000000000130000
#06412:00000013
#0641a:0000000000000014
#0651b:00130000
#06514:0000001300000000
#06519:0013
#06512:0000000000130014
#06517:00000013
#06516:0013000000000000
#06616:0014000000000013
#06612:00140000
#06615:0000000000150000
#06619:0000001500001500
#06716:00130000
#06718:0013000013000000
#06715:0000000000130000
#06712:00000013
#06717:0000000000000013
#06815:0013000013000000
#0681a:0000000000140000
#06812:0000000000000014
#06818:00130000
#0681b:0000001300000000
#06816:00000014
#06918:1300000000130000
#06915:0013000013001300
#0691a:00140000
#06912:0000140000000013
#0691b:0000000000000013
#07114:0014000013000000
#07117:0000000000130000
#07112:2400000000000013
#07118:0014000000000000
#0711a:24
#0711f:00210000
#07219:0013000000000000
#07216:00130000
#0721b:0013
#07212:0013
#07210:41
#07315:13130013
#07318:1313
#0731a:0013000000000000
#07313:0000001300000000
#0731b:0000000000130000
#07312:0000000000000013
#07515:0000001400140000
#07518:0014
#07512:00140014
#0751a:0000000000000024
#0771b:13
#07718:0000001300000000
#07715:0013
#07714:00130000
#07712:13
#07713:0000000000242400
#07719:0000000000242400
#0781a:14
#07812:1400000000252500
#07818:00140000
#07814:0000001400000000
#07817:0014
#07819:0000000000252500
#08613:00140000
#08617:14
#08615:00000014
#08619:0014
#08612:24
#08618:00240000
#08614:0024
#0861a:00000024
#03712:0000000000000013
#03718:00120000
#03713:0012
#03719:00000000005200000000000012000000
#03716:0012000000120000
#03710:0000000000000041
#0371b:00000000000000520000000000000000
#0371c:0052
#0371a:0000005200000000
#07417:0014000000000000
#07416:0000001400140000
#07412:00240014
#0741a:2400000024000014
#00315:0013001300000000
#00317:00000013
#0031a:24000000000000002400000000000053
#00312:0024
#00318:00000000240000000000000000530000
#00319:0000000000000053
#00817:0000001300130000
#00816:1300000000000013
#00812:0000001300130000
#0081b:1300000000000013
#07918:0000000013000013
#07914:00150000
#0791b:00130000
#07912:13
#07915:0000000000000013
#07917:25
#08118:13130013
#08115:1313
#08113:0013000000000000
#0811a:0000001300000000
#08112:0000000000130000
#0811b:0000000000000013
#02918:0012001200120012
#02914:00120012
#02916:0012
#02816:0012001200120012
#0281a:00120012
#02818:1212
#02810:41
#05716:13130000
#0571b:1313
#05715:00000013
#05817:13
#05812:00130014
#0581b:0013
#0581a:0000000000000024
#01912:00250013
#0191b:00000013
#01916:24
#01919:00250000
#04118:0000000000000013
#04114:0000000000130000
#04119:0000000000130000
#04115:23
#04112:0023000000000000
#0411b:0023000000000000
#0411a:0000002300000000
#04113:0000002300000000
#08516:0014001300000000
#0851a:00140000
#08515:0000000000000013
#08512:14
#08518:00000013
#0061b:0000131300000000
#00616:0000001300000000
#00612:1300000000130000
#00615:0000000000000013
#00718:1300000013000013
#00715:00000013
#00712:0013001300130000
#0071b:0013001300000000
#0181a:00000013
#01815:0000001300000000
#01818:0000001300000000
#01812:00130000
#0181b:00130000
#01813:0000000000000013
#02315:1300000013000013
#0231b:0013000000001300
#02318:0000130000130000
#02312:0000001300000000
#0341b:00131300
#03416:0000001300130000
#03417:0000000000000013
#0351b:0000130000000013
#03512:0000000013000013
#03518:0000001300001300
#03515:0013000000130000
#03218:0012000000000000
#03216:0000120000520000
#0321a:0000001200000000
#03214:00001252
#03215:00000000000000000052005200000000
#03213:00000000000000000000000000520000
#03212:0000000000000052
#03313:0012000000000000
#03316:00120000
#03319:0000001200000000
#03315:0012
#03318:0000000000120000
#0331b:00000012
#03312:0000000000000013
#0361b:0012
#03618:00000012000000000000120000001200
#03615:00000000005200000000000012000000
#03616:0012120000000000
#03614:0000005200000000
#03613:00000000000000520000000000000000
#03612:0052
#04618:13005300530053005300001500000000
#04613:0000000000151500
#08018:00130000
#0801a:0000001300000000
#0801b:00133300000000000000000000000000
#08015:00130000
#08013:0000001300000000
#08012:00133300000000000000000000000000
#08316:0000000000000013
#08317:0000001400140000
#0831a:00240024
#08314:0024
#08417:0013000000000000
#08412:0013000000000000
#0841b:0000001300000000
#00917:0013000000001300
#0091b:0013
#00915:0013
#00912:00000013
#01016:0000001400000000
#0101a:0000000000000024
#01718:0000000013130000
#0171b:00130000
#01712:00130000
#0531b:13
#05314:00130000
#05317:0000001300000000
#05313:0013
#05315:1300000000000013
#0531a:0000000000232300
#08215:0014000000000000
#08216:0000001400140000
#08212:2400000024000026
#08218:00000026
#0821a:00240000
#08712:1313
#08715:0000131300001300
#08718:0000232300002300
#09015:0000001300000000
#09018:0013000000000000
#09012:24242400
#0901a:24242400
#08818:0000131300001300
#0881b:1313
#08815:0000232300002300
#08915:0000131300001300
#08912:1313
#08918:0000232300002300
#05419:00140000
#05415:0000001400000000
#0541a:0014
#05412:1400000000242400
#05418:14
#0421a:00220000
#04214:00000022
#0431a:00230000
#04313:00000023
#0441a:00240000
#04412:00000024
#01112:00000000000000005353535353525252
#07016:00000072
#07018:00000072
#01258:13
#02458:13
#02455:0000000000000053
#03052:1300000000630000
#0305b:0000000000000063
#0695a:00140000
#06952:0000140000000063
#0695b:0000000000000063
#00452:6300000000000063
#00456:00230000
#0045b:13
#01658:13
#03752:0000000000000053
#04752:63
#0475b:0000630000000053
#04758:16
#04857:00530014
#0485b:0053
#04856:0053
#04852:00000014
#04952:5353
#04957:00530000
#04958:00000053
#05056:2300000000000013
#0505b:00230000
#05052:0023
#0555b:53
#05552:1600530000000063
#05656:00630000
#05657:0063
#05652:0063
#0565a:00000014
#05655:00000014
#0595b:0000000000000063
#05952:00000063
#06156:0000005300000000
#06357:0000000000000063
#07157:0000000000630000
#07152:6400360000000063
#0715a:54
#07158:0024460000000000
#07154:0024000000000000
#07256:00630000
#0725b:0063
#07255:00000013
#07258:00000013
#07252:0053
#07358:6363
#0735a:0023000000000000
#07355:00630063
#07353:0000002300000000
#0735b:0000000000230000
#07352:0000000000000023
#07457:0024000000000000
#07456:0000002400240000
#07452:00640000
#0745a:5400000054000014
#00856:6300000000000053
#0085b:63
#00852:0000000000530000
#0105a:0000000000000014
#01056:0000005400000000
#06656:0000000000000063
#06659:0000001500000000
#06756:00630000
#06757:0000000000000053
#07958:0000000000000053
#07957:15
#07954:00150000
#07955:0000000000000063
#08155:5353
#08153:0023000000000000
#08158:00530053
#0815a:0000002300000000
#08152:0000000000230000
#0815b:0000000000000023
#0575b:6363
#05756:00630000
#05755:00000063
#05857:23
#05852:00230014
#0585b:0023
#0585a:0000000000000014
#08556:0000005300000000
#0065b:0000005300000000
#00652:53
#01357:0053
#01556:0063
#02057:0053
#02256:0063
#02552:00230000000000000000000000000000
#02555:00530000
#02558:0000000000000063
#02752:00130000
#0275b:00130000
#0265b:00230000000000000000000000000000
#02658:00630000
#02856:0000000000000012
#03456:0000000000630000
#03457:0000000000000063
#03352:0000000000000013
#0385b:0000000000000063
#03952:0000000000000053
#06055:0013000000000000
#06058:0013000000000000
#0625a:0000000000000014
#06252:0000000000000024
#06456:0000005300000000
#0645a:0000000000000014
#0755a:0000000000000014
#07652:0000001400000000
#08058:00630013
#0805a:0000002300000000
#0805b:00230000000000000000000000000000
#08055:00530013
#08053:0000002300000000
#08052:00230000000000000000000000000000
#08258:00000016
#08252:6400000064000016
#08255:0024000000000000
#08256:0000002400240000
#0825a:00540000
#08356:0000000000000053
#08457:0053000000000000
#08452:0023000016000000
#08458:00000016
#0845b:0000002300000000
#08657:44
#08653:00340000
#08655:00000034
#08659:0044
#00957:0053000000005300
#0095b:0053
#01752:00530000
#01758:0000000000530000
#01855:0000002300000000
#01858:0000002300000000
#01852:00633300
#0185b:00534300
#04653:00000015
#09052:0014
#0905a:0014
#01952:00350000
#01959:00450000
#05152:0000000000000014
#0525a:0000001400000000
#06552:0000000000000014
#04552:1616
#04558:00160000
#004320:1323
#004360:00530000
#004320:0000000000000013
#005360:0000002300000000
#006320:13
#006360:00230000
#0063b0:0000001300000000
#006370:0000000000230000
#008360:13
#008320:00230000
#0083b1:13
#008371:00230000
#008321:0000000000130000
#008361:0000000000000033
#009321:0023000000000000
#009370:0013000000003300
#0093b0:0033
#0103b0:23
#010351:1323000000000000
#010380:0013230000000000
#010321:0000132300000000
#010360:0000001400000000
#0103a0:0000000000005424
#010321:0000000000000013
#011321:0023
#013371:0013
#0133b1:00000023
#015361:0013
#015321:00000023
#017321:00130000
#017351:0023
#017381:0000000000130000
#0173b1:0000000000000053
#0183b1:00332300
#018381:0000005300000000
#017320:0000000000000013
#018320:00332300
#018350:0000005300000000
#020370:0013
#0203b0:0000000000000023
#022360:0013
#022320:0000000000000023
#024350:0000000000000013
#025320:00530000000000002300000000000000
#025350:00330000
#025380:0000000000000013
#0263b0:00530000000000000000230000000000
#026380:00330000
#030320:0000000000130000
#030360:0000000000000023
#0303b1:0000000000000013
#031371:0023000000000000
#031341:0000000000000012
#032341:0022000000000000
#032381:0000000000000012
#033381:0022000000000000
#034361:0000000000130000
#034321:0000000000000023
#034370:0000000000000013
#0353b0:0023000000000000
#037320:0000000000000013
#038350:0023000000000000
#0383b0:0000000000000013
#039380:0023000000000000
#039320:0000000000000013
#040350:0023000000000000
#040350:00001323
#040381:00000013
#041381:23
#042361:1222
#042351:00520000
#042380:0012
#042390:00000052
#043380:22
#043351:1323
#043331:00530000
#043380:0013
#0433a0:00000053
#044380:23
#044341:1424
#044321:00540000
#044380:0014
#0443a0:00000054
#045380:24
#047320:13
#047360:00230000
#0473b1:00130000
#047371:0023
#0473b1:0000000000000013
#048371:0023000000000000
#048371:00130024
#0483b1:0053
#048360:0013
#048320:00000024
#049320:13
#049340:00230000
#049371:00130000
#049391:0023
#049320:0013
#049350:00000023
#049381:00000013
#0503b1:23
#050360:13
#050320:00230000
#0503b1:00130000
#050371:0023
#050320:0013
#050360:00000023
#0553b0:13
#055370:00230000
#055321:00130000
#055361:0023
#055321:0000000000000013
#056361:0023000000000000
#056361:00130000
#056321:0053
#056351:00000024
#056370:0013
#0563a0:00000024
#0573b0:13
#057390:00230000
#057361:00130000
#057341:0023
#0573b0:0013
#057380:00000023
#057351:00000013
#058321:23
#058370:13
#0583b0:00230000
#058321:00130000
#058361:0023
#0583b0:0013
#058370:00000023
#059320:00000013
#060350:0023000000000000
#0593b1:0000000000000013
#060381:0023000000000000
#061361:0000001300000000
#061321:00000023
#062321:0000000000000014
#063361:0024000000000000
#063371:0000000000000013
#0643b1:0023000000000000
#064361:0000001300000000
#064321:0000000000230000
#066361:0000000000000013
#067321:0023000000000000
#067361:00130000
#067321:0023
#067371:0000000000000013
#0683b1:0023000000000000
#069321:0000000000000013
#070361:00000022
#0693b0:0000000000000013
#070380:00000022
#0713a0:14
#071380:0054260000000000
#071321:14260000
#071341:0054000000000000
#071371:0000000000130000
#0713b1:0000000000000023
#071320:0000000000000013
#072360:0023000000000000
#072360:00130000
#072320:0053
#072350:00000023
#0723b1:0013
#072381:00000023
#073381:13230000
#0733a1:0053000000000000
#073350:00132300
#073330:0000005300000000
#073381:00001323
#0733b1:0000000000530000
#073350:00000013
#073320:0000000000000053
#074350:23
#0743a1:14240000
#074371:0054000000000000
#074320:00142400
#074360:0000005400000000
#0743a1:00001424
#074361:0000000000540000
#079351:0000000000130033
#080321:00533300000000000000000000000000
#080351:00333323
#080331:0000005300000000
#079380:0000000000000013
#0803b0:00533300000000000000000000000000
#080380:00333323
#0803a0:0000005300000000
#081350:13230000
#081330:0053000000000000
#081381:00132300
#0813a1:0000005300000000
#081350:00001323
#081320:0000000000530000
#081381:00000013
#0813b1:0000000000000053
#082381:23
#082320:14240000
#082350:0054000000000000
#0823a1:00142400
#082361:0000005400000000
#082320:00001424
#082360:0000000000540000
#083360:0000000000000013
#084320:0053000026000000
#084371:0013000000000000
#0843b1:0000005300000000
#084381:00000026
#085361:0000001300000000
#085321:00000023
#003970:00000013
#0049b0:23
#011920:000000000000000000000000000000000000000000000000000000000000000000000000000000000000000000000000000000000000000000000000000000000000000000000000000000000000000000000000000000000000000000000000130000000000000000000000000000000000000000000000000000000000000000000000000000000000000000000000535200000000000000000000000000000000000000000000000000000000000000000000000000000000000000000000
#012920:22
#032940:0012
#032960:0000000000520000
#032920:0000000000000022
#036960:00120000
#036920:0022
#037980:00120000
#0379c0:0022
#046980:130000000000000000000000000000000000000000000000000000000000000000000000000000000000000000000000000000000000000000535353230000000000000000000000000000000000000000000000000000000000000000000000000000000000000000000000000000000000000000000000
