This file was generated by Ched 2.7.0.0.
#TITLE ""
#ARTIST ""
#DESIGNER ""
#DIFFICULTY 0
#PLAYLEVEL
#SONGID ""
#WAVE ""
#WAVEOFFSET 0
#JACKET ""
#REQUEST "ticks_per_beat 480"
#00002: 4
#BPM01: 190
#00008: 01
#TIL00: ""
#VOLUME: ""
#HISPEED 00
#MEASUREHS 00
#0041a:14
#00414:0014
#0051a:14
#00514:0014
#00518:00000014
#00612:14
#00618:0014
#00712:14
#00718:0014
#00714:00000014
#0081a:14
#00814:0014
#0091a:14
#00914:0014
#00918:00000014
#01012:0000000000000014
#01318:1414
#01514:1414
#02018:14
#02012:00240000
#0201a:0024
#02114:14
#02118:0014
#02214:14
#0221a:00240000
#02212:0024
#02318:14
#02314:0014
#0241a:14
#02512:14
#02618:14
#02714:14
#02918:1515
#02917:00150000
#02919:00000015
#02818:1515
#02817:00150000
#02819:00000015
#02810:41
#03012:0014
#03116:14
#0311a:0014
#0341a:0014
#03516:14
#03512:0014
#03812:00140000
#03818:0014
#03814:00000014
#0391a:14
#03914:00140000
#03918:0014
#03912:00000014
#0401a:14
#04014:00140000
#04018:0014
#04012:00000014
#04212:1414
#04218:00140014
#04314:1414
#0431a:00140014
#04412:14
#04418:00140000
#04414:0014
#0441a:00000014
#04514:14
#0451a:00140000
#04512:0014
#04518:00000014
#04712:0016
#04718:26
#04818:1616
#04812:00160000
#04914:14
#04918:00140000
#04913:0014
#04919:00000014
#04910:41
#05012:14
#0501a:00140000
#05013:0014
#05019:00000014
#05318:1414
#05314:00140000
#05512:0016
#05518:26
#05618:1616
#05612:00160000
#05714:14
#05718:00140000
#05713:0014
#05719:00000014
#05812:14
#0581a:00140000
#05813:0014
#05819:00000014
#05914:14
#05912:0014
#05913:00140014
#06014:14
#06012:0014
#06013:00140014
#06010:0041
#06118:0014
#06212:1616
#06218:00160000
#0621f:11
#06314:0014
#0631a:00000014
#06318:00260000
#06413:14
#06419:00140000
#06518:00140026
#06514:0014
#06712:00140000
#0671a:0014
#06714:00000014
#06818:1414
#06812:00140000
#06814:00000014
#0691a:14
#06912:00160000
#07118:0016
#07112:26000016
#0711f:00210000
#07218:1616
#07212:00160000
#07210:41
#07314:14
#07318:00140000
#07313:0014
#07319:00000014
#07412:14
#0741a:00140000
#07413:0014
#07419:00000014
#07718:1414
#07714:00140000
#07912:0016
#07918:26
#08018:1616
#08012:00160000
#08114:14
#08118:00140000
#08113:0014
#08119:00000014
#08212:14
#0821a:00140000
#08213:0014
#08219:00000014
#08314:14
#08312:0014
#08313:00140014
#08414:14
#08412:0014
#08413:00140014
#08518:0014
#08612:1616
#08618:00160016
#08718:0014
#08712:26
#08814:14000014
#08818:0014
#08914:0014
#08918:16
#09018:14
#09014:00140000
#0901a:0024
#09012:0024
#00316:24240000
#00312:0024
#0031a:0024
#0121a:00240000
#01212:0024
#01412:00240000
#0141a:0024
#05412:2626
#05418:00260000
#07812:2626
#07818:00260000
#05112:00000034
#05113:0000000000340000
#07512:00000034
#07513:0000000000340000
#03710:0000000000000041
#01610:41
#0001a:5400545400005400
#00117:0000545400005400
#0021a:0000545400005400
#01254:14
#01052:0000000000000054
#02058:14
#0245a:54
#02552:64
#02658:54
#02754:64
#03058:15
#02958:5555
#02957:00250000
#02959:00000025
#02858:5555
#02857:00250000
#02859:00000025
#03352:0000000000000015
#03759:0000000000000015
#04652:00000014
#04758:16
#04858:0016
#05658:0016
#05558:16
#05953:00640064
#05954:24
#05952:0024
#06054:24
#06052:0024
#06053:00640064
#06358:00160000
#06452:0000000000000014
#06658:0000000000000016
#07152:00160000
#07258:0016
#08058:0016
#08354:24
#08352:0024
#08353:00640064
#08454:24
#08452:0024
#08453:00640064
#07958:16
#08752:16
#08958:16
#010320:1400343400000034
#012340:24
#016380:1424
#017340:1424
#0183a0:1424
#019320:1424
#0243a0:14
#024380:0024
#025320:14
#025340:0024
#026380:14
#0263a0:0024
#027340:14
#027320:0024
#028380:1535
#028370:00350000
#028390:00000035
#029380:3535
#029370:00350000
#029390:00000035
#030380:25
#032320:15
#032330:00350000
#032340:0035
#032350:00000035
#033340:35
#033330:00350000
#033320:0000000035003525
#036390:15
#036380:00350000
#036370:0035
#036360:00000035
#037370:35
#037380:00350000
#037390:0000000035003525
#041380:1400003400002400
#046320:14343424
#051340:14343400
#051330:0000000000340000
#051320:0000000000003434
#052320:0034000000000000
#052330:00340000
#052340:0000003400002400
#059340:14
#059330:00540054
#059320:0034
#060340:34
#060330:00540054
#060320:0034
#061340:24
#062380:0000000000001636
#063380:0036260000000000
#064320:0000000014003424
#065380:0000000000001636
#066360:0036000000360000
#066380:0000003600000026
#0693a0:0014
#069390:0000000000340000
#069380:00000034
#069370:0000000000000034
#070370:00000024
#071320:16260000
#075340:14343400
#075330:0000000000340000
#075320:0000000000003434
#076320:0034000000000000
#076330:00340000
#076340:0000003400002400
#083340:14
#083330:00540054
#083320:0034
#084340:34
#084330:00540054
#084320:0034
#085340:24
#0009a0:14000054
#001970:00540054
#0029a0:000000000000000000000000000000000000000000000000000000000000000000000000000000000000000000000000000000000000000000000000000000000000000000000000000000000000000000000000000000000000000000000000000000000000000000000000000000000000000000000000000000000000000000000000000000000000000000000000000000000000000000000000000000000000000000000000000000000000000000000000000000000000000000000000000000000000000000000000000000000000000000000000000000000000000000000000000000000000000000000000000000000000000000000000000000000000000000000000000000000000000000000000000000000000000000000000000000000000000000000000000000000000000000000000000000000000000000000000000000000000000000000000000000000000000000000000000000000000000000000000000000000000000000000000000000000000000000000000000000000000000000000000000000000000000000000000000000000000000000000000000000000000000000000000000000000000000000000000000000000000000000000000000000000000000000000000000000000000000000000000540000000000000000000000000000000000000000000000000000000000000000000000000000000000000000000000000000000000000000000000000000000000000000000000000000000000000000000000000000000000000000000000000000000000000000000000000000000000000000000000000000000000000000000000000000000000000000000000000000000000000000000000000000000000000000000000000000000000000000000000000000000000000000000000000000000000000000000000000000000000000000000000000000000000000000000000000000000000000000000000000000000000000000000000000000000000000000000000000000000000000000000000000000000000000000000000000000000000000000000000000000000000000000000000000000000000000000000000000000000000000000000000000000000000000000000000000000000000000000000000000000000000000000000000000000000000000000000000000000000000000000000000000000000000000000000000000000000000000000000000000000000000000000000000000000000000000000000000000000000000000000000000000000000000000000000000000000000000000000000000000000000000000000000000000000000000000000000000000000000000000000000000000000000000000000000000000000000000000000000000000000000000000000000000000000000000000000000000000000000000000000000000000000000000000000000000000000000000000000000000000000000000000000000000000000000000000000000000000000000000000000000000000000000000000000000000000000000000000000000000000000000000000000000000000000000000000000000000000000000000000000000000000000000000000000000000000000000000000000000000000000000000000000000000000000000000000000000000000000000000000000000000000000000000000000000000000000000000000000000000000000000000000000000000000000000000000000000000000000000000000000000000000000000000000000000000000000000000000000000000000000000000000000000000000000000000000000000000000000000000000000000000000000000000000000000000000000000000000000000000000000000000000000000000000000000000000000000000000000000000000000000000000000000000000000000000000000000000000000005454240000000000000000000000000000000000000000000000000000000000000000000000000000000000000000000000000000000000000000000000000000000000000000000000000000000000000000000000000000000000000000000000000000000000000000000000000000000000000000000000000000000000000000000000000000000000000000000000000000000000000000000000000000000000000000000000000000000000000000000000000000000000000000000000000000000000000000000000000000000000000000000000000000000000000000000000000000000000000000000000000000000000000000000000000000000000000000000000000000000000000000000000000000000000000000000000000000000000000000000000000000000000000000000000000000000000000000000000000000000000000000000000000000000000000000000000000000000000000000000000000000000000000000000000000000000000000000000000000000000000000000000000000000000000000000000000000000000000000000000000000000000000000000000000000000000000000000000000000000000000000000000000000000000000000000000000000000000000000000000000
