This file was generated by Ched 2.7.0.0.
#TITLE ""
#ARTIST ""
#DESIGNER ""
#DIFFICULTY 0
#PLAYLEVEL
#SONGID ""
#WAVE ""
#WAVEOFFSET 0
#JACKET ""
#REQUEST "ticks_per_beat 480"
#00002: 4
#BPM01: 170
#00008: 01
#TIL00: ""
#VOLUME: ""
#HISPEED 00
#MEASUREHS 00
#0091a:14
#01014:14
#0111a:14
#01214:14
#01318:14
#01412:14
#01518:14
#01612:14
#0251a:14
#02510:41
#02614:14
#02718:14
#02812:14
#03318:14
#03412:14
#0351a:14
#03614:14
#0461a:14
#04714:14
#04814:14
#04918:14
#05118:0016
#05112:26
#0511f:21
#05318:16
#05312:0016
#05618:16
#05612:0016
#05718:16
#05918:0016
#06118:16
#06318:0016
#06412:16
#06418:0016
#06618:16
#06612:0016
#06918:0016
#06912:26
#06910:41
#07012:16
#07018:0016
#07312:0016
#07318:26
#07418:16
#07412:0016
#07718:0016
#07712:26
#07812:16
#07818:0016
#08112:0016
#08118:26
#08218:16
#08212:0016
#0411f:11
#08512:24
#08718:24
#08914:24
#0911a:24
#01710:41
#03910:41
#05210:41
#07910:41
#0013a0:14
#0023a0:24
#003340:14
#004340:24
#005380:14
#006380:24
#007320:14
#008320:24
#0173a0:14
#0183a0:0024
#019340:14
#020340:0024
#021380:14
#022380:0024
#023320:14
#024320:0024
#0293a0:14
#0303a0:24
#031340:14
#032340:24
#037380:14
#038380:24
#039320:14
#040320:24
#0413a0:14
#042380:34
#0433a0:34
#044380:34
#0453a0:24
#052320:1626
#054380:1626
#055320:1626
#057320:0000000016000036
#058320:0000003600000000
#059320:26
#060320:1626
#061320:0000000016000036
#062320:0000003600000000
#063320:26
#065320:1626
#067380:16
#068380:26
#071320:16
#072320:26
#075380:16
#076380:26
#079320:16
#080320:26
#083380:16
#084380:26
#085320:14
#086320:0024
#087380:14
#088380:0024
#089340:14
#090340:0024
#0913a0:14
#0923a0:00000000000000003400003400002400
