This file was generated by Ched 2.7.0.0.
#TITLE ""
#ARTIST ""
#DESIGNER ""
#DIFFICULTY 0
#PLAYLEVEL
#SONGID ""
#WAVE ""
#WAVEOFFSET 0
#JACKET ""
#REQUEST "ticks_per_beat 480"
#00002: 4
#BPM01: 170
#00008: 01
#TIL00: ""
#VOLUME: ""
#HISPEED 00
#MEASUREHS 00
#02414:14000000000014000000001200000012
#02418:0000000000120012
#02416:00000000000000000012000000120000
#0241a:00142212
#02419:0024000000000000
#02412:0024000000000000
#0251b:1300000013001313
#02518:0013001300000000
#02515:00130000
#02512:0013
#02510:41
#02612:0013000000000013
#02615:00130013
#02618:0000001300130000
#0261b:0013
#0271b:0013000000000013
#02715:00130013
#02718:0000001300130000
#02712:0013
#02812:13
#02815:0013000000000000
#02818:00130000
#0281b:0000001300000000
#02816:0000001300000013
#02817:0000000000130000
#02912:0013000000000013
#02915:00131300
#02918:0000001300130000
#0291b:0013000000001300
#03015:13000013
#03012:0000131300000000
#0301b:00000013
#03018:13
#03117:00000013
#03118:13
#0311b:0000131300000000
#03115:13
#03112:00000013
#0321b:13000013
#03212:0000131300000000
#03216:13000013
#03312:0013000000000013
#03318:0000130000130000
#03315:0000001300001300
#0331b:0013
#03912:0000000000001313
#03917:1300000000000013
#0391b:0000001300000000
#03910:41
#0401b:0000000000000013
#04016:0000001300000000
#0411b:1300000000001313
#04112:0000001313000000
#0411f:11
#0421b:0000000000000013
#04219:13
#04215:0013000000000000
#04213:00130000
#04218:0000001300000000
#0421a:0013
#04212:0000000000130000
#04214:00000013
#0431b:13000013
#04312:0000001313000013
#04317:00000013000000000000000000001300
#0451b:1300001313333300
#04512:1333330000000013
#04516:0013
#04718:0013000000001300
#04715:0000130000130000
#04712:0000001313000000
#0471b:1300000013000013
#04812:1300001313000000
#04818:0013000000001300
#04815:0000130000130000
#0481b:1300000013000013
#05116:00000000001300130000000000000000
#0511b:0000131313000000
#05112:2400000000130000
#05115:0000000000000013
#05118:00000000000000000000000000000013
#0511a:24
#0511f:21
#05212:13000000001300130000000000000000
#0521b:00130000000000000000001300000000
#05215:0013000000000000
#05217:0000131313000000
#05216:00000000000000000000001300000000
#05210:41
#0531b:1300000000130000
#05312:0000131313000000
#05317:00000000001300130000000000000000
#05318:0000000000000013
#05315:00000000000000000000000000000013
#0541b:1300001300000013
#05412:0013000000130000
#05417:0013000000000000
#05516:1300001300000013
#05517:00000013000000001300000000000000
#0551b:1300000000000013
#05512:0013
#05712:0013000000130000
#05715:00000013
#0571b:2313
#05718:0000000000000023
#0581b:0013000000130000
#05818:0000130000000013
#05812:0000000000130000
#05815:0000002300001300
#05916:0000131313000000
#0591b:00000000001300130000000000000000
#05917:0000000000130000
#05918:0000000000000013
#05912:24
#0591a:24
#06015:13000000001300000000130000000000
#0601b:0013001300000000
#06012:00000013000000130000000000001300
#06018:00000000130000001300001300000000
#06112:1300001300000013
#06115:0013
#06118:0000000000130000
#0611b:00000013
#06117:0000000000000013
#0621b:0013000000130000
#06215:0000000000000013
#06218:00000013
#06216:0013000000000000
#06212:0000001300000000
#06217:0000001300000000
#0631b:13
#06315:00000013
#06318:0000000000000013
#06312:13
#06415:13
#0641b:0000131300000013
#06412:0000001300000013
#06618:1300000000000013
#06612:0000131300000000
#0661b:0000001300000000
#06615:0000000000000013
#03512:0013000000000013
#03518:00130013
#03515:0000001300130000
#0351b:0013
#0361b:13
#03618:0013000000000000
#03615:00130000
#03612:0000001300000000
#03617:0000001300000013
#03616:0000000000130000
#0341b:0013000000000013
#03415:0000130000130000
#03418:0000001300001300
#03412:0013
#0371b:0013000000000013
#03718:00131300
#03715:0000001300130000
#03712:0013000000001300
#03812:13
#0381b:0000131300000000
#03817:13
#04412:0000000000000013
#04414:13
#04418:0013000000000000
#0441a:00130000
#04415:0000001300000000
#04413:0013
#0441b:0000000000130000
#04419:00000013
#04616:1333330000001300
#0461b:13
#04617:0000001313330000
#04612:0000000013000033
#05612:13
#05616:00000013
#06515:00000013000000000000000000001300
#06518:00000013000000000000000013000000
#09214:15000000000016000000002200000012
#09216:00000000000000000012000000120000
#0921a:00142212
#09218:0024000000120022
#09212:0024000000000000
#02319:0000000000000014
#02314:0000140000140000
#02318:00001424
#02316:0014000000000000
#02317:5300002400000000
#02312:2400002400002400
#02212:0000140000140000
#02218:14000000000014000000000000000053
#02213:0024000024000000
#0221b:00000023
#0221a:00002400000000002400000000530000
#02219:0000000000000053
#02113:0000000000000014
#02118:0000140000140000
#02114:00001424
#02116:5314000000000000
#02115:0000002400000000
#0211a:2400002400002400
#0201b:0000000000130000
#02015:13000000000013000000000000000053
#0201a:00132300
#02019:0023000000000000
#02012:0023000023002300
#02014:0000000000000053
#02013:00000000000000000000000000530000
#01919:0000000000000013
#01915:0000130000130000
#01918:00001323
#01917:5313002300000000
#01912:2300002300002300
#01612:00140000
#01616:0014000000000000
#01615:00000000000000130013001300130013
#01618:0000001313131313
#0161a:14
#01515:0000001300001300
#0151b:1300000000130000
#01518:0013000013000000
#01512:0000130000000013
#01412:1300001300000013
#01415:00130013
#01418:0013000000130000
#0141b:1313
#01315:0000130000130013
#01318:0013001300001300
#01312:0013
#0131b:2313
#01316:23
#01218:00130000
#01212:1323
#0121b:0000001300000000
#01215:0013000000000000
#01219:00000023
#01214:00000023
#01118:0013000000130013
#01112:13000013
#01115:00131300
#0111b:0000001300000000
#01012:0000001300000013
#01015:0013000000130000
#00915:0013000000130013
#0091b:13000013
#00918:00131300
#00912:0000001300000000
#00817:00000013
#00615:00000013
#00618:13
#00518:00000013
#00512:13
#00715:0013000000001300
#0071b:0000001300000000
#00718:00130000
#00712:13
#00416:00000013
#00218:00000013
#00215:13
#00115:00000013
#0011b:13
#00318:0013000000001300
#00312:0000001300000000
#00315:00130000
#0031b:13
#01812:0000000000130000
#01818:13000000000013000000000000000053
#01813:00132300
#01814:0023000000000000
#0181b:0023000023002300
#01819:0000000000000053
#0181a:00000000000000000000000000530000
#01714:0000000000000013
#01718:0000130000130000
#01715:00001323
#01716:0013002300000000
#0171b:2300002300002300
#01710:41
#09119:0000000000000014
#09114:0000130000140000
#09118:0014
#09116:0014002400000000
#09117:53000024
#09112:2400002400002400
#09012:0000140000140000
#09016:0000001600000000
#09017:15
#09014:0024000024000000
#0901b:00000023
#0901a:00002400000000002400000000530000
#09018:00000000000000000000000000000053
#09019:0000000000000053
#08913:0000000000000014
#08918:0000000000140000
#08914:0014
#08919:00130000
#08916:5314002400000000
#08915:00000024
#0891a:2400002400002400
#0881b:0000000000130000
#08815:14000000000015000000000000000053
#0881a:00132300
#08819:0023000000000000
#08812:0023000023002300
#08814:0000000000000053
#08813:00000000000000000000000000530000
#08719:0000000000000013
#08715:0000120000130000
#08718:00001323
#08717:5313002300000000
#08712:2300002300002300
#08612:0000000000130000
#08616:0000001500000000
#08613:00132300
#08617:14
#08614:0023000000000000
#0861b:0023000023002300
#08618:00000000000000000000000000000053
#08619:0000000000000053
#0861a:00000000000000000000000000530000
#08514:0000000000000013
#08518:0000000000130000
#08515:00001323
#08519:00120000
#08516:0013002300000000
#0851b:2300002300002300
#08413:00000000000000000000000000000013
#0841a:0000000000000013
#08414:00000000000000000000000000130000
#08415:00000000230013002300001300000000
#08418:00001300001300130000130000000000
#08419:00000023
#0841b:23
#08412:23
#08315:0013000000000013
#0831b:0000001300130000
#08318:00232323
#08312:2323
#08317:23
#08219:0000001300000013
#08214:0013000000130000
#0821b:00230023
#08216:00230023
#08212:2323
#08217:0023
#08218:23
#0811b:0000000000130013
#08115:0013001300000000
#08112:23232323
#08118:23232323
#08015:0013000000000013
#0801b:2300001300130000
#08018:00232323
#08012:2323
#07918:0013000000000013
#07912:0000001300130000
#07915:00232323
#0791b:2323
#07916:23
#07910:41
#07814:0000001300000013
#07819:0013000000130000
#07812:00230023
#07817:00230023
#0781b:2323
#07816:0023
#07815:23
#07712:0000000000130013
#07718:0013001300000000
#0771b:23232323
#07715:23232323
#07612:0000001300000013
#07618:0013000000130000
#07615:00232323
#0761b:2323
#07415:0013000000130013
#0741b:0000001300000000
#07412:23002323
#07418:23232300
#07318:0013000000130013
#07312:0000001300000000
#0731b:23002323
#07315:23232300
#07215:0013001323000013
#07218:0000230000132300
#07212:23000023
#0721b:0023
#07018:0013001300130013
#07012:2323
#07015:00230023
#0701b:2323
#06915:0013001300130013
#0691b:2323
#06918:00230023
#06912:2323
#06910:41
#07515:0000233300002333
#0751b:2333000023330000
#07512:23
#07118:0000233300002333
#07112:2333000023330000
#0711b:23
#04912:24
#06812:53
#0681b:53
#02552:0053
#02652:0000000000000013
#02856:0000005300000013
#02857:0000000000530000
#03657:0000006300000013
#03656:0000000000630000
#03058:53
#03155:63
#03152:0000001300000000
#0325b:53
#03257:0000001300000000
#03352:0000000000000013
#0345b:0000000000000013
#03852:63
#0385b:0000005300000000
#03957:53
#0395b:0000002300000000
#03952:0000000000000053
#04056:0000002300000000
#0415b:5300000000000053
#04152:0053
#0435b:53
#04357:00000023000000000000000000000000
#04352:0000000053000063
#04255:0053000000000000
#04258:0000005300000000
#04252:0000000000530000
#04259:23
#04253:00230000
#0425a:0023
#04254:00000023
#04454:23
#04458:0063000000000000
#0445a:00230000
#04455:0000006300000000
#04453:0023
#0445b:0000000000630000
#04459:00000023
#04552:53
#0455b:0063
#04656:63000053
#04657:0053
#04956:0000000000000014
#04952:54
#05157:0000000000130000
#0515b:0053
#05152:14
#0515a:14
#05255:0013000000000000
#05257:0053
#0525b:00000000000000000000005300000000
#05256:00000000000000000000005300000000
#05352:1353
#0535b:13
#05356:0000000000130000
#05452:0053000000530000
#0545b:0000005300000000
#0555b:53
#05557:00000023000000001300000000000000
#05552:0013
#05656:00000053
#05752:0023000000000000
#05758:0000000000000013
#0575b:13
#05855:0000001300000000
#05952:1400000000130000
#05956:0053
#0595a:14
#06058:00000000000000000000005300000000
#0615b:13
#06152:1300000000000013
#0625b:0013000000000000
#06252:0000001300000000
#06352:13
#0635b:13
#06455:53
#06452:0000002300000053
#0645b:0000002300000063
#06555:00000023000000000000000000000000
#06558:00000023000000000000000000000000
#06658:6300000000000053
#06652:0000002300000000
#0665b:0000002300000000
#06655:0000000000000053
#0075b:0000005300000000
#00352:0000006300000000
#09252:0014000000000000
#09152:1400001400001400
#0905a:0014000014000000
#0895a:1400001400001400
#08852:0013000013000000
#08752:1300001300001300
#0865b:0013000013000000
#0855b:1300001300001300
#01452:0000001300000000
#001320:1300002300000000
#001381:0000001300002300
#0023b1:1300002300000000
#002350:0000001300002300
#003320:0000001300000000
#003350:00000023
#004360:13
#004320:0000002300000000
#0043b1:13000023
#004371:0000003300000000
#0053b1:1300002300000000
#005350:0000001300002300
#006320:1300002300000000
#006381:0000001300002300
#0073b1:0000001300000000
#007381:00000023
#008371:13
#0083b1:0000002300000000
#008320:13000023
#008360:0000003300000000
#0103b0:1323000000000000
#010380:0000132300000000
#0103b0:0000000013230000
#010380:0000000000001323
#025320:0013
#025360:0000000000003323
#028360:0000001300000000
#028320:0000000000230000
#028371:0000000000130000
#0283b1:0000000000000023
#030381:13
#0303b1:0000332300000000
#031351:13
#031321:0000332300000000
#0323b1:13
#032371:0000332300000000
#036371:0000001300000000
#0363b1:0000000000230000
#036360:0000000000130000
#036320:0000000000000023
#038320:13
#038360:0000332300000000
#0383b1:0000001300000000
#038371:00000023
#038320:00000013
#039320:23
#039371:13000023
#0393b1:0000005300000000
#039321:0000000000000013
#040361:0000005300000000
#040321:0000000000000023
#0413b1:13
#041371:0000002300000000
#041321:0013
#041361:00000023
#0413b1:0000000000000013
#042391:53
#0423b1:0023000000000000
#042350:0013002300000000
#042330:00530000
#042381:0000001300230000
#0423a1:0053
#042320:0000000000130023
#042340:00000053
#0433b0:1300002300000000
#043370:00000053000000000000000000000000
#043320:0013
#043360:00000023
#043320:0000000000000013
#044340:53
#044320:0023000000000000
#044381:0013002300000000
#0443a1:00530000
#044350:0000001300230000
#044330:0053
#0443b1:0000000000130023
#044391:00000053
#045321:1333330000000000
#045361:0000002300000000
#0453b1:0000000013333300
#045371:0000000000000023
#046361:1333330000000000
#046321:0000002300000000
#046371:0000000013330000
#0463b1:00000023
#046360:00000013
#046320:0000000000000033
#047320:23
#049320:14
#049360:0000000000000024
#0513b0:0013
#051370:0000000000230000
#052370:0000000013000023
#0523b0:00000000000000000000003300000000
#052361:00000000000000000000001300000000
#052321:0000000000000033
#053321:23
#053321:0013
#053361:0000000000230000
#054321:0013000000000000
#054361:0000002300000000
#0543b0:0000001300000000
#054370:0000000000230000
#054321:0000000000130000
#054361:0000000000000023
#0553b1:1300002300000000
#055371:00000053000000000000000000000000
#056371:13
#0563b1:00230000
#056360:00130000
#056320:0023
#056371:0013
#0563b1:00000023
#056360:00000013
#057320:0053000000000000
#057360:0023
#059360:0013
#059320:0000000000230000
#060380:00000000000000000000001300000000
#0603b0:0000000000000033
#0613b0:23
#064350:13000023
#064320:0000005300000000
#0643b1:0000001300000000
#064381:00000023
#064321:0000000000000013
#065351:00000053000000000000000000000000
#065321:0023
#0643b0:0000000000000013
#065380:00000053000000000000000000000000
#0653b0:0023
#066380:13000023
#0663b0:0000005300000000
#066321:0000001300000000
#066351:00000023
#066351:0000000000000013
#068321:23
#066380:0000000000000013
#0683b0:23
#071320:1333000000000000
#071350:00230000
#071381:0000133300000000
#0713b1:0023
#071320:0000000013330000
#071350:00000023
#071381:0000000000001333
#0723b1:23
#0753b1:1333000000000000
#075381:00230000
#075350:0000133300000000
#075320:0023
#0753b1:0000000013330000
#075381:00000023
#075350:0000000000001333
#076320:23
#0189b0:000000000000000000000000000000000000000000000000000000000000000000000000000000000000000000000000000000000000000000000000000000000000000000000000000000000000000000000000000000000000000000000000000000000000000000000000000000000000000000000000000000000000000000000000000000000000000000000000000000000000000000000000000000000000000000000000000000000000000000000000000000000000000000000000000000000000000000000000000000000000000000000000000000000000000000000000000000000000000000000000000000000000000000000000000000000000000000000000000000000000000000000000000000000000000000000000000000000000000000000000000000000000000000000000000000000000000000000000000000000000000000000000000000000000000000000000000000000000000000000000000000000000000000000000000000000000000000000000000000000000000000000000000000000000000000000000000000000000000000000000000000000000000000000000000000000000000000000000000000000000000000000000000000000000000000000000000000000000000000000000000000000000000000000000000000000000000000000000000000000000000000000000000000000000000000000000000000000000000000000000000000000000000000000000000000000000000000000000000000000000000000000000000000000000000000000000000000000000000000000000000000000000000000000000000000000000000000000000000000000000000000000000000000000000000000000000000000000000000000000000000000000000000000000000000000000000000000000000000000000000000000000000000000000000000000000000000000000000000000000000001300000000000000000000000000000000000000000000000000000000000000000000000000000000000000000000000000000000000000000000000000000000000000000000000000000000000000000000000000000000000000000000000000000000000000000000000000000000000000000000000000000000000000000000000000000000000000000000000000000000000000000000000000000000000000000000000000000000000000000000000000000000000000000000000000000000000000000000000000000000000000000000000000000000000000000000000000000000000000000000
#019970:23
#020920:000000000000000000000000000000000000000000000000000000000000000000000000000000000000000000000000000000000000000000000000000000000000000000000000000000000000000000000000000000000000000000000000000000000000000000000000000000000000000000000000000000000000000000000000000000000000000000000000000000000000000000000000000000000000000000000000000000000000000000000000000000000000000000000000000000000000000000000000000000000000000000000000000000000000000000000000000000000000000000000000000000000000000000000000000000000000000000000000000000000000000000000000000000000000000000000000000000000000000000000000000000000000000000000000000000000000000000000000000000000000000000000000000000000000000000000000000000000000000000000000000000000000000000000000000000000000000000000000000000000000000000000000000000000000000000000000000000000000000000000000000000000000000000000000000000000000000000000000000000000000000000000000000000000000000000000000000000000000000000000000000000000000000000000000000000000000000000000000000000000000000000000000000000000000000000000000000000000000000000000000000000000000000000000000000000000000000000000000000000000000000000000000000000000000000000000000000000000000000000000000000000000000000000000000000000000000000000000000000000000000000000000000000000000000000000000000000000000000000000000000000000000000000000000000000000000000000000000000000000000000000000000000000000000000000000000000000000000000000000000000001300000000000000000000000000000000000000000000000000000000000000000000000000000000000000000000000000000000000000000000000000000000000000000000000000000000000000000000000000000000000000000000000000000000000000000000000000000000000000000000000000000000000000000000000000000000000000000000000000000000000000000000000000000000000000000000000000000000000000000000000000000000000000000000000000000000000000000000000000000000000000000000000000000000000000000000000000000000000000000000
#021960:23
#0229b0:000000000000000000000000000000000000000000000000000000000000000000000000000000000000000000000000000000000000000000000000000000000000000000000000000000000000000000000000000000000000000000000000000000000000000000000000000000000000000000000000000000000000000000000000000000000000000000000000000000000000000000000000000000000000000000000000000000000000000000000000000000000000000000000000000000000000000000000000000000000000000000000000000000000000000000000000000000000000000000000000000000000000000000000000000000000000000000000000000000000000000000000000000000000000000000000000000000000000000000000000000000000000000000000000000000000000000000000000000000000000000000000000000000000000000000000000000000000000000000000000000000000000000000000000000000000000000000000000000000000000000000000000000000000000000000000000000000000000000000000000000000000000000000000000000000000000000000000000000000000000000000000000000000000000000000000000000000000000000000000000000000000000000000000000000000000000000000000000000000000000000000000000000000000000000000000000000000000000000000000000000000000000000000000000000000000000000000000000000000000000000000000000000000000000000000000000000000000000000000000000000000000000000000000000000000000000000000000000000000000000000000000000000000000000000000000000000000000000000000000000000000000000000000000000000000000000000000000000000000000000000000000000000000000000000000000000000000000000000000000000001300000000000000000000000000000000000000000000000000000000000000000000000000000000000000000000000000000000000000000000000000000000000000000000000000000000000000000000000000000000000000000000000000000000000000000000000000000000000000000000000000000000000000000000000000000000000000000000000000000000000000000000000000000000000000000000000000000000000000000000000000000000000000000000000000000000000000000000000000000000000000000000000000000000000000000000000000000000000000000000
#023970:23
#0869b0:000000000000000000000000000000000000000000000000000000000000000000000000000000000000000000000000000000000000000000000000000000000000000000000000000000000000000000000000000000000000000000000000000000000000000000000000000000000000000000000000000000000000000000000000000000000000000000000000000000000000000000000000000000000000000000000000000000000000000000000000000000000000000000000000000000000000000000000000000000000000000000000000000000000000000000000000000000000000000000000000000000000000000000000000000000000000000000000000000000000000000000000000000000000000000000000000000000000000000000000000000000000000000000000000000000000000000000000000000000000000000000000000000000000000000000000000000000000000000000000000000000000000000000000000000000000000000000000000000000000000000000000000000000000000000000000000000000000000000000000000000000000000000000000000000000000000000000000000000000000000000000000000000000000000000000000000000000000000000000000000000000000000000000000000000000000000000000000000000000000000000000000000000000000000000000000000000000000000000000000000000000000000000000000000000000000000000000000000000000000000000000000000000000000000000000000000000000000000000000000000000000000000000000000000000000000000000000000000000000000000000000000000000000000000000000000000000000000000000000000000000000000000000000000000000000000000000000000000000000000000000000000000000000000000000000000000000000000000000000000000001300000000000000000000000000000000000000000000000000000000000000000000000000000000000000000000000000000000000000000000000000000000000000000000000000000000000000000000000000000000000000000000000000000000000000000000000000000000000000000000000000000000000000000000000000000000000000000000000000000000000000000000000000000000000000000000000000000000000000000000000000000000000000000000000000000000000000000000000000000000000000000000000000000000000000000000000000000000000000000000
#087970:23
#088920:000000000000000000000000000000000000000000000000000000000000000000000000000000000000000000000000000000000000000000000000000000000000000000000000000000000000000000000000000000000000000000000000000000000000000000000000000000000000000000000000000000000000000000000000000000000000000000000000000000000000000000000000000000000000000000000000000000000000000000000000000000000000000000000000000000000000000000000000000000000000000000000000000000000000000000000000000000000000000000000000000000000000000000000000000000000000000000000000000000000000000000000000000000000000000000000000000000000000000000000000000000000000000000000000000000000000000000000000000000000000000000000000000000000000000000000000000000000000000000000000000000000000000000000000000000000000000000000000000000000000000000000000000000000000000000000000000000000000000000000000000000000000000000000000000000000000000000000000000000000000000000000000000000000000000000000000000000000000000000000000000000000000000000000000000000000000000000000000000000000000000000000000000000000000000000000000000000000000000000000000000000000000000000000000000000000000000000000000000000000000000000000000000000000000000000000000000000000000000000000000000000000000000000000000000000000000000000000000000000000000000000000000000000000000000000000000000000000000000000000000000000000000000000000000000000000000000000000000000000000000000000000000000000000000000000000000000000000000000000000000001300000000000000000000000000000000000000000000000000000000000000000000000000000000000000000000000000000000000000000000000000000000000000000000000000000000000000000000000000000000000000000000000000000000000000000000000000000000000000000000000000000000000000000000000000000000000000000000000000000000000000000000000000000000000000000000000000000000000000000000000000000000000000000000000000000000000000000000000000000000000000000000000000000000000000000000000000000000000000000000
#089960:23
#0909b0:000000000000000000000000000000000000000000000000000000000000000000000000000000000000000000000000000000000000000000000000000000000000000000000000000000000000000000000000000000000000000000000000000000000000000000000000000000000000000000000000000000000000000000000000000000000000000000000000000000000000000000000000000000000000000000000000000000000000000000000000000000000000000000000000000000000000000000000000000000000000000000000000000000000000000000000000000000000000000000000000000000000000000000000000000000000000000000000000000000000000000000000000000000000000000000000000000000000000000000000000000000000000000000000000000000000000000000000000000000000000000000000000000000000000000000000000000000000000000000000000000000000000000000000000000000000000000000000000000000000000000000000000000000000000000000000000000000000000000000000000000000000000000000000000000000000000000000000000000000000000000000000000000000000000000000000000000000000000000000000000000000000000000000000000000000000000000000000000000000000000000000000000000000000000000000000000000000000000000000000000000000000000000000000000000000000000000000000000000000000000000000000000000000000000000000000000000000000000000000000000000000000000000000000000000000000000000000000000000000000000000000000000000000000000000000000000000000000000000000000000000000000000000000000000000000000000000000000000000000000000000000000000000000000000000000000000000000000000000000000000001300000000000000000000000000000000000000000000000000000000000000000000000000000000000000000000000000000000000000000000000000000000000000000000000000000000000000000000000000000000000000000000000000000000000000000000000000000000000000000000000000000000000000000000000000000000000000000000000000000000000000000000000000000000000000000000000000000000000000000000000000000000000000000000000000000000000000000000000000000000000000000000000000000000000000000000000000000000000000000000
#091970:23
