This file was generated by Ched 2.7.0.0.
#TITLE ""
#ARTIST ""
#DESIGNER ""
#DIFFICULTY 0
#PLAYLEVEL
#SONGID ""
#WAVE ""
#WAVEOFFSET 0
#JACKET ""
#REQUEST "ticks_per_beat 480"
#00002: 4
#BPM01: 170
#00008: 01
#TIL00: ""
#VOLUME: ""
#HISPEED 00
#MEASUREHS 00
#0091b:13130000
#00915:0013001300000000
#00918:00001313
#00912:0000000000130013
#01715:0013000000130013
#01718:00131300
#0171b:23000023
#01712:0000002300000000
#01710:41
#01818:13130000
#01815:0000001300130000
#0181b:00002323
#01812:0023000000000000
#02512:0013000000000000
#02518:00130000
#02515:0000001300000000
#0251b:0013
#02510:41
#02612:0013000000000013
#02618:00130013
#02615:0000001300130000
#0261b:0013
#02815:0013000000130000
#02818:00130000
#02812:0000001300000000
#0291b:0013000000000013
#02915:00130013
#02918:0000001300130000
#02912:0013
#03012:00000013
#03015:13
#03018:00000013
#03115:00000013
#03118:13
#0311b:00000013
#03212:13000013
#03218:00000013
#03918:0000000000000013
#03912:13
#03915:0000001300000000
#03910:41
#04118:0000001300000000
#04112:13
#04115:0000000013000013
#0411b:00000013
#0411f:11
#04315:0013
#04318:13
#05112:00130000
#05118:2400001300000000
#05115:0000000013000013
#0511b:0000000000130000
#0511f:21
#05218:1313
#05212:0013000000000000
#0521b:00000000130000000000001300000000
#05215:0000001300000000
#05210:41
#05318:0000000013000013
#05315:0000001300000000
#05312:0000130000130000
#05415:13
#0541b:0013000000130000
#05418:0000001300000000
#0571b:0000000000130000
#05715:0013000000001300
#05718:0000000000000023
#05812:0013000000000000
#05818:0000130000000013
#0581b:0000000000130000
#05815:0000002300001300
#06015:13000000000000001300001300000000
#0601b:0013001300000000
#06012:00130000
#06018:0000000000130000
#0611b:0000001300000000
#06115:0013
#06118:0000000000130000
#06112:00000013
#0611a:0000000000000014
#06212:0014000000130000
#06215:0000000000000013
#06218:0000001400001300
#06318:00000013
#06315:0000000000000013
#0631b:13
#06412:00130000
#06418:1300001300000000
#06415:0000000000000013
#06615:0000130000000013
#0661b:0000001300000000
#06618:13
#06918:0013000000002300
#06915:0000230000130000
#0691b:23
#06912:0023
#06910:41
#01312:0013001300000000
#01318:23130000
#0131b:00001313
#01315:0000000000130013
#01418:13130000
#01412:0013001300000000
#01415:0000000000130013
#0141b:00001313
#01915:0013000000130013
#01918:00131300
#01912:0000002300000000
#0191b:00000023
#02018:13130000
#02015:0000001300130000
#02012:0023000000000000
#0201b:0023
#02017:00000023
#02114:0014000000140014
#02118:00141400
#0211a:00000024
#02112:0000002400000000
#02218:14140000
#02214:0000001400000000
#02212:0024000000140000
#0221a:00002424
#02314:0014000000140014
#02318:00141400
#02312:0000002400000000
#0231a:00000024
#02418:14
#0241a:00000000140000002434343400343434
#02414:0000001400000000
#02412:0024000000000000
#03712:0013000000000013
#03718:00130013
#03715:0000001300130000
#0371b:0013
#0381b:13
#03818:0000001300000000
#0401b:0000001300000000
#05512:13
#05518:0000000000000013
#05612:00130013
#05615:1313
#07015:0000230000130000
#07018:0013000000002300
#07012:0023
#0701b:23
#07718:0013000000002300
#07715:0000230000130000
#0771b:23230000
#07712:00002323
#08415:0013000000000013
#0841b:0000001300130000
#08418:00230023
#08412:2323
#0031b:13
#00315:0013000000000000
#00318:00130000
#00312:0000001300000000
#0071b:13
#00715:0013000000000000
#00718:00130000
#00712:0000001300000000
#0101b:13130000
#01015:0013001300000000
#01018:00001313
#01012:0000000000130013
#01518:13
#01515:0000000000000013
#0271b:0013000000000033
#02715:0000130000330000
#02718:0000001300000000
#03618:0013000000130000
#03615:00130000
#0361b:0000001300000000
#03512:0013000000000033
#03518:0000130000330000
#03515:0000001300000000
#0331b:0013
#03315:0000000000130000
#03318:00000013
#03312:0000000000000013
#03412:0013
#03418:0000000000130000
#03415:00000013
#0341b:0000000000000013
#04218:0013000000000000
#04212:0000001300000000
#0421b:0000000000130000
#04215:0000000000000013
#0441b:0013000000130000
#04418:0000001300000000
#04515:0013
#04512:1333333300333333
#04618:0013
#0461b:1333333300333333
#04712:0013
#04715:1333333300333333
#0481b:0013
#04818:1333333300333333
#0591b:00130000
#05915:0000001300000000
#05918:0000000013000013
#05912:2400000000130000
#06512:00000013000000000000000000000000
#06518:00000013
#06515:0000000000000013
#07112:0000000000130013
#07115:0013001300000000
#07118:00002323
#0711b:23230000
#07218:0013000000130013
#07212:0000001300000000
#0721b:2323
#07215:00230023
#07315:0013000000002300
#07318:0000230000130000
#07312:23
#0731b:0023
#07418:0000230000130000
#07415:0013000000002300
#0741b:0023
#07412:23
#0751b:0000000000130013
#07518:0013001300000000
#07515:00002323
#07512:23230000
#07615:0013000000130013
#0761b:0000001300000000
#07612:2323
#07618:00230023
#07818:0013000000002300
#07815:0000230000130000
#0781b:23230000
#07812:00002323
#07912:0000000000130013
#07915:0013001300000000
#07918:00002323
#0791b:23230000
#07910:41
#08018:0013000000130013
#08012:0000001300000000
#0801b:2323
#08015:00230023
#08115:0013000000002300
#08118:0000230000130000
#08112:23230000
#0811b:00002323
#08215:0013000000002300
#08218:0000230000130000
#08212:23230000
#0821b:00002323
#0831b:0000000000130013
#08318:0013001300000000
#08315:00002323
#08312:23230000
#08518:0013000000130013
#08515:00131300
#08512:23000023
#0851b:0000002300000000
#08615:13130000
#08618:0000001300130000
#08612:00002323
#0861b:0023000000000000
#08718:0013000000130013
#08715:00131300
#0871b:0000002300000000
#08712:00000023
#08815:13130000
#08818:0000001300130000
#0881b:0023000000000000
#08812:0023
#08816:00000023
#08918:0014000000140014
#08914:00141400
#08912:00000024
#0891a:0000002400000000
#09014:14140000
#09018:0000001400000000
#0901a:0024000000140000
#09012:00002424
#09118:0014000000140014
#09114:00141400
#0911a:0000002400000000
#09112:00000024
#09214:14
#09212:00000000140000002434343434343400
#09218:0000001400000000
#0921a:0024000000000000
#09216:00000000000000000000000000000054
#0111b:13
#01118:0000000000000013
#01215:00000023
#01212:0023
#04912:23
#06812:53
#0255b:0063
#02652:0000000000000013
#02852:0000006300000013
#02855:0000000000630000
#03055:63
#03158:53
#0315b:0000001300000000
#03252:63
#03255:0000001300000000
#0385b:53
#03858:0000006300000000
#03952:63
#03955:0000002300000000
#03958:0000000000000063
#0405b:0000002300000000
#04355:0063
#04358:63
#0545b:0063000000630000
#05458:0000006300000000
#05552:63
#05555:0013
#05652:00630063
#05655:6363
#05755:0023000000000000
#05758:0000000000000013
#05855:0000001300000000
#06055:00000000000000000000006300000000
#06152:13
#0615a:0000000000000014
#06252:0014000000000000
#06258:0000001400000000
#0635b:13
#06655:0000000000000063
#0665b:0000006300000000
#08552:13
#05158:14
#0515b:0000000000130000
#05952:1400000000130000
#00352:0000005300000000
#00752:0000005300000000
#01558:63
#01555:0000000000000063
#0365b:0000005300000013
#03658:0000000000530000
#03352:0000000000000013
#0345b:0000000000000013
#0445b:0063000000630000
#04458:0000006300000000
#04552:63
#04555:0063
#04658:0053
#0465b:53
#04752:0053
#04755:53
#0485b:0063
#04858:63
#04952:63
#04955:0000000000000013
#05352:0000000000130000
#05358:13
#0525b:00000000000000000000005300000000
#05258:0053
#06458:0000006300000000
#06455:0000000000000063
#06552:00000023000000000000000000000000
#0115b:53
#01158:0000000000000053
#0013b0:13000023
#001380:0000003300000000
#002320:13000023
#002350:0000003300000000
#003320:0000001300000000
#003350:00000023
#0043b0:13
#004380:0000002300000000
#004351:0000001300000000
#004321:00000023
#005381:13000023
#0053b1:0000003300000000
#006351:13000023
#006321:0000003300000000
#007321:0000001300000000
#007351:00000023
#008381:13
#0083b1:0000002300000000
#008320:0000001300000000
#008350:00000023
#0113b0:13
#011380:0000000000000033
#0123b0:0023
#015380:13
#0153b0:00000023
#015350:0000000000000013
#017320:23
#0183b0:00000013
#0183a0:00000000000000000000000000330000
#018390:0000000000000033
#018380:00000000000000000000000000000033
#019370:23
#020370:00000013
#020380:00000000000000000000000000330000
#020390:0000000000000033
#0203a0:00000000000000000000000000000033
#0213b0:23
#0223a0:00000014
#022390:00000000000000000000000000340000
#022380:0000000000000034
#022370:00000000000000000000000000000034
#023360:24
#0243a0:00000000000000001434343400343434
#024360:00000034
#0253a0:24
#0253b0:0013
#025380:0000000000003323
#027320:0013
#027350:0000000000332300
#027381:00000013
#0273b1:0000000000000033
#0283b1:23
#028321:0000001300000023
#028351:0000000000330000
#030351:13
#030321:0000332300000000
#031381:13
#0313b1:0000332300000000
#032321:13
#032351:0000332300000000
#033321:0013000000000000
#033331:00330000
#033341:0000003300000000
#033351:0023
#0343b1:0013000000000000
#0343a1:00330000
#034391:0000003300000000
#034381:0023
#0353b1:0013
#035381:0000000000332300
#035350:00000013
#035320:0000000000000033
#036320:23
#0363b0:0000001300000023
#036380:0000000000330000
#0383b0:13000023
#038380:0000333300000000
#039320:13000023
#039350:0000005300000000
#039380:0000000000000013
#0403b0:0000005300000000
#040380:0000000000000023
#043380:13
#0433b0:0000002300000000
#043350:0013
#043320:0000000000003323
#0443b0:0013000000330000
#044380:0000003300000023
#045320:1333333300333333
#045350:0033
#046320:23
#0463b1:1333333300333333
#046381:0033
#0473b1:23
#047350:1333333300333333
#047320:0033
#048350:23
#048381:1333333300333333
#0483b1:0033
#049381:23
#049320:13
#049350:0000000000000023
#052380:0000000013000033
#0523b0:00000000000000000000003300000000
#053380:23
#0543b0:0013000000330000
#054380:0000003300000023
#055320:13
#055350:0000003323000000
#056350:1333
#056320:00330033
#057350:0053000000000000
#057320:0023
#060350:00000000000000000000001300000000
#060320:0000000000000033
#061320:23
#064380:0000001300000000
#0643b0:00000023
#064350:0000000000000013
#065320:00000053000000000000000000000000
#065350:0023
#0663b0:0000001300000000
#066380:00000023
#066350:0000000000000013
#068320:23
#086320:00000013
#086330:00000000000000000000000000330000
#086340:0000000000000033
#086350:00000000000000000000000000000033
#087360:23
#088360:00000013
#088350:00000000000000000000000000330000
#088340:0000000000000033
#088330:00000000000000000000000000000033
#089320:23
#090320:00000014
#090330:00000000000000000000000000340000
#090340:0000000000000034
#090350:00000000000000000000000000000034
#091360:24
#092320:00000000000000001434343434343400
#092360:00000000000000000000000000000024
