This file was generated by Ched 2.7.0.0.
#TITLE ""
#ARTIST ""
#DESIGNER ""
#DIFFICULTY 0
#PLAYLEVEL
#SONGID ""
#WAVE ""
#WAVEOFFSET 0
#JACKET ""
#REQUEST "ticks_per_beat 480"
#00002: 4
#BPM01: 170
#00008: 01
#TIL00: "67'0:10000, 68'0:1"
#VOLUME: ""
#HISPEED 00
#MEASUREHS 00
#02519:0013001300000000
#02517:00130000
#0251b:1313
#02518:00000000000000000000000000120000
#02514:0000000000000012
#02512:0000131300000000
#02516:0000000000141200
#02510:41
#02616:0000000000001212
#0261b:0013000013000000
#02618:13000000130000000000130000120012
#02615:0013001300000000
#02612:0013
#02715:0013000000130000
#02718:00131300
#0271b:0000001300000000
#0271a:0000000000001212
#02712:13130000
#02716:00000000000000000000000000120000
#02812:1300001400000000
#02815:0013000000000000
#02818:00000000130000000000000000120000
#0281a:00000000000014000000001200000000
#02814:0000000000121212
#02816:0014
#0281b:13
#02915:0013000013000000
#02912:0000131300000000
#02918:1300000000130000
#0291b:0000131300001212
#02917:00000000000000000000000000120000
#03118:00000012
#03116:00000000130000000000000000120012
#03112:1300001300000000
#03114:0013000000000000
#0311b:0000130000130000
#03117:0000001300000000
#0311a:0000000000000012
#03115:0000000000130000
#04516:1400001414000014
#0451b:0013130000000000
#04512:0000000000131300
#04718:0013001300130013
#0471a:14141414
#04712:14
#04716:0014
#05116:00000000001300130000000014000000
#0511a:0000141400000000
#0511b:0000000000000013
#05118:26000000000000000000000000000013
#05112:2600000014140000
#0511f:21
#05215:13000000001300130000000000000000
#05212:00130000130000000000001300000000
#05218:0016001300000000
#0521b:00131300
#0521a:0000000000000014
#05210:41
#0531a:14
#05318:00000000160000130000000000000013
#05312:00000000001300000000000013000000
#05315:0000001300000013
#0531b:0000000013131300
#0541b:13000000000000000000000000130000
#05412:00160000
#05418:00000000000000001600000000000013
#05415:0000000000001613
#05512:1300001313000013
#05516:00001313
#05517:0000000000000013
#0551b:13000013
#0581b:0013000000130000
#05815:0000130000001313
#05812:0000002600130000
#05818:00000013000023000000000000130013
#0621b:0000000000130000
#06218:0000000000001313
#0621a:0014000000000000
#06216:0013000000000000
#06212:0000001400000000
#06217:0000001300000000
#06215:13000000000000000000130000130013
#0631a:14
#06317:00000013
#06312:14000013
#06314:0000000000000018
#06916:0014000000140000
#06915:00000000000013000000000000000013
#06918:00000000230000130000000023001300
#06912:23232323
#0691b:2323
#06910:41
#00112:13
#0011b:13000000000000000000000000130000
#00118:0013000000000000
#00115:00130000
#00117:0000000000130000
#00116:0000001400000000
#0031b:1300000000130000
#00315:00130000
#00312:0000001300000000
#00318:0013000000000000
#00316:0000001400000000
#01612:14140000
#01615:0013000000000000
#0161a:14000000140000000012000000120000
#01618:00001300000000120000001200000012
#01616:0000001200120012
#01614:00001212
#00916:00001314
#0091b:1353
#00912:00140053
#00919:0053005300000000
#00917:00530000
#00914:0000000000530053
#01018:0013001300130000
#01017:0000000000000013
#0101b:13000013
#01015:00131300
#01012:0000001300000014
#01016:53
#0111b:1313000000000000
#01115:0000131300000000
#01118:0000000013130000
#01112:0000000000001313
#01116:14000014
#01119:00140000
#01113:0014
#01218:0013001300000000
#0121b:1323
#01215:00130000
#01216:0000000000140014
#01212:1423
#01219:00000023
#01214:00000023
#03916:1400000000000014
#03912:0000001300000000
#03918:0000121212000000
#03919:0000000000120000
#0391b:00000013
#03910:41
#07216:0013001300130013
#07219:00242324
#07212:2424
#07213:00230023
#07718:0013000000000000
#07717:0000001300000000
#07716:0000000000130000
#07715:0000000000000013
#0771a:24242424
#07712:24242424
#07819:0013001300000000
#07814:0000000000130013
#0781a:24
#07812:24232400
#07816:00240024
#0781b:00002323
#08419:0013000000000000
#08418:26000000001200130000120024001500
#08415:0000001300000000
#08416:00000000220000000000001200000000
#08414:00001300000000002400000000140000
#08413:00000000000000000000000000000015
#08412:26
#00212:1300000000130000
#00215:0013000000000000
#00218:00130000
#00216:00000000000014000000000000130000
#00414:0012000000001200
#0041a:0000120000120000
#00416:00221200
#00412:22
#0041c:0022
#00418:00000022
#0051b:13
#00512:13000000000000000000000000130000
#00515:0013000000000000
#00518:00130000
#00516:0000001400130000
#00712:1300000000130000
#00718:00130000
#0071b:0000001300000000
#00715:0013000000000000
#00716:0000001400000000
#0061b:1300000000130000
#00618:0013000000000000
#00615:00130000
#00616:0000001400000000
#00617:00000000000000000000000000130000
#0081a:0000122200000000
#00816:0000001200000000
#0081c:22
#00814:0000000000220000
#01317:0013
#01312:1353
#0131a:00140000
#01316:00530014
#0131b:23000053
#01314:0053005300000000
#01319:0000000000530053
#01415:0013000000130000
#01412:1300001300001300
#01416:0000000000000013
#01418:00131300
#0141b:0000001300000000
#0141a:0000000000000014
#01417:53
#02412:00002400000000000000000000000012
#02414:00000000000000000000000000120000
#02418:00000000120000000012000012000000
#0241a:0024000000120000
#02416:14000000000014000000002200002200
#0241c:0022
#01715:0013000000130013
#01718:00131300
#01712:2300002300002300
#0171a:24000024
#01716:0000002400000000
#01710:41
#01818:13000000130000000000130000130013
#01815:0000001300002313
#01812:0023000023000000
#0181a:0024
#01816:0024000000000000
#02118:0012000000000012
#02116:0000140012140000
#02112:2400002400002400
#0211a:2400002400002400
#02216:1400121400000000
#02218:00000000000000000000120000140014
#02214:0000000000002414
#02212:0024000024000000
#0221a:0024000024000000
#02316:0012140000140012
#02318:0012
#0231a:2400002400002400
#02312:2400002400002400
#03012:1300000000001212
#03015:0013000000000000
#03018:00130000
#0301b:1300001300000000
#03017:00000000000000000000000000120012
#03016:0000001300000000
#0321b:1300001300000000
#03219:0013000000000000
#03217:00130000
#03212:0000130000130000
#03216:0000001300001200
#03218:00000000000000000000130000120012
#03214:0000000000000012
#03312:1313
#03314:0013001300000000
#03316:00000000130000000000140000120000
#0331b:0000131300000000
#0331a:0000000000000012
#03318:00000012
#03718:0013000013000000
#0371b:0000131300000000
#03715:1300000000130000
#03713:0000000000001212
#03717:00000000000000000000000000120000
#03712:0000131300000000
#0381b:13
#03818:0013000000000000
#03815:00130000
#03812:1300001300000000
#03817:0000001300001212
#0381c:00000000000000000000000000120012
#04016:14
#04012:13
#04015:0012000000000000
#04017:00120022
#04112:16000000000000000000000000000013
#04118:16
#0411f:11
#04218:16000000001300000000000016000000
#04215:00000000000000000000001300000000
#04212:0000001600000000
#0421b:00000000000000000000000000000013
#04312:16
#04412:00131600000000000000000000000000
#04415:00000000001316000000000000000000
#04418:00000000000000000013160000000000
#0441b:00000000000000000000000000130000
#04612:1400001400000000
#04614:0014140000000000
#04616:14000000000000001400000000120000
#04618:00000000001200000000140014000000
#0461a:0000000014000014
#04815:0013001300130013
#04812:00141414
#0481a:14
#04816:0014
#01918:0013000000130013
#01915:00131300
#0191b:2300002300002300
#01912:24000024
#01916:0000002400000000
#02015:13000000130000000000130000130013
#02018:0000001300002313
#0201b:0023000023000000
#02012:0024
#02016:0024000000000000
#06612:1300002600000000
#06615:00001300130000000000000000130013
#06618:26000013000000000000000013001300
#0661b:0000001300000000
#06118:00000000000000001300000000000013
#06112:1300001300001314
#06115:0000000000130000
#06116:00130000
#0611b:00130013
#0601b:00001300000000000000131300000000
#06018:00000013001300001300000000000000
#06015:00000000130000130000000000000000
#06012:1313001300000013
#06016:00000000000000000000131300000000
#05917:00000000001300130000000000000000
#05912:2600141400000013
#0591a:0000000014140000
#05916:00000014
#05918:26
#0641b:1313
#06416:1313
#06414:0018001800170018
#06412:00130013
#06417:00130013
#06516:23000013
#06514:0000000000000013
#0651b:23000013
#06519:0000000000000013
#07016:0014000000140000
#07018:00000000000013000000000000000013
#07015:00000000230000130000000023001300
#0701b:23232323
#07012:2323
#07316:0014000000140000
#07318:00000000000013000000000000000013
#07315:00000000230000130000000023001300
#0731b:23232323
#07312:2323
#07416:0014000000140000
#07415:00000000000013000000000000000013
#07418:00000000230000130000000023001300
#07412:23232323
#0741b:2323
#07617:0013001300130013
#07614:0023
#0761a:24232423
#07613:00240024
#08115:0013000000000000
#08116:0000001300000000
#08117:0000000000130000
#08118:0000000000000013
#08112:24242424
#0811a:24242424
#08214:0013001300000000
#08219:0000000000130013
#08212:24002323
#0821a:2424
#08216:00240024
#0821b:00230000
#08316:0014000000140000
#0831a:0000001424000014
#08312:2400251426132514
#0831b:0013000000000000
#08318:26
#08319:00250025
#09212:00002400000000000000000000000012
#09214:00000000000000000000000000122400
#09218:00000000000000000012000012000000
#0921a:0024000024120000
#09215:1400121300000000
#09216:00000000000000000000002400000000
#08515:0013000000130013
#08518:26131300
#08512:2600002400002400
#0851a:00000024
#08516:0000002400000000
#08618:1300130000130013
#08615:00000000000013000000000000130013
#08612:0024000024002300
#0861a:0024
#08616:0024000000000000
#0861b:00000023
#08915:0012160000000012
#08919:0012
#08916:0000000000150000
#08912:2400002400002400
#0891a:2400002400002400
#09017:14
#09019:00120000
#09018:0000001300000000
#09015:0000000000120000
#09014:00000000000000000000000000140014
#09016:0000000000000014
#09012:0024000024002400
#0901a:0024000024002400
#08718:0013000000130013
#08715:00131300
#0871a:2400002400002400
#08712:24000024
#08716:0000002400000000
#08815:1300130000130013
#08818:00000000000013000000000000130013
#0881a:0024000024000000
#08812:00002423
#08816:0024000000000000
#0881b:00000023
#09119:0012000000000012
#09115:0000160012150000
#0911a:2400002400002400
#09112:2400002400002400
#08017:0000000000130000
#08016:0013001300000013
#08014:00000013000000000000000000000000
#08018:00000000000000130000000000000013
#08015:00000000000000000000001300000000
#0801a:0023
#08012:24232400
#08019:00240024
#08013:00000023
#03418:0013001300001212
#03412:0013000013000000
#03415:1300130000130000
#0341b:0013
#03416:00000000000000000000000000120012
#03518:00001300000000000000130000120000
#03515:00131300
#03512:0000001300000000
#03514:0000000000001212
#0351b:13130000
#0361b:13
#03618:0013000000000000
#03615:00130000
#03612:1300001400000000
#0361a:0000001400121212
#03616:00000000000000001400000000120000
#03614:00000000000000000000001200000000
#01512:1313000000000000
#01518:0000131300000000
#01515:0000000013130000
#0151b:0000000000001313
#01516:14000014
#01513:00140000
#01519:0014
#05718:1600000016000026
#05716:0014001400130000
#05712:00161316
#0571a:00130000
#0571b:00000013
#05715:0000000000000023
#05713:23
#05618:16131600
#05612:00160016
#05616:0014001400140014
#05615:13
#05614:0013
#05619:00000013
#04912:281c00000000000000000000000000000000000000000000000000000000000000000000000000000000000000000000000000000000000000000000000000000000000000000000000000000000000000000000000000000000000000000000000000000000000000000000000000000000000000000000000000000000000000000000000000000000000000000000000000000000000000000000000000000000000000000000000000000000000000000000000000000000000000000000000000000000000000000000000000000000000000000000000000000000000000000000000000000000000000000000000000000000000000000000000000000000000000000000000000000000000000000000000000000000000000000000000000000000000000000000000000000000000000000000000000000000000000000000000000000000000000000000000000000000000000000000000000000000000000000000000000000000000000000000000000000000000000000000000000000000000000000000000000000000000000000000000000000000000000000000000000000000000000000000000000000000000000000000000000000000000000000000000000000000000000000000000000000000000000000000000000000000000000000000000000000000000000000000000000000000000000000000000000000000000000000000000000000000000000000000000000000000000000000000000000000000000000000000000000000000000000000000000000000000000000000000000000000000000000000000000000000000000000000000000000000000000000000000000000000000000000000000000000000000000000000000000000000000000000000000000000000000000000000000000000000000000000000000000000000000000000000000000000000000000000000000000000000000000000000000000000000000000000000000000000000000000000000000000000000000000000000000000000000000000000000000000000000000000000000000000000000000000000000000000000000000000000000000000000000000000000000000000000000000000000000000000000000000000000000000000000000000000000000000000000000000000000000000000000000000000000000000000000000000000000000000000000000000000000000000000000000000000000000000000000000000000000000000000000000000000000000000000000000000000000000000000000000000000000000000000000000000000000000000000000000000000000000000000000000000000000000000000000000000000000000000000000000000000000000000000000000000000000000000000000000000000000000000000000000000000000000000000000000000000000000000000000000000000000000000000000000000000000000000000000000000000000000000000000000000000000000000000000000000000000000000000000000000000000000000000000000000000000000000000000000000000000000000000000000000000000000000000000000000000000000000000000000000000000000000000000000000000000000000000000000000000000000000000000000000000000000000000000000000000000000000000000000000000000000000000000000000000000000000000000000000000000000000000000000000000000000000000000000000000000000000000000000000000000000000000000000000000000000000000000000000000000000000000000000000000000000000000000000000000000000000000000000000000000000000000000000000000000000000000000000000000000000000000000000000000000000000000000000000000000000000000000000000000000000000000000000000000000000000000000000000000000000000000000000000000000000000000000000000000000000000000000000000000000000000000000000000000000000000000000000000000000000000000000000000000000000000000000000000000000000000000000000000000000000000000000000000000000000000000000000000000000000000000000000000000000000000000000000000000000000000000000000000000000000000000000000000000000000000000000000000000000000000000000000000000000000000000000000000000000000000000000000000000000000000000000000000000000000000000000000000000000000000000000000000000000000000000000000000000000000000000000000000000000000000000000000000000000000000000000000000000000000000000000000000000000000000000000000000000000000000000000000000000000000000000000000000000000000000000000000000000000000000000000000000000000000000000000000000000000000000000000000000000000000000000000000000000000000000000000000000000000000000000000000000000000000000000000000000000000000000000000000000000000000000
#0491a:54
#0751b:2323
#07512:235c005c
#07112:235c235c
#0711b:23
#07912:23590000
#07915:00002359
#0791b:23
#07910:41
#06812:5c
#00352:0000005300000000
#0035b:0000000000230000
#05252:00000000000000000000006300000000
#05258:0046000000000000
#0525b:0023
#0535a:14
#05356:3300000000140000
#05556:0013
#05552:0013
#0555b:53
#05758:4600000046000016
#05752:00360036
#05852:0000001600000000
#0625a:0014000000000000
#06252:0000001400000000
#06352:14
#0635a:14
#08558:16
#08552:0000001400001400
#0855a:00000014
#08556:0000001400000000
#00157:0000000000530000
#0015b:00000000000000000000000000230000
#00252:0000000000630000
#00256:00000000000000000000000000230000
#0075b:0000006300000000
#00752:0000000000230000
#00556:0000000000630000
#00552:00000000000000000000000000230000
#0065b:0000000000530000
#00657:00000000000000000000000000230000
#01752:1300001300001300
#0175a:14000014
#01852:0013000013000000
#0185a:0014
#02152:1400001400001400
#0215a:14000014
#02252:0014000014000000
#0225a:0014
#0235a:1400001400001400
#02352:14000014
#0245a:0014000000000000
#0305b:0000005300000000
#03152:0000001300000000
#03157:0000001300000000
#0325b:0000001300000000
#03256:0000001300000000
#03857:0000005300000000
#03956:54
#03952:0000002300000000
#04152:56000000000000000000000000000023
#04258:56000000002300000000000056000000
#04255:00000000000000000000002300000000
#0425b:00000000000000000000000000000023
#04252:0000005600000000
#04352:56
#04452:00235600000000000000000000000000
#04455:00000000002356000000000000000000
#04458:00000000000000000023560000000000
#0445b:00000000000000000000000000230000
#04658:00000000002200000000000000000000
#04656:54000000000000006400000000220000
#04752:54
#04756:0024
#0485a:64
#04856:0024
#05158:46
#05152:36
#0515a:0000000000140000
#0195b:1300001300001300
#01952:14000014
#0205b:0013000013000000
#02052:0014
#06152:1300000000000014
#06157:13
#05952:3600000000140000
#05958:46
#0605b:00000000000000000000006300000000
#0645b:1313
#06452:00130013
#0655b:13
#06556:13
#06658:16
#06652:0000001600000000
#06952:13131313
#0705b:13131313
#07259:00140014
#07252:1414
#0735b:13131313
#07452:13131313
#0765a:1414
#07653:00140014
#0775a:14141414
#07752:14141414
#07856:00140014
#0785a:14
#07852:14131400
#0785b:00001313
#08152:14141414
#0815a:14141414
#08252:14001313
#0825a:1414
#08256:00140014
#0825b:00130000
#08352:14151615
#08358:16
#0835a:0014
#08359:00150015
#08452:16
#08458:16
#08454:0014
#08652:0014000014000000
#0865a:0014
#08656:0014000000000000
#08952:1400001400001400
#0895a:1400001400001400
#09052:0014000014000000
#0905a:0014000014000000
#0875a:1400001400001400
#08752:14000014
#08756:0000001400000000
#0885a:0014000014000000
#08852:0014
#08856:0014000000000000
#0915a:1400001400001400
#09152:1400001400001400
#0925a:0014000000000000
#09252:0014000000000000
#08052:1414
#08059:00140014
#05658:4646
#05652:00360036
#01452:0000001300000000
#04952:005c00000000000000000000000000000000000000000000000000000000000000000000000000000000000000000000000000000000000000000000000000000000000000000000000000000000000000000000000000000000000000000000000000000000000000000000000000000000000000000000000000000000000000000000000000000000000000000000000000000000000000000000000000000000000000000000000000000000000000000000000000000000000000000000000000000000000000000000000000000000000000000000000000000000000000000000000000000000000000000000000000000000000000000000000000000000000000000000000000000000000000000000000000000000000000000000000000000000000000000000000000000000000000000000000000000000000000000000000000000000000000000000000000000000000000000000000000000000000000000000000000000000000000000000000000000000000000000000000000000000000000000000000000000000000000000000000000000000000000000000000000000000000000000000000000000000000000000000000000000000000000000000000000000000000000000000000000000000000000000000000000000000000000000000000000000000000000000000000000000000000000000000000000000000000000000000000000000000000000000000000000000000000000000000000000000000000000000000000000000000000000000000000000000000000000000000000000000000000000000000000000000000000000000000000000000000000000000000000000000000000000000000000000000000000000000000000000000000000000000000000000000000000000000000000000000000000000000000000000000000000000000000000000000000000000000000000000000000000000000000000000000000000000000000000000000000000000000000000000000000000000000000000000000000000000000000000000000000000000000000000000000000000000000000000000000000000000000000000000000000000000000000000000000000000000000000000000000000000000000000000000000000000000000000000000000000000000000000000000000000000000000000000000000000000000000000000000000000000000000000000000000000000000000000000000000000000000000000000000000000000000000000000000000000000000000000000000000000000000000000000000000000000000000000000000000000000000000000000000000000000000000000000000000000000000000000000000000000000000000000000000000000000000000000000000000000000000000000000000000000000000000000000000000000000000000000000000000000000000000000000000000000000000000000000000000000000000000000000000000000000000000000000000000000000000000000000000000000000000000000000000000000000000000000000000000000000000000000000000000000000000000000000000000000000000000000000000000000000000000000000000000000000000000000000000000000000000000000000000000000000000000000000000000000000000000000000000000000000000000000000000000000000000000000000000000000000000000000000000000000000000000000000000000000000000000000000000000000000000000000000000000000000000000000000000000000000000000000000000000000000000000000000000000000000000000000000000000000000000000000000000000000000000000000000000000000000000000000000000000000000000000000000000000000000000000000000000000000000000000000000000000000000000000000000000000000000000000000000000000000000000000000000000000000000000000000000000000000000000000000000000000000000000000000000000000000000000000000000000000000000000000000000000000000000000000000000000000000000000000000000000000000000000000000000000000000000000000000000000000000000000000000000000000000000000000000000000000000000000000000000000000000000000000000000000000000000000000000000000000000000000000000000000000000000000000000000000000000000000000000000000000000000000000000000000000000000000000000000000000000000000000000000000000000000000000000000000000000000000000000000000000000000000000000000000000000000000000000000000000000000000000000000000000000000000000000000000000000000000000000000000000000000000000000000000000000000000000000000000000000000000000000000000000000000000000000000000000000000000000000000000000000000000000000000000000000000000000000000000000000000000000000000000000000000000000000000000000000000000000000
#04957:0000000000000012
#02552:0000001300000000
#0295b:0000001300000000
#0335b:0000001300000000
#03752:0000001300000000
#001320:0000001300230000
#001371:0000000000130000
#0013b1:00000000000000000000000000530000
#002371:23
#0023b1:0000001300230000
#002320:0000000000130000
#002360:00000000000000000000000000530000
#003320:23
#003320:0000001300000000
#003360:0000000000230000
#0033b1:0000000000130000
#004371:23
#0053b1:0000001300230000
#005360:0000000000130000
#005320:00000000000000000000000000530000
#006360:23
#006320:0000001300230000
#0063b1:0000000000130000
#006371:00000000000000000000000000530000
#0073b1:23
#0073b1:0000001300000000
#007371:0000000000230000
#007320:0000000000130000
#008360:23
#008340:0000000000120000
#009340:22
#0303b0:0000001300000000
#030370:00000022
#038370:0000001300000000
#0383c0:00000022
#039360:14000024
#039320:0000005300000000
#040390:0000001200000000
#0403c0:00000022
#041320:16530000000000000000000000000053
#042320:26
#042381:16530000005326000000000000000000
#042320:0000001600002600
#042350:00000000000000530000005300000000
#042381:00000016
#0423b1:00000000000000000000000000530053
#043381:26
#043320:16530000000000000000000000000000
#044320:00533600000000000000000000000000
#044350:00000053005336000000000000000000
#044380:00000000000000530053360000002600
#0443b0:00000000000000000000005300530000
#045320:1400002400000000
#0453a0:0000000014000024
#046360:1400002400000000
#046380:00520000005200000000000000000000
#046360:00000000000000001452000000522400
#047320:14
#047360:0054
#048320:24
#0483a1:14
#048361:0054
#0493a1:24
#049320:185c00000000000000000000000000000000000000000000000000000000000000000000000000000000000000000000000000000000000000000000000000000000000000000000000000000000000000000000000000000000000000000000000000000000000000000000000000000000000000000000000000000000000000000000000000000000000000000000000000000000000000000000000000000000000000000000000000000000000000000000000000000000000000000000000000000000000000000000000000000000000000000000000000000000000000000000000000000000000000000000000000000000000000000000000000000000000000000000000000000000000000000000000000000000000000000000000000000000000000000000000000000000000000000000000000000000000000000000000000000000000000000000000000000000000000000000000000000000000000000000000000000000000000000000000000000000000000000000000000000000000000000000000000000000000000000000000000000000000000000000000000000000000000000000000000000000000000000000000000000000000000000000000000000000000000000000000000000000000000000000000000000000000000000000000000000000000000000000000000000000000000000000000000000000000000000000000000000000000000000000000000000000000000000000000000000000000000000000000000000000000000000000000000000000000000000000000000000000000000000000000000000000000000000000000000000000000000000000000000000000000000000000000000000000000000000000000000000000000000000000000000000000000000000000000000000000000000000000000000000000000000000000000000000000000000000000000000000000000000000000000000000000000000000000000000000000000000000000000000000000000000000000000000000000000000000000000000000000000000000000000000000000000000000000000000000000000000000000000000000000000000000000000000000000000000000000000000000000000000000000000000000000000000000000000000000000000000000000000000000000000000000000000000000000000000000000000000000000000000000000000000000000000000000000000000000000000000000000000000000000000000000000000000000000000000000000000000000000000000000000000000000000000000000000000000000000000000000000000000000000000000000000000000000000000000000000000000000000000000000000000000000000000000000000000000000000000000000000000000000000000000000000000000000000000000000000000000000000000000000000000000000000000000000000000000000000000000000000000000000000000000000000000000000000000000000000000000000000000000000000000000000000000000000000000000000000000000000000000000000000000000000000000000000000000000000000000000000000000000000000000000000000000000000000000000000000000000000000000000000000000000000000000000000000000000000000000000000000000000000000000000000000000000000000000000000000000000000000000000000000000000000000000000000000000000000000000000000000000000000000000000000000000000000000000000000000000000000000000000000000000000000000000000000000000000000000000000000000000000000000000000000000000000000000000000000000000000000000000000000000000000000000000000000000000000000000000000000000000000000000000000000000000000000000000000000000000000000000000000000000000000000000000000000000000000000000000000000000000000000000000000000000000000000000000000000000000000000000000000000000000000000000000000000000000000000000000000000000000000000000000000000000000000000000000000000000000000000000000000000000000000000000000000000000000000000000000000000000000000000000000000000000000000000000000000000000000000000000000000000000000000000000000000000000000000000000000000000000000000000000000000000000000000000000000000000000000000000000000000000000000000000000000000000000000000000000000000000000000000000000000000000000000000000000000000000000000000000000000000000000000000000000000000000000000000000000000000000000000000000000000000000000000000000000000000000000000000000000000000000000000000000000000000000000000000000000000000000000000000000000000000000000000000000000000000000000000000000000000000000000000000000000000000000000000000000000000000000000000000000000
#049370:0000000000000022
#0513a0:0000000014240000
#0523b0:0013
#052370:00000000000000000000002300000000
#052321:00000000000000000000001300000000
#052361:0000000000000033
#053361:23
#053361:0000000014240000
#054321:1323000000000000
#054380:0013002300000000
#054351:0000001300230000
#0543b0:0000000000132300
#0553b0:13
#055360:0000002300000000
#059320:0000000014240000
#0593b0:0000000000000013
#0603b0:23
#0603b0:00000000000000000000001300000000
#060370:0000000000000033
#061370:23
#067380:13
#068320:2c
#071320:13000000000000000000000000000000000000000000000000000000000000000000000000000000000000000000000000000000000000000000000000000000000000000000000000000000000000000000000000000000000000000000000000000000000000000000000000000000000000000000000033000000000000000000000000000000000000000000000000000000000000000000000000000000000000000000000000000000000000000000000053000000000000000000000000000000000000000000000000000000000000000000000000000000000000000000000000000000000000000000005c000000000000000000000000000000000000000000000000000000000000000000000000000000000000000000000000000000000000000000000000000000000000000000000000000000000000000000000000000000000000000000000000000000000000000000000000000000000000000000000000000000000000000000000000000000000000000000000000000000000000000000000000000000000000000000000000000000000000000000000000000000000000000000000000000000000000000000000000000000000000000000000000000000000000000000000000000000000000000000000000000000000000000000000000000000000000000000000000000000000000000000000000000000000000000000000000000000000000000000000000000000000000000000000000000000000000000000000000000000000000000000000000000000000000000000000000000000000000000000000000000000000000000000000000000000000000000000000000000000000000000000000000000000000000000000000000000000000000000000000000000000000000000000000000000000000000000000000000000000000000000000000000000000000000000000000000000000000000000000000000000000000000000000000000000000000000000000000000000000000000000000000000000000000000000000000000000000000000000000000000000000000000000000000000000000000000000000000000000000000000000000000000000000000000000000000000000000000000000000000000000000000000000000000000000000000000000000000000000000000000000000000000000000000000000000000000000000000000000000000000000000000000000000000000000000000000000000000000000000000000000000000000000000000000000000000000000000000000000000000000
#0713b0:00000000005333002300000000000000
#071321:00000000000000000000000000000000000000000000000000000000000000000000000000000000000000000000000000000000000000000000000000000000000000000000000000000000000000000000000000000000000000000000000000000000000000000000000000000000000000000000000000000000000000000000000000000000000000000000000000000000000000000000000000000000000000000000000000000000000000000000000000000000000000000000000000000000000000000000000000000000000000000000000000000000000000000000000000000000000000000000000000000000000000000000000000000000000000000000000000000000000000000000000000000000000000000000000000000000000000000000000000000000000000000000000000000000000000000000000000000000000000000000000000000000000000000000000000000000000000000000000000000000000000000000000000000000000000000000000000000000000000000000000000000000000000000000000000000000000000000000000000000000000000000000000000000000000000000000000000000000000000000000000000000000000000000000000000000000000000000000000013000000000000000000000000000000000000000000000000000000000000000000000000000000000000000000000000000000000000000000000000000000000000000000000000000000000000000000000000000000000000000000000000000000000000000000000000000000000000000000000033000000000000000000000000000000000000000000000000000000000000000000000000000000000000000000000000000000000000000000000053000000000000000000000000000000000000000000000000000000000000000000000000000000000000000000000000000000000000000000005c000000000000000000000000000000000000000000000000000000000000000000000000000000000000000000000000000000000000000000000000000000000000000000000000000000000000000000000000000000000000000000000000000000000000000000000000000000000000000000000000000000000000000000000000000000000000000000000000000000000000000000000000000000000000000000000000000000000000000000000000000000000000000000000000000000000000000000000000000000000000000000000000000000000000000000000000000000000000000000000000
#0713b1:00000000000000000000000000533300
#0723b1:23
#0753b1:13003353000000000000000000000000
#075321:00000000000000000000000000000000000000000000000000000000000000000000000000000000000000000000000000000000000000000000000000000000000000000000000000000000000000000000000000000000000000000000000000000000000000000000000000000000000000000000000000000000000000000000000000000000000000000000000000000000000000000000000000000000000000000000000000000000000000000000000000000000000000000000000000000000000000000000000000000000000000000000000000000000000000000000000000000000000000000000005c000000000000000000000000000000000000000000000000000000000000000000000000000000000000000000000000000000000000000000000000530000000000000000000000000000000000000000000000000000000000000000000000000000000000000000000000000000000000000000000000330000000000000000000000000000000000000000000000000000000000000000000000000000000000000000000000000000000000000000000000000000000000000000000000000000000000000000000000000000000000000000000000000000000000000000000000000000000000000000000000230000000000000000000000000000000000000000000000000000000000000000000000000000000000000000000000000000000000000000000000000000000000000000000000000000000000000000000000000000000000000000000000000000000000000000000000000000000000000000000000000000000000000000000000000000000000000000000000000000000000000000000000000000000000000000000000000000000000000000000000000000000000000000000000000000000000000000000000000000000000000000000000000000000000000000000000000000000000000000000000000000000000000000000000000000000000000000000000000000000000000000000000000000000000000000000000000000000000000000000000000000000000000000000000000000000000000000000000000000000000000000000000000000000000000000000000000000000000000000000000000000000000000000000000000000000000000000000000000000000000000000000000000000000000000000000000000000000000000000000000000000000000000000000000000000000000000000000000000000000000000000000000000000000000000000000000000000000000000000000000
#0753b0:00000000000000001300335300000000
#075320:00000000000000000000000000000000000000000000000000000000000000000000000000000000000000000000000000000000000000000000000000000000000000000000000000000000000000000000000000000000000000000000000000000000000000000000000000000000000000000000000000000000000000000000000000000000000000000000000000000000000000000000000000000000000000000000000000000000000000000000000000000000000000000000000000000000000000000000000000000000000000000000000000000000000000000000000000000000000000000000000000000000000000000000000000000000000000000000000000000000000000000000000000000000000000000000000000000000000000000000000000000000000000000000000000000000000000000000000000000000000000000000000000000000000000000000000000000000000000000000000000000000000000000000000000000000000000000000000000000000000000000000000000000000000000000000000000000000000000000000000000000000000000000000000000000000000000000000000000000000000000000000000000000000000000000000000000000000000000000000000000000000000000000000000000000000000000000000000000000000000000000000000000000000000000000000000000000000000000000000000000000000000000000000000000000000000000000000000000000000000000000000000000000000000000000000000000000000000000000000000000000000000000000000000000000000000000000000000000000000000000000000000000000000000000000000000000000000000000000000000000000000000000000000000000000000000000000000000000000000000000000000000000000000000000000000000000000000000000000000005c000000000000000000000000000000000000000000000000000000000000000000000000000000000000000000000000000000000000000000000000530000000000000000000000000000000000000000000000000000000000000000000000000000000000000000000000000000000000000000000000330000000000000000000000000000000000000000000000000000000000000000000000000000000000000000000000000000000000000000000000000000000000000000000000000000000000000000000000000000000000000000000000000000000000000000000000000000000000000000000000
#076320:23
#079320:130000000000000000000000000000000000000000000000000000000000000000000000000000000000000000000000000000000000000000000000000000000000000000000000000000000000000000000000000000000000000000000000000000000000000000000000000000000000000000000000330000000000000000000000000000000000000000000000000000000000000000000000000000000000000000000000000000000000000000000000530000000000000000000000000000000000000000000000000000000000000000000000000000000000000000000000000000000000000000000059000000000000000000000000000000000000000000000000000000000000000000000000000000000000000000000000000000000000000000000000000000000000000000000000000000000000000000000000000000000000000000000000000000000000000000000000000000000000000000000000000000000000000000000000000000000000000000000000000000000000000000000000000000000000000000000000000000000000000000000000000000000000000000000000000000000000000000000000000000000000000000000000000000000000000000000000000000000000000000000000000000000000000000000000000000000000000000000000000000000000000000000000000000000000000000000000000000000000000000000000000000000000000000000000000000000000000000000000000000000000000000000000000000000000000000000000000000000000000000000000000000000000000000000000000000000000000000000000000000000000000000000000000000000000000000000000000000000000000000000000000000000000000000000000000000000000000000000000000000000000000000000000000000000000000000000000000000000000000000000000000000000000000000000000000000000000000000000000000000000000000000000000000000000000000000000000000000000000000000000000000000000000000000000000000000000000000000000000000000000000000000000000000000000000000000000000000000000000000000000000000000000000000000000000000000000000000000000000000000000000000000000000000000000000000000000000000000000000000000000000000000000000000000000000000000000000000000000000000000000000000000000000000000000000000000000000000000000000000000000000
#079380:00000000005333002300000000000000
#079351:000000000000000000000000000000000000000000000000000000000000000000000000000000000000000000000000000000000000000000000000000000000000000000000000000000000000000000000000000000000000000000000000000000000000000000000000000000000000000000000000000000000000000000000000000000000000000000000000000000000000000000000000000000000000000000000000000000000000000000000000000000000000000000000000000000000000000000000000000000000000000000000000000000000000000000000000000000000000000000000000000000000000000000000000000000000000000000000000000000000000000000000000000000000000000000000000000000000000000000000000000000000000000000000000000000000000000000000000000000000000000000000000000000000000000000000000000000000000000000000000000000000000000000000000000000000000000000000000000000000000000000000000000000000000000000000000000000000000000000000000000000000000000000000000000000000000000000000000000000000000000000000000000000000000000000000000000000000000000000000000130000000000000000000000000000000000000000000000000000000000000000000000000000000000000000000000000000000000000000000000000000000000000000000000000000000000000000000000000000000000000000000000000000000000000000000000000000000000000000000000330000000000000000000000000000000000000000000000000000000000000000000000000000000000000000000000000000000000000000000000530000000000000000000000000000000000000000000000000000000000000000000000000000000000000000000000000000000000000000000059000000000000000000000000000000000000000000000000000000000000000000000000000000000000000000000000000000000000000000000000000000000000000000000000000000000000000000000000000000000000000000000000000000000000000000000000000000000000000000000000000000000000000000000000000000000000000000000000000000000000000000000000000000000000000000000000000000000000000000000000000000000000000000000000000000000000000000000000000000000000000000000000000000000000000000000000000000000000000000000000
#0793b1:00000000000000000000000000533300
#0803b1:23
#0099b0:1323
#009970:00530000
#009961:0013
#009921:00000053
#010961:23
#013921:1323
#013961:00530000
#013970:0013
#0139b0:00000053
#014970:23
