This file was generated by Ched 2.7.0.0.
#TITLE ""
#ARTIST ""
#DESIGNER ""
#DIFFICULTY 0
#PLAYLEVEL
#SONGID ""
#WAVE ""
#WAVEOFFSET 0
#JACKET ""
#REQUEST "ticks_per_beat 480"
#00002: 4
#BPM01: 170
#00008: 01
#TIL00: ""
#VOLUME: ""
#HISPEED 00
#MEASUREHS 00
#0091a:1414
#00914:00140014
#01018:1414
#01012:00140014
#0131a:1414
#01314:00140014
#01418:1414
#01412:00140014
#02518:00140014
#02512:0014
#02510:41
#02614:00140014
#0261a:0014
#02718:00140014
#02712:0014
#02918:00140000
#02914:0014
#0291a:00000014
#03014:1414
#0301a:00140000
#03018:00000014
#03314:00140014
#0331a:0014
#03418:00140014
#03412:0014
#03514:00140014
#0351a:0014
#03714:00140000
#03718:0014
#03712:00000014
#03818:1414
#03812:00140000
#03814:00000014
#04118:14
#0411f:11
#0421a:14
#04318:14
#0441a:14
#04514:00140014
#04518:0014
#0461a:1414
#04612:00140014
#0471a:14
#04818:14
#0491a:14
#05114:00140000
#05118:0014
#05112:24
#0511a:24
#0511f:21
#05218:00140000
#05214:0014
#0521a:00000014
#05212:14
#05210:41
#05312:14
#05318:00140000
#05314:0014
#0531a:00000014
#05412:14
#05418:00140000
#05414:0014
#0541a:00000014
#05512:14
#0561a:14
#05618:0014
#05714:0014
#05812:00140000
#05918:00140000
#05914:2414
#06014:00140000
#06018:0014
#06012:00000014
#0601a:14
#0611a:14000014
#06114:0014
#06212:14
#06218:00140000
#06214:0014
#0621a:00000014
#06312:14
#0641a:14
#06514:14
#06618:14
#06712:14
#06914:00140000
#0691a:2424
#06910:41
#07018:00140000
#07012:2424
#07114:00140000
#07118:2424
#07218:00140000
#07214:2424
#07314:00140000
#0731a:2424
#07418:00140000
#07412:2424
#07514:00140000
#07518:2424
#07618:00140000
#07614:2424
#0771a:24140000
#07714:0024
#07812:24140000
#07818:0024
#07918:24140000
#07912:0024
#07910:41
#08014:24140000
#0801a:0024
#0811a:24140000
#08114:0024
#08212:24140000
#08218:0024
#08318:24140000
#08312:0024
#08414:24140000
#0841a:0024
#0171a:24000024
#01714:0000002400000000
#01710:41
#01814:0024000000000000
#0181a:00002424
#01912:24000024
#01918:0000002400000000
#02018:0024000000000000
#02012:00002424
#0211a:24000024
#02114:0000002400000000
#02214:0024000000000000
#0221a:00002424
#02312:24000024
#02318:0000002400000000
#02418:0024000000000000
#02412:0024
#0851a:24000024
#08514:0000002400000000
#08614:0024000000000000
#0861a:00002424
#08712:24000024
#08718:0000002400000000
#08818:0024000000000000
#08812:00002424
#0891a:24000024
#08914:0000002400000000
#09014:0024000000000000
#0901a:00002424
#09112:24000024
#09118:0000002400000000
#09218:0024000000000000
#09212:0024
#0111a:00343400
#01212:00343400
#01518:00343400
#01614:00343400
#02812:00340034
#03112:00343400
#0321a:00343400
#0361a:00340034
#0391a:00343400
#03910:41
#04012:00343400
#04158:64
#0425a:24
#04358:64
#0445a:24
#0475a:54
#04858:54
#0495a:54
#04958:0000000000000014
#05552:54
#05554:0014
#0565a:64
#05658:0064
#05852:00240000
#05754:0054
#06352:54
#0645a:64
#06554:64
#06658:54
#06752:54
#05954:14
#06856:14
#0013a0:14000024
#001380:0000003400000000
#002340:14000024
#002320:0000003400000000
#003380:14000024
#0033a0:0000003400000000
#004320:14000024
#004340:0000003400000000
#0053a0:14000024
#005380:0000003400000000
#006340:14000024
#006320:0000003400000000
#007380:14000024
#0073a0:0000003400000000
#008320:14000024
#008340:0000003400000000
#0113a0:14343400
#011380:00000024
#012320:14343400
#012340:00000024
#015380:14343400
#0153a0:00000024
#016340:14343400
#016320:00000024
#024320:00000000000000001400003400003400
#025320:24
#028320:14340034
#028340:0034
#029320:24
#031320:14343400
#031340:00000024
#0323a0:14343400
#032380:00000024
#0363a0:14340034
#036380:0034
#0373a0:24
#0393a0:14343400
#039380:00000024
#040320:14343400
#040340:00000024
#041380:14
#0423a0:34
#043380:34
#0443a0:34
#045380:24
#0473a0:14
#048380:34
#0493a0:34
#049380:0000000000000024
#055320:14
#055340:0024
#0563a0:14
#056380:0034
#0573a0:24
#057340:0014
#058320:00540000
#059340:24
#063320:14
#063340:0024
#0643a0:14
#064380:0024
#065340:14
#065320:0024
#066380:14
#0663a0:0024
#067320:14
#068360:24
#092320:00000000000000001400003400002400
