This file was generated by Ched 2.7.0.0.
#TITLE ""
#ARTIST ""
#DESIGNER ""
#DIFFICULTY 0
#PLAYLEVEL
#SONGID ""
#WAVE ""
#WAVEOFFSET 0
#JACKET ""
#REQUEST "ticks_per_beat 480"
#00002: 4
#BPM01: 115
#00008: 01
#TIL00: ""
#VOLUME: ""
#HISPEED 00
#MEASUREHS 00
#00118:0013
#0011a:00140014
#00112:2300000013000013
#00115:0000000000130000
#0161b:00001313
#01614:0013000000130000
#01619:0000001300130000
#01612:00000013
#01616:1313
#01617:00130000
#03712:12
#0371c:12
#03718:0012
#03710:41
#03814:1212
#03816:00120000
#03818:0000001200000000
#0381a:12
#00218:1313
#0021a:00140000
#00215:0013000000000000
#00212:0000001300001400
#00315:1313
#00312:00140014
#0031b:1300000000130000
#00318:0013001300000013
#00415:1313
#00412:00140000
#00418:0013000000000000
#0041b:0000001300000000
#0041a:00000014
#00816:1313
#0081b:1313
#00812:000000000000000000000000130000000000130000000000000000000000000000000000135353535353000000000000
#00817:00130000
#00912:0013000000130000
#0091b:0013000000130000
#00915:13000000230000002300000000130000
#00918:23000000001300000000000023000000
#01015:0013230000000000
#01018:23000013000000000000000000000000
#0101b:00000000001300000000000000000000
#01012:0024
#0101a:00000024
#01017:0023
#01016:00000023
#01112:1300230000130000
#01115:00001300000000130000000000000000
#01117:0000000000130000
#01116:00000000000000000000000000130000
#0111b:23000000001300000000000023000000
#01118:00000013000000002300000000000000
#01212:00130000000000000000000013000000
#01216:00000000001300000000000000000000
#01214:0000000000000013
#01217:00000013
#0121a:24
#01219:00250000
#01218:0026
#01312:00002313
#0131b:230000000000130000000000000000000000130000000013
#01316:2300130000000013
#01319:0000001300000000
#01317:0023
#01310:41
#0151b:00002313
#01512:23130013
#01514:0000000000000013
#01519:0000001300000013
#01517:23130000
#01516:0023
#0171b:1300000000130000
#01712:00000013000000000000130000000000
#01715:0000000000001313
#01718:000000000013
#01716:13
#01717:00000013000000000000000000000000
#0181b:00000013000000000000130000000000
#01816:00000013000000000000000014001400
#01812:1300000000130000
#01817:13
#01819:000000000000000000000000000000000000000013000013
#02012:00000013000000001300000000000000
#0201b:1300000000130000
#02017:00000013000000001300000000000000
#02016:1300001300130000
#02116:13
#02114:0013000000000000
#0211b:13001313
#02118:0000000000130000
#02119:0013000000000000
#02112:0000130000132400
#0211a:00240000
#02110:41
#02512:130000130000230000001300
#02518:130000000000000013000000000000000023000000130000
#0251b:0013130023000000
#02515:000000000000000000130000000000000000000000000013
#0261a:14
#02618:0000131300000000
#0261b:000000000000000000000013000000000000000013000000
#02612:000000130000000013000000000000000000000000000000
#02615:000000000000000000000000230000000023000000000013
#0271a:1200120000220000
#02716:0012001200000000
#02714:00122200
#02718:000000000000000000000012000000000000000000230000
#02715:000000000000000000000000000000000023000000000000
#0331c:12
#03312:0013
#03317:12
#00018:00000013
#00514:13
#00519:13
#0051b:0013000013001300
#00515:000000000013000000000000000000000000130000000000
#00518:0000130000130013
#00512:0000001313000000
#00510:41
#00712:1300001300000000
#00717:1300001300000000
#00716:00000013000000001300000000000000
#0071b:00000013000000001300000000000000
#00714:0000000000000013
#00719:0000000000000013
#01416:13130013
#01417:0013001300000000
#0141b:00130013
#01412:0013001300000000
#01414:0000000000000013
#01914:0000001300000000
#01916:00130000
#01919:0000000000130000
#01917:0013
#01915:00000014
#0191a:00000014
#01912:24
#02212:13000000130000000000000024240000
#02215:0013000000000000
#02219:0013000000000000
#0221a:00000000240000002424000000000000
#02317:13
#02319:0013000000000000
#02312:13241313
#02315:0000000000130000
#02314:0013000000000000
#0231b:0000130000130000
#0231a:00000024
#0241b:13130000
#02418:0013000000000000
#02414:0013000000000000
#02412:0000240024130000
#02417:0000000000130000
#02918:1313
#02915:000000000013000000000000000000000013000000000000
#0291b:00130013
#02912:000000000000000000000013000000000000000000000013
#02910:41
#03017:1313
#0301b:00130000
#03016:000000000013000000000000000000000000000000000000
#03012:000000000000000000000013000000000000000000000000
#03015:00000014
#03118:000000000013000000000000000000000013000000000000
#0311b:000000000000000000000013000000000000000000000013
#03115:1313
#03112:00130013
#03217:000000000013000000000000000000000000140000000000
#0321b:000000000000000000000013000000000000000000000000
#03216:1313
#03212:00130000
#03412:12
#0341b:0013
#03417:12
#03517:12
#03516:0013
#03512:12
#03617:1213
#0361c:12
#0391b:1300001313000000
#03912:0013130000001300
#03915:13
#03917:0000000000130000
#03918:0000000000000013
#0391f:11
#0401b:1313
#04018:0013000000000000
#04015:00130000
#04012:0000001300001300
#04016:0013
#04017:00000013
#04612:24252613
#04614:0000000000000013
#04617:00000000001300000000000013000000
#0461b:00130000000000000000000000000000
#0491b:0000001323001300
#04915:0000000000000013
#04918:0000000000000013
#04917:23130000
#04912:23130023
#04916:0023
#05015:0013000013000000
#05019:0000000000130000
#05012:23000014
#0501b:0000001300000000
#05014:0000000000130000
#05018:00232300
#0501a:00000024
#05112:00000013000000000000130000000000
#05115:0000000016001313
#05118:000000000013
#05116:13
#05117:00000013000000000000000000000000
#0511b:1300000000130000
#05212:1300000000130000
#05217:13
#0521b:00000013000000000000130000000000
#05216:00000013000000000000000014001400
#05215:0016
#05214:000000000000000000000000000000000000000013000013
#0471b:23130013
#04719:0000001300000000
#04716:23130000
#04712:000000000000000000000000230000000000130000000013
#04717:0000000023000013
#0471f:21
#04816:0013001300001300
#04812:0000130023000013
#0481b:0013001300001300
#04817:13132300
#04810:41
#05717:13
#05719:0013000000000000
#05712:13001313
#05716:0000240000132400
#05714:0013000000000000
#0571b:0000130000130000
#0581b:13000000130000000013000000000000
#05817:0013000000000000
#05812:0013000014002626
#05815:0000000000130000
#05818:00000000000000000000001300000000
#05816:00240000
#05916:1300001300000000
#05914:0013000000000000
#0591b:13001313
#05918:0000000000130000
#05919:0013000000000000
#05912:0000130000132400
#05917:0000000000000013
#0591a:00240000
#06012:13000000130000000000000026260000
#06014:0013000000000000
#06019:0013000000000000
#06016:0000001300000000
#0601a:00240000
#06018:00000000000000002626000000000000
#06117:1300001300000000
#06119:0013000000000000
#06112:13241313
#06115:0000000000130000
#06114:0013000000000000
#0611b:0000130000130000
#06116:0000000000000013
#0611a:00000024
#0621b:13130000
#06219:0013000000000000
#06214:0013000000000000
#06217:0000001300000000
#06212:00000000240000002626000000000000
#06218:00000000000000000000000026260000
#02818:0013000000130024
#02815:000000000000000000130000000000000013000000000000
#0281b:00000013
#02812:0000240024000024
#0281a:00242400
#04116:13
#0411b:23232323
#0451b:1300230000130000
#04518:00001300000000130000000000000000
#04516:0000000000130000
#04517:00000000000000000000000000130000
#04512:23000000001300000000000023000000
#04515:00000013000000002300000000000000
#04317:00001300000000002300000000130000
#04312:0013000000002300
#04316:23000000001300000000130000000000
#0431b:1300230000130000
#04418:0013230000000000
#04415:23000013000000000000000000000000
#04412:00000000001300000000000024000000
#0441a:0024
#04416:0023
#04417:00000023
#0541b:00000013000000001300000000000000
#05412:1300000000130000
#05416:00000013000000001300000000000000
#05417:1300001300130000
#0531a:14
#05319:0000001300000000
#05317:00130014
#05314:0000000000130000
#05316:0013
#05312:00000014
#05517:13
#05519:0013000000000000
#05512:13001313
#05516:0000240000132400
#05514:0013000000000000
#0551b:0000130000130000
#0561b:13130000
#05617:0013000000000000
#05612:00001300000000002424000000000000
#0561a:00000000000000000000000024240000
#05616:00240000
#00619:13
#00614:13
#00612:0013000013001300
#00618:000000000013000000000000000000000000130000000000
#00615:0000130000130013
#0061b:0000001313000000
#04212:23242500
#04218:00000026
#0421b:23
#0421a:00240000
#04219:0025
#0015a:00140014
#0025a:00140014
#00258:0053
#00252:00000014
#00352:00140014
#00452:00140014
#00455:0063
#0045a:00000014
#0105a:00000014
#01052:0014
#0105b:00000000006300000000000000000000
#01057:0013
#01056:00000013
#0175b:5300001300000000
#01752:00000053000000000000000000000000
#01757:00000053000000000000000000000000
#01756:0000001300000000
#0205b:5300000000630000
#02057:00000053000000000000000000000000
#02056:0000000000630000
#0215a:00140000
#02152:00530014
#0215b:00000063
#0335c:52
#03357:0013
#03352:0013
#03758:0012
#03854:0012
#00058:00000053
#00555:00000053
#00756:0053
#0075b:0053
#0085b:0053
#00958:00000000005300000000000000000000
#00955:00000000000000000000000000630000
#01156:00000000000000000000000000530000
#0115b:00000000005300000000000000000000
#01252:00630000000000000000000000000000
#0125a:44
#01259:00450000
#01256:00000000005300000000000000000000
#01258:0046
#01257:00000053
#01356:13630000
#0135b:13
#01357:0013
#01352:0013
#01456:53531300
#01457:0053005300000000
#0145b:00531363
#01452:0053005300000000
#01852:6300001300000000
#0185b:00000063000000000000000000000000
#01856:00000063000000000000000000000000
#01857:0000001300000000
#01552:13530000
#01557:13
#0155b:0013
#01556:0013
#02252:00530000
#0225a:00140000
#0235b:00630000
#02352:00140053
#0235a:00000014
#0245b:00630000
#02452:0000140000530000
#02457:0000000000530000
#02552:53
#02558:000000000000000000000000000000000043000000000000
#0265a:44
#02655:000000000000000000000000000000000033000000000000
#01955:00000014
#0195a:00000014
#01952:14
#02958:5353
#0295b:00630063
#03057:5353
#0305b:00630000
#03055:00000014
#0305a:00000014
#03257:00000014
#03256:6363
#03252:00530014
#03452:62
#0345b:0013
#03456:0013
#03557:62
#0355b:0013
#03556:0013
#03657:5213
#03652:0013
#0395b:6363
#03952:00630000
#03957:0000000000230000
#0415b:43434343
#0425b:43
#0425a:00440000
#04259:0045
#04258:00000046
#04252:00000036
#05152:00000053000000000000000000000000
#05157:00000053000000000000000000000000
#0515b:5300001300000000
#05156:0000001300000000
#05252:6300001300000000
#0525b:00000063000000000000000000000000
#05256:00000063000000000000000000000000
#05257:0000001300000000
#04657:00000000006300000000000053000000
#0465b:00530000000000000000000000000000
#04652:34353600
#04756:13630000
#0475b:13
#04757:0013
#04752:0013
#0485b:0063006300006300
#04857:63631300
#04856:0063006300000000
#04852:00631300
#04952:13530000
#04957:13
#0495b:0013
#04956:0013
#0575b:00630000
#05752:00000053
#05756:00340044
#0585b:00630000
#05856:00340000
#05852:0000000000003636
#05052:00000014
#0505a:00000014
#05952:00530034
#05956:0000002300000000
#0595b:00000063
#05957:0000000000000023
#0595a:00440000
#06052:00530000
#06056:0000002300000000
#0605a:00440000
#0615b:00630000
#06157:0000002300000000
#06152:00340053
#06156:0000000000000023
#0615a:00000044
#0625b:00630000
#06257:0000002300000000
#06252:00340000
#03155:6363
#03152:00530053
#02855:000000000000000000000000000000000063000000000000
#02852:1400140014000014
#0285a:14141400
#02858:0000000000000014
#0285b:00000053
#04057:00000053
#04557:00000000000000000000000000630000
#04552:00000000006300000000000000000000
#04356:00000000006300000000000000000000
#04357:00000000000000000000000000530000
#04452:00000000005300000000000014000000
#0445a:0014
#04456:0013
#04457:00000013
#05452:6300000000530000
#05456:00000063000000000000000000000000
#05457:0000000000530000
#0535a:14
#05357:00000014
#05352:00000014
#0555b:00630000
#05552:00000053
#05556:00340044
#0565b:00630000
#05656:00340000
#02755:000000000000000000000000000000000053000000000000
#02758:0000000000000053
#00658:00000063
#000380:00000013
#0013b0:23
#002380:0013
#0023a0:00000024
#004350:0013
#004320:00000024
#005350:00000013
#005320:0000000000000023
#006380:00000013
#0063b0:0000000000000023
#007360:0013
#007320:00000023
#0073b1:0013
#007371:00000023
#0083b1:0013
#008371:00000023
#009381:00000000001300000000000000000000
#0093b1:0023
#009351:00000000000000000000000000130000
#010321:23
#0103b1:00000000001300000000000000000000
#010371:0023
#0113b1:00000000001300000000000000000000
#011381:00000000000000230000000000000000
#011361:00000000000000000000000000130000
#012321:23
#012321:00130000000000000000000000000000
#012361:00230000
#012361:00000000001300000000000000000000
#012321:0023
#012371:00000013
#0133b1:23
#013361:00130000
#013321:0023
#014361:13332300
#014321:0033003300000000
#014370:0013003300000000
#0143b0:00332300
#0143b0:00000013
#015370:23
#015320:00130000
#015360:0023
#0163b0:1323000000000000
#016320:0000132300000000
#0173b0:1300002300000000
#017370:00000033000000000000000000000000
#017321:00000013000000000000000000000000
#017361:0000002300000000
#018321:1300002300000000
#018361:00000033000000000000000000000000
#0183b0:00000013000000000000000000000000
#018370:0000002300000000
#0193b0:0000132300000000
#019320:0000000013230000
#0203b0:1300002300000000
#020370:00000033000000000000000000000000
#0203b0:0000000000130000
#020370:0000000000000023
#020361:0000000000130000
#020321:0000000000000023
#021321:00130000
#021361:0023
#0213b1:00000013
#022371:23
#022321:00130000
#022361:0024
#0233b1:00130000
#023371:0023
#023321:00000013
#024361:23
#0243b1:00130000
#024361:0024
#024321:0000000000130000
#024361:0000000000000023
#024370:0000000000130000
#0243b0:0000000000000023
#025320:13
#025350:0023000000000000
#025350:000000000000000000000000000000130023000000000000
#026380:000000000000000000000000000000130023000000000000
#027350:000000000000000000000000000000000013000000000000
#028320:24
#027381:0000000000000013
#0283a1:24
#028351:000000000000000000000000000000000013000000000000
#028321:0000000000000024
#0283b0:00000013
#028380:0000000000000024
#029380:13
#0293b0:000000000023000000000000000000000000000000000000
#0293b0:00130000
#029380:000000000000000000000023000000000000000000000000
#029380:0013
#0293b0:000000000000000000000000000000000023000000000000
#0293b0:00000013
#029370:000000000000000000000000000000000000000000000023
#030370:13
#0303b0:000000000023000000000000000000000000000000000000
#0303b0:00130000
#030370:000000000000000000000023000000000000000000000000
#030370:0013
#0303a0:00000024
#031350:13
#031320:000000000023000000000000000000000000000000000000
#031320:00130000
#031350:000000000000000000000023000000000000000000000000
#031350:0013
#031320:000000000000000000000000000000000023000000000000
#031320:00000013
#031360:000000000000000000000000000000000000000000000023
#032360:13
#032320:000000000023000000000000000000000000000000000000
#032320:00130000
#032360:000000000000000000000023000000000000000000000000
#032360:0013
#032320:00000024
#0333c0:12
#033370:0023
#034320:12
#034360:0023
#035370:12
#0353b0:0023
#036370:12
#036320:0023
#0393b0:13
#039370:0033230000000000
#039321:00130000
#039361:0000003323000000
#0393b0:00001323
#039370:0000000000530000
#040320:1323000000000000
#0403b0:0000132300000000
#040370:00000013
#0413b0:23
#042320:000000000000000000000000000000000000000000000000153435343534363436343634260000000000000000000000
#043360:00000000001300000000000000000000
#043320:0023
#043370:00000000000000000000000000130000
#0443b0:23
#044320:00000000001300000000000000000000
#044360:0023
#045320:00000000001300000000000000000000
#045350:00000000000000230000000000000000
#045370:00000000000000000000000000130000
#0463b0:23
#0463b0:00130000000000000000000000000000
#046370:00230000
#046370:00000000001300000000000000000000
#0463b0:0023
#046370:00000013
#0463b0:0000000000000033
#0473b0:23
#047360:00130000
#047320:0000003323000000
#048370:13332300
#0483b0:0033003300000000
#048361:0013003300000000
#048321:00332300
#0483b1:00000013
#048371:0000000000000033
#049371:23
#049321:00130000
#049361:0000003323000000
#0503b1:13
#050381:0023000000000000
#050351:00130000
#050321:0000002300000000
#0513b1:1300002300000000
#051371:00000033000000000000000000000000
#051320:00000013000000000000000000000000
#051360:0000002300000000
#052320:1300002300000000
#052360:00000033000000000000000000000000
#0523b1:00000013000000000000000000000000
#052371:0000002300000000
#053321:0000132300000000
#0533b1:0000000013230000
#054321:1300002300000000
#054361:00000033000000000000000000000000
#054321:0000000000130000
#054361:0000000000000023
#054370:0000000000130000
#0543b0:0000000000000023
#0553b0:00130000
#055370:0023
#055320:00000013
#056360:23
#0563b0:00130000
#056360:0024
#0573b0:00130000
#057370:0023
#057320:00000013
#058360:23
#0583b0:00130000
#058360:0024
#059320:00132300
#059360:0000005300000000
#0593b0:00000013
#059370:0000000000000053
#0603b0:23
#060320:00132300
#060360:0000005300000000
#0613b0:00132300
#061370:0000005300000000
#061320:00000013
#061360:0000000000000053
#062320:23
#0623b0:00132300
#062370:0000005300000000
#008920:000000000000000000000000000000000000000000000000000000000000000000000000130000000023000000000000
