This file was generated by Ched 2.7.0.0.
#TITLE ""
#ARTIST ""
#DESIGNER ""
#DIFFICULTY 0
#PLAYLEVEL
#SONGID ""
#WAVE ""
#WAVEOFFSET 0
#JACKET ""
#REQUEST "ticks_per_beat 480"
#00002: 4
#BPM01: 115
#00008: 01
#TIL00: ""
#VOLUME: ""
#HISPEED 00
#MEASUREHS 00
#01012:14002626
#01018:00140000
#01212:1426
#01218:00140000
#0191a:14
#01918:0014
#01914:00140000
#01912:00000014
#0011a:2414
#00214:1414
#00318:1414
#00412:1414
#00914:00140000
#0091a:1414
#0111a:1414
#01114:00140000
#01314:00140000
#0131a:2414
#01312:00000014
#01310:41
#01418:14
#0141a:0034343400000000
#01512:1414
#01518:00140000
#0151a:00000014
#01614:14
#01618:00140000
#01612:0014
#0161a:00000014
#01714:14
#01818:14
#01812:00000014
#0201a:14
#02012:0014
#02518:1414
#02512:00140000
#02614:1414
#0261a:00140000
#02914:1414
#02918:00140014
#02910:41
#03012:14141400
#03118:1414
#03114:00140014
#0321a:14141400
#03712:14
#0371a:14
#03718:0014
#03710:41
#03814:1414
#03818:00140000
#03918:14
#0391f:11
#04014:14
#00518:14
#0051a:00140000
#00510:41
#00614:14
#00612:00140000
#0071a:14
#00718:00140000
#00812:14
#00814:00140000
#02718:1414
#02712:00140000
#0441a:14
#04414:00140000
#04418:00002626
#0461a:14
#04614:00140000
#04618:0026
#05312:14
#05314:0014
#05318:00140000
#0531a:00000014
#04318:00140000
#04312:1414
#04512:1414
#04518:00140000
#04718:00140000
#04712:2414
#0471a:00000014
#0471f:21
#04814:14
#04812:0034343400000000
#04810:41
#0491a:1414
#04914:00140000
#04912:00000014
#05018:14
#05014:00140000
#0501a:0014
#05012:00000014
#05118:14
#05214:14
#0521a:00000014
#05412:14
#0541a:0014
#05814:0014
#05818:00000014
#0581a:24
#04118:24
#0411a:00343400
#0211a:24
#02112:0024
#02110:41
#02218:24000026
#02212:0026
#02314:24
#0231a:0024
#02412:24
#02812:24240000
#0281a:00002424
#04214:24
#04218:00250026
#04213:0025
#05914:24
#05918:0024
#06018:0026
#06012:00000026
#06014:24
#06212:0026
#06218:24000026
#06118:24
#06114:0024
#05512:24
#0551a:0024
#05614:24
#05618:0026
#05612:00000026
#05718:24
#05712:0024
#01252:0016
#01458:54
#0145a:0014
#01754:54
#01858:64
#0205a:14
#02052:0014
#03958:64
#04054:54
#04258:00000016
#00558:54
#0055a:00240000
#00654:64
#00652:00240000
#0075a:64
#00758:00240000
#00852:54
#00854:00240000
#0325a:0054
#03052:0054
#04158:64
#04854:64
#04852:0014
#05158:64
#05254:54
#05452:14
#0545a:0014
#04658:0016
#005380:1424
#0053a0:00540000
#006340:1424
#006320:00540000
#0073a0:1424
#007380:00540000
#008320:1424
#008340:00540000
#014380:14
#0143a0:0034343424000000
#017340:14
#017320:0024
#018380:14
#0183a0:0024
#0213a0:1434240000000000
#021320:0000000014342400
#022380:1434240000000000
#023340:1434240000000000
#0233a0:0000000014342400
#024320:1434240000000000
#030320:0014
#030340:00000024
#0323a0:0014
#032380:00000024
#033340:14
#033320:0034
#034340:34
#034320:0024
#035380:14
#0353a0:0034
#036380:34
#0363a0:0024
#039380:14
#0393a0:0024
#040340:14
#040320:0024
#041380:14
#0413a0:00343424
#048340:14
#048320:0034343424000000
#051380:14
#0513a0:0024
#052340:14
#052320:0024
#055320:1434240000000000
#0553a0:0000000014342400
#056340:1434240000000000
#057380:1434240000000000
#057320:0000000014342400
#0583a0:1434240000000000
#059340:14
#059330:0034000000000000
#059320:00240000
#059380:0014
#059390:0000000000340000
#0593a0:00000024
#060340:14
#060330:0034000000000000
#060320:00240000
#061380:14
#061390:0034000000000000
#0613a0:00240000
#061340:0014
#061330:0000000000340000
#061320:00000024
#062380:14
#062390:0034000000000000
#0623a0:00240000
