This file was generated by Ched 2.7.0.0.
#TITLE ""
#ARTIST ""
#DESIGNER ""
#DIFFICULTY 0
#PLAYLEVEL
#SONGID ""
#WAVE ""
#WAVEOFFSET 0
#JACKET ""
#REQUEST "ticks_per_beat 480"
#00002: 4
#BPM01: 170
#00008: 01
#TIL00: ""
#VOLUME: ""
#HISPEED 00
#MEASUREHS 00
#0571f:11
#05718:26121200
#05712:1200140000000012
#05716:0000000000120000
#05714:00000012
#0571a:0000000000140000
#07415:00000013
#07412:2626262613000000
#07418:0000130026262626
#0741b:13
#07318:0000260000001313
#07315:00000000000000000000000000130000
#07312:002700002c000000
#07316:28
#07612:1300130000130013
#07615:00001313
#07618:0013001300000000
#0761b:13130013
#02517:1300002313002300
#0261b:1300002313002300
#02616:00000053
#02716:1300002313002300
#02812:1300002313002300
#02817:00000053
#0791b:00130013
#07918:16000000000000000000000000000013
#07915:0014000000140013
#07912:13001356
#07917:0000001400000000
#07812:00131313
#0781b:23130013
#07818:0013000013000013
#07815:2300000000130000
#0701b:00131313
#07012:23130013
#07015:0013000013000013
#07018:2300000000130000
#07112:16130013
#07117:0014000000140000
#0711b:1313
#07115:00000000000014000000000000000013
#07118:0000000000005613
#05815:0000001300000013
#05818:00000013
#0581a:0014
#05812:0014000000000000
#05816:0054000000000000
#0591c:1200000000000012
#05916:00121200
#05918:0000000000120000
#0591a:00140012
#05912:1300000000140000
#02016:00000013
#02017:00130000000000001300000000000000
#02012:00141300
#02013:00000000000000000000000000000053
#02014:0000000000000053
#02015:00000000000000000000000000530000
#0201b:00530053
#0201a:00000000000000000000005300000000
#02019:0000000000530000
#02018:00000000000000000053000000000000
#01212:00001313
#0121b:0013
#01218:00000000130000000000005300000000
#01215:00000000000000000000000000000053
#01214:0000000000000053
#01213:00000000000000000000000000530000
#01217:00000053
#01219:0000000000530000
#0121a:00000000000000000053000000000000
#01216:00520000
#01314:0000000000000012
#01316:53000012
#01318:0000120000120000
#0131a:0012
#01312:00120000
#01319:25
#01917:00531300
#0191b:1300000000005313
#01912:00141314
#01916:13
#07715:53001316
#0771b:00001300000013000000001300000000
#07718:13000000530000000013000000000000
#07712:0000130000130000
#07518:00130000
#07512:1300530013130000
#0751b:13001313
#07515:0013001300000000
#08316:0000000000120000
#08318:0000000000120076
#08312:0000000000000076
#06912:13000000000013000000001300000000
#06915:00000000130000005313000016000000
#0691b:0013000000130000
#06918:1313
#06910:41
#0681b:00001313
#06815:0013001300001300
#06812:1300130053130000
#06818:2600130000000013
#0681f:21
#04015:0000000000001313
#04018:00002600000000000000000000130000
#04012:27262c00
#03617:13
#03616:00130000
#03612:13000000000000005313001300000000
#0361b:0000000013130000
#03615:00000016
#04416:13
#04417:00130000
#0441b:13000000000000005313001300000000
#04415:00000016
#04412:0000000013130000
#06316:0000000000000014
#06312:0013000000000000
#06315:13
#0631b:0013000000000000
#06318:13
#06518:0000000000000012
#06516:00000012
#06512:0000000000140000
#0651a:0000000000140000
#06715:0000000000001616
#0671a:0000000000140000
#06712:1614
#06718:00001600002200220000000000000000
#06716:0000222200000000
#0671c:52
#06615:0000000000130000
#0661b:0000001313000000
#06618:00130026
#06612:2626000056000000
#0661a:0054000000000000
#06215:00130000000013000000000013000000
#06218:00001300001300000000130000000000
#06212:0000130000000013
#0621b:1313
#06115:00000000001300130013000000001300
#06118:00000000130013001300130000130000
#06112:0013000000001300
#0611b:13
#06015:00000000000000005300000000000013
#0601b:0000530000000013
#06018:00000000000000530000531300000000
#06012:0000005300131300
#06016:0054000000000000
#05615:00000016
#05617:0000000000120000
#05616:0000121200000000
#05618:12
#05612:53000053
#0561b:0000005300000000
#05515:0000000012120000
#05518:0000000000000012
#05519:0012120000000000
#0551b:0000000000530000
#05512:00530000
#05418:0013000000001300
#05415:13130053
#05412:0013
#0541b:0000001300000000
#05318:0013001300001300
#05312:2600000000005313
#05315:00130000
#05310:41
#0531b:53
#05212:0013000000001300
#0521b:00131300
#05215:1300001300000000
#0521a:00000000000000000053000000000053
#05219:0000000000530053
#05218:00000000000000000000005300530000
#05217:00000053
#05112:0000001300001300
#0511b:00130000
#05118:1300000000005313
#05115:0013000000000000
#05015:0013000000001300
#05018:13130053
#0501b:0013
#05012:0000001300000000
#04915:0013001300001300
#04912:13
#0491b:0000000000005313
#04918:26130000
#04615:00000000000000000000000000000013
#04618:0000160000000013
#04612:16131613
#0461b:13001313
#04312:00131313
#04317:00131300
#0431b:13000013
#04314:0013000000000013
#04319:0000000000130000
#04316:13
#04310:41
#04512:23001313
#04517:00000013
#04519:0000000000130000
#0451b:23131300
#04516:00130000
#04514:0013000000000000
#04115:0000130000130013
#04118:0013000000001300
#04112:2613
#0411b:13131300
#0421b:13130000
#04212:13
#03818:16000000000000001600000000000013
#03815:0000000000000013
#0381b:00130013
#03812:13161313
#0351b:00131313
#03516:00131300
#03512:13000013
#03519:0013000000000013
#03514:0000000000130000
#03517:13
#0371b:23001313
#03716:00000013
#03714:0000000000130000
#03712:23131300
#03717:00130000
#03719:0013000000000000
#03318:2600130000130013
#03315:0013000000001300
#0331b:0013
#03312:13131300
#03310:41
#03412:13130000
#0341b:13
#03212:00261600
#03218:2656
#03018:24242416
#03012:0024002400001600
#03014:0000000000640000000000000064000000000000000000000000000000000000
#03013:00000000000000000064000000000000000000000000000000640000000000000000000000000000000000000000000000000000000000000000000000000000
#0301a:0064000000000000006400000000000000640000000000000000000000000000
#03019:00640000000000000000000000000000006400000000000000000000000000000064000000000000000000000000000000000000000000000000000000000000
#0291a:0054000000000000005400000000000000540000000000001400000000000000
#02912:0014001400001400
#02918:14141400
#02914:0000000000540000000000000054000000000000000000000000000000000000
#02913:00000000000000000054000000000000000000000000000000540000000000000000000000000000000000000000000000000000000000000000000000000000
#02919:00540000000000000000000000000000005400000000000000000000000000000054000000000000000000000000000000000000000000000000000000000000
#02418:0000005600561600
#02415:0000000000235300
#02412:0000002353000000
#01612:0000005600130000
#01618:00000000000000000000000000000013
#01615:0000000000000013
#0161b:0000002300531300
#02216:00000013
#02212:0013
#02217:0013
#0221a:00140014
#02215:00530000
#02112:53000013
#02118:0000000000130000
#02115:0013
#0211a:00140014
#02116:00130000
#02119:25
#02110:41
#01817:00000013
#0181b:0013
#01816:0013
#01812:00140014
#01818:00530000
#0171b:00000013
#01715:0000000000130000
#01718:0013
#01712:25140014
#01717:00130000
#01418:00000013
#01415:0000000000000013
#01412:0013
#01417:00521300
#0141b:00130000
#00416:00000013
#00417:0013
#00412:0000001300000000
#00415:00000000130000000000000000530000
#00418:00001300000000000053000000000000
#0041b:13000053
#00413:00000000000000000000000000000053
#00414:0000000000000053
#0041a:00000000000000000000005300000000
#00419:0000000000530000
#01012:0013
#01015:00130013
#0101b:0013
#01018:00520000
#01118:13000012
#01112:00520000
#0111a:0052
#01114:00000052
#00916:00000012
#00912:25
#00910:41
#0091c:00520000
#00914:0052
#0091a:00000052
#00815:0000005600561600
#00812:0000002353235300
#00212:00131300
#00218:1300001300002300
#00215:0013000000005300
#0061b:00131300
#00615:1300001300002300
#00618:0013000000005300
#00512:5313000000000013
#00518:0000001300000000
#00515:00130000
#0051b:2300000000000053
#00315:1300130000000013
#00315:53
#00312:0000001300000000
#00318:0013000000000053
#0031b:63
#0011b:0013000000000013
#00115:0000001300000000
#00118:00130000
#00112:2300000000000053
#00018:00000000000000000000000000000013
#00015:0000000000000013
#00012:00000013
#0001b:00000013
#03912:26272828
#03917:0000002700000027
#03918:0026000000000000
#08012:26282a2a
#08015:0000002900000029
#08017:0027000000000000
#08112:28262c00
#08117:0027000000000000
#08118:0000000000000023
#08115:00000023
#04815:0000000000000023
#04818:00260023
#04812:002600002c000000
#04817:27
#07214:00002a2a
#07212:0027002900000029
#07216:00280000
#07218:26
#04716:00002828
#04712:0026002700000027
#04717:00270000
#04718:26
#03112:00562600
#03118:26000056
#02315:2300000000000023
#02312:00230000
#02318:0000560000000056
#01518:2300000000000023
#0151b:00230000
#01512:0000560000000056
#00712:0000230000000023
#00715:0000560000000056
#06416:0000000000000000000000000000000000343434343434340000000000000000
#00752:1300000000130000
#07958:4646
#07952:53365300
#07955:0024000000240000
#07957:0000002400000000
#0795b:00630000
#07152:36533600
#07158:00460000
#07157:0024000000240000
#0715b:6363
#07155:0000002400000000
#06958:53130000
#06952:0000002300000000
#06955:00630016
#0695b:0023000000000000
#0365b:00130000
#03657:53
#03656:00630000
#03655:00000016
#0645b:0000001300000000
#06452:0000001c
#06352:0023000000000013
#06358:53130000
#06355:63130000
#06356:0000000000000054
#0635b:0023000000000000
#04452:00130000
#04456:63
#04457:00530000
#04455:00000016
#04252:53000013
#04257:0000000000130000
#04256:00130000
#0425b:00630000
#0345b:63000013
#03456:0000000000130000
#03457:00130000
#03452:00530000
#03252:0016561c
#03258:16
#02455:0013000000000000
#02458:00000016
#02352:0000000000130000
#02355:13
#01658:0013000000000000
#0155b:0000000000130000
#01558:13
#00852:0013000000000000
#00855:00000016
#00258:00000053
#00252:0053
#00655:00000063
#0065b:0063
#07058:13
#07052:00130000
#0705b:00000013
#07855:13
#0785b:00130000
#07852:00000013
#0455b:13
#04557:00000013
#04556:00130000
#03752:13
#03756:00000013
#03757:00130000
#03952:36373838
#03957:0000004700000047
#03958:0046000000000000
#04052:37361c00
#04058:0046000000000000
#08052:36383a3a
#08055:0000004900000049
#08057:0047000000000000
#08152:38361c00
#08157:0047000000000000
#05758:16
#06658:00000056
#07352:003700001c000000
#07356:48
#07358:00460000
#07254:00004a4a
#07252:0037003900000039
#07256:00480000
#07258:46
#06858:16130000
#06855:0000002300001300
#06852:00530000
#05352:16
#05358:00000013
#05355:00130000
#04958:16130000
#04955:00000013
#04852:003600001c000000
#04857:47
#04858:00460000
#04756:00004848
#04752:0036003700000037
#04757:00470000
#04758:46
#04152:16
#04158:00000013
#04155:00130000
#03358:16130000
#03355:00000013
#03152:0016
#03158:16
#00952:15
#0055b:13
#00152:13
#07455:00000013
#07458:00130000
#01354:0000000000000052
#01957:0053
#0195b:6300000000000063
#01952:00140014
#02057:00230000000000000000000000000000
#02052:00140000
#07755:00000016
#07752:00130000
#0775b:0023000000000000
#07758:53
#07652:0000130000000023
#07655:00000063
#0765b:00000013
#07558:00130000
#07555:0023000000000000
#07552:5300000000330000
#0755b:00000043
#08356:0000000000220000
#08358:0000000000220000
#06758:0016000000000000
#06752:16
#05655:00000016
#05458:00000013
#05455:00130000
#05452:0053
#05252:00000013
#0525b:00130000
#05152:00000013
#0515b:00130000
#05055:00000013
#05058:00130000
#0505b:0063
#04652:3636
#04658:00460000
#04352:00130000
#0435b:00000013
#03858:4646
#03852:00360000
#0355b:00130000
#03552:00000013
#03058:00000016
#03052:00000016
#0295a:00000014
#02952:00000014
#0225a:00140014
#0215a:00140014
#01852:00140014
#01752:00140014
#001320:0000000013000023
#002320:0013
#002350:00000023
#002381:00000013
#0033b1:23
#003381:0000000013000023
#0053b1:0000000013000023
#0063b1:0013
#006381:00000023
#006350:00000013
#007320:23
#007351:16260000
#007320:0000130000230000
#007351:0000000000160026
#007320:0000000000000013
#008320:0023000000000000
#008351:0016002600000000
#008320:0000001323000000
#008351:0000000016260000
#008320:0000000000132300
#0093c0:12220000
#009341:00122200
#0093a0:00001222
#009380:0000000000000012
#010380:00220000
#011320:12220000
#0113a1:00122200
#011340:00001222
#011360:0000000000000012
#012360:00220000
#013340:0000000000000012
#014370:00220000
#015320:16260000
#0153b1:0000130000230000
#015320:0000000000160026
#015381:0000000000000013
#016381:0023000000000000
#016320:0016002600000000
#0163b1:0000001300230000
#017381:0000000000000013
#018381:00230000
#0193b1:13
#019371:00230000
#019371:0013
#0193b1:00000023
#0193b1:0000000000000013
#020371:00530000000000000000000000000000
#0203b1:00230000
#021351:0000000000000013
#022351:00230000
#023381:16260000
#023320:0000130000230000
#023381:0000000000160026
#023350:0000000000000013
#024350:0023000000000000
#024381:0016002600000000
#024320:0000001323000000
#024381:0000000016260000
#024350:0000000000132300
#025320:13535353535353000000000053000000
#025330:0053005300530053005300530000000000000000000000000000000000000000
#026360:53535353535353000000000023000000
#026350:0053005300530053005300530000000000000000000000000000000000000000
#0273b0:13535353535353000000000053000000
#0273a0:0053005300530053005300530000000000000000000000000000000000000000
#028370:53535353535353000000000023000000
#028380:0053005300530053005300530000000000000000000000000000000000000000
#031320:16565656260000000000000000000000
#031340:0056005600560056000000000000000000000000000000000000000000000000
#031380:00000000000000001656565626000000
#031360:0000000000000000000000000000000000560056005600560000000000000000
#032320:1656565656000000260000000000000000000000000000000000000000000000
#032340:00560056005600560000000000000000000000000000000000000000000000000000000000000000000000000000000000000000000000000000000000000000
#032381:0000000000000000165656565600000026000000000000000000000000000000
#032361:00000000000000000000000000000000005600560056005600000000000000000000000000000000000000000000000000000000000000000000000000000000
#032320:0000162c
#0343b0:13
#034370:00230000
#034321:00130000
#034361:0000000033230000
#0343b0:00001323
#036370:13
#0363b0:00230000
#036361:00130000
#036321:0023
#042321:13
#042361:00230000
#0423b0:00130000
#042370:0000000033230000
#042321:00001323
#044361:13
#044321:00230000
#044370:00130000
#0443b0:0023
#0493b0:00001323
#0503b0:0013
#050380:00000023
#051380:00001323
#053320:00001323
#054320:0013
#054350:00000023
#055320:13230000
#0553b0:0000001300230000
#055320:00000013
#056320:23
#0563b0:0013002300000000
#056320:00001323
#057360:0000000000000014
#058360:0024000000000000
#059360:0000000000000014
#060360:0024000000000000
#0603b1:0013230000000000
#060320:0000132300000000
#060381:00000000000013230000000000000000
#060350:00000000000000132300000000000000
#060381:0000000013230000
#063381:13230000
#0633b1:0053000000000000
#063350:13230000
#063320:0053000000000000
#063360:0000000000140034
#063370:0000000000000000000000000000000000000000005300530053005300000000
#063350:00000000000000000000005555550000
#0643b0:0033002300000000
#0643a0:0000000000540054005400540000000000000000000000000000000000000000
#0643c0:00000052525200000000000000000000
#063321:0000000000000000000000000000000000000000135452545254525423000000
#064361:0000000014535553555355533400000034343434343434340000000000000000
#064321:0000002c
#0663a1:1454545424000000000000000000000000000000000000000000000000000000
#066391:00540054005400540000000000000000000000000000000000000000000000000000000000000000000000000000000000000000000000000000000000000000
#066321:0000000000000000000000001656565626000000000000000000000000000000
#066331:00000000000000000000000000000000000000000000000000540054005400540000000000000000000000000000000000000000000000000000000000000000
#066381:00000016
#0673c1:22
#068321:00132300
#068351:0000005300000000
#069381:13230000
#0693b1:0053000000000000
#069350:00132300
#069320:0000005300000000
#0713b0:13
#071370:0054000000000000
#071380:00260000
#071321:00132600
#071351:0000005400000000
#0713b0:0013
#071370:0000000000540000
#071380:00000026
#075320:13230000
#075350:0053000000000000
#076350:00000013
#076320:0000000000000053
#077350:23
#077381:13230000
#0773b1:0053000000000000
#079321:13260000
#079351:0054000000000000
#0793b0:00130000
#079370:0000005400000000
#079380:0026
#079321:00001326
#079351:0000000000540000
#082381:1656565656000056000000000000000000000000000000000000000000000000
#0823a1:00520000000000000000000000000000000000000000000000000000000000000000000000000000000000000000000000000000000000000000000000000000
#082391:00000052000000520000000000000000000000000000000000000000000000000000000000000000000000000000000000000000000000000000000000000000
#0823b1:00000000005200000000000000000000000000000000000000000000000000000000000000000000000000000000000000000000000000000000000000000000
#083381:0000000000520026
#082320:1656565656000056000000000000000000000000000000000000000000000000
#082350:00520000005200000000000000000000000000000000000000000000000000000000000000000000000000000000000000000000000000000000000000000000
#082340:00000052000000000000000000000000000000000000000000000000000000000000000000000000000000000000000000000000000000000000000000000000
#082330:00000000000000520000000000000000000000000000000000000000000000000000000000000000000000000000000000000000000000000000000000000000
#083360:0000000000520000
#083320:0000000000000026
#004970:0013
#0049b0:00000023
#004961:00000013
#005921:23
#0129b1:0013
#012971:00000023
#012920:00000013
#013960:23
#020970:0013
#0209b0:00000023
#020961:00000013
#021921:23
#029981:14
#0299a1:0024000000000000000000000000000000000000000000000000000000000000
#029921:0014000000000000
#029941:0000000000240000000000000000000000000000000000000000000000000000
#029981:00140000
#0299a1:0000000000000000002400000000000000000000000000000000000000000000
#029921:0000001400000000
#029941:0000000000000000000000000024000000000000000000000000000000000000
#029981:0014
#0299a1:0000000000000000000000000000000000240000000000000000000000000000
#030981:14
#0309a1:0024000000000000000000000000000000000000000000000000000000000000
#030921:0014000000000000
#030941:0000000000240000000000000000000000000000000000000000000000000000
#030981:00140000
#0309a1:0000000000000000002400000000000000000000000000000000000000000000
#030921:0000001400000000
#030941:0000000000000000000000000024000000000000000000000000000000000000
#030981:0014
#0309a1:0000000000000000000000000000000000240000000000000000000000000000
#0529b1:0013
#052971:00000053
#0539b1:23
