This file was generated by Ched 2.7.0.0.
#TITLE ""
#ARTIST ""
#DESIGNER ""
#DIFFICULTY 0
#PLAYLEVEL
#SONGID ""
#WAVE ""
#WAVEOFFSET 0
#JACKET ""
#REQUEST "ticks_per_beat 480"
#00002: 4
#BPM01: 170
#00008: 01
#TIL00: ""
#VOLUME: ""
#HISPEED 00
#MEASUREHS 00
#00115:0000001300000013
#0011b:00130053
#00112:23
#00315:00130000
#00318:0000001300000000
#0031b:0013000000000013
#00312:00000053
#00415:13
#00418:00131300
#00412:0000001300000000
#00419:00000000000000000033000000000000
#0041a:0000000000330000
#0041b:00000000000000000000003333333333
#00814:00001414
#00818:0000002400240000
#0091b:00000013
#00915:00130000
#00918:0013
#0091a:24
#00910:41
#01018:0013
#01015:00530013
#01112:13000013
#01118:0000130000000013
#01115:0013
#0111b:13
#01415:0013
#01418:00530013
#01718:00130013
#01712:0013
#01715:2300000000130000
#01815:0013
#01818:00000013
#0181b:00530000
#03315:0013000000000013
#03318:26130013
#03312:1313
#0331b:0013
#03310:41
#03512:1313
#03518:0013000013000000
#03515:0000130000000013
#0351b:00000013
#03612:13000016
#03618:13
#03715:0000130000130000
#03718:0013000013000000
#03712:00000013
#0371b:23
#03812:00000013
#0381b:0000000000000013
#03818:1414
#03814:00140000
#0491b:0013000000000013
#04915:00130053
#04918:0000001300000000
#04912:23
#05115:0013000000000013
#05112:0000001300000000
#0511b:00130053
#05118:13
#05218:13000000130000000000003313330000
#05212:0013000000000000
#05215:0000001300000000
#0521b:0013
#0521a:00000000000000000033000000000033
#05219:0000000000330033
#06015:00000013
#06018:0000000000000013
#06012:0000000000130000
#0611b:1300130000530000
#06112:0013000000001300
#0611a:00000000005300000053000000000000
#06119:0000005353000000
#06118:00000000000000530000000000000000
#06113:00000000000000000000000000530000
#06114:0000000000000053
#0621b:1313
#06218:0000000000130000
#06215:00000013
#06212:0000130000000013
#0621a:00530000000000000000000000000000
#06219:0053000000000000
#06213:00000000005300000000000000000000
#06214:0000005300000000
#06612:0026000000160000
#06618:26005616
#0671a:0014
#06712:0013000000140000
#06718:00220013
#06715:0000000000000013
#06716:0000002200000000
#0681b:1313
#06815:0000130000130013
#06812:2613
#06818:0013000000001300
#0681f:21
#07115:0000000000000013
#0711a:14
#07116:00140000
#07112:0014
#07118:00000013
#07416:0014001400140014
#0741a:24240000
#07412:00002424
#06915:00130016
#06912:13
#0691b:13
#06918:00130000
#06910:41
#07612:0013000000000000
#0761b:0013
#07618:0000001300130000
#07615:00130013
#08316:0000000000140000
#08314:0000000000000078
#07512:0000001400000000
#0751a:14
#07518:00541400
#07718:00130000
#07715:0000001300000000
#0771b:0013
#07015:0013000000001300
#07018:0000130000130000
#0701b:2313
#07012:2313
#0021b:13
#00212:00130053
#00218:0000001300000000
#00215:0013
#00518:0000001300000013
#00512:00130053
#0051b:23
#00612:13
#0061b:00130053
#00615:0000001300000000
#00618:0013
#01215:0013
#01214:00000000000000000033000000000000
#01213:0000000000330000
#01212:00000000000000000000003333333333
#0121b:00530000
#0131b:00130000
#01318:0013
#01315:00000013
#02115:00130013
#0211b:0013
#02118:0000000000130000
#02110:41
#0191b:13
#01912:13
#01915:0000000013000013
#01918:00130013
#0201b:0013
#0201a:00000000000000000033000000000000
#02019:0000000000330000
#02018:00000000000000000000003333333333
#02012:00530000
#02218:0013
#02215:00000013
#02212:00530000
#02418:00000014
#0241a:0014
#02412:0000002400000000
#02414:0000000000240000
#0251b:0013
#02512:00000013
#02518:00000013
#02515:0000005300000000
#02618:0013
#02612:0000005300001300
#0261b:00000013
#02712:0013
#0271b:00000013
#02715:00000013
#02718:0000005300000000
#02815:0013
#0281b:0000005300001300
#02812:00000013
#03214:0014
#03212:24
#0321a:00240000
#03418:00130000
#03412:00130000
#04118:0013000000000013
#04115:00130013
#0411b:1313
#04112:2613
#0431b:1313
#04315:0013000013000000
#04318:0000130000000013
#04312:00000013
#04310:41
#04418:00000016
#04415:13
#0441b:13
#04518:0000130000130000
#04515:0013000013000000
#0451b:00000013
#04512:23
#0461b:00000013
#04612:0000000000000013
#04614:1414
#04618:00140000
#04215:00130000
#0421b:00130000
#0501b:0000001300000000
#05012:00131300
#05015:13
#05018:0013000000000000
#05312:0013000000000013
#05318:00130053
#05315:0000001300000000
#0531b:23
#05310:41
#05412:0000001300000000
#0541b:00131300
#05418:13
#05415:0013000000000000
#0571b:0013
#05718:26000013
#05715:0000000000000013
#05712:0000140000140000
#0571f:11
#0631b:13
#06318:0013000000000000
#06515:0000000000130013
#06518:00000013
#07918:0000000000000013
#07912:14
#07916:00140000
#0791a:0014
#07915:00000013
#07818:0013000000001300
#07815:0000130000130000
#07812:2313
#0781b:2313
#0291a:14141400
#02914:0014001400000000
#0591a:0000140000140000
#05915:00000013
#05912:1313
#05813:0000001300000000
#05816:0014000014000000
#0581a:00000013
#0071a:00240000
#00712:2400000000000024
#03012:24242400
#03018:0024002400000000
#04815:0023000000002300
#04818:2300000000000023
#0481b:00230000
#04812:00230000
#01518:00240000
#01512:24
#01514:0000000000000024
#01618:0000002400000000
#0161a:00000054
#02314:00240000
#0231a:24
#02318:0000000000000024
#03114:24
#0311a:24
#03118:0024
#03112:0024
#03915:23230023
#03918:0023002300000023
#0391b:0023
#03912:0023
#04015:23
#04018:0023000000000000
#0401b:00230000
#04012:00230000
#04718:23230023
#04715:0023002300000023
#04712:0023
#0471b:0023
#0721b:23002323
#07212:0023000023000023
#07218:00230000
#07215:0000002300000000
#07318:23
#07315:0023000000000000
#0731b:00230000
#07312:00230000
#08012:23002323
#0801b:0023000023000023
#08015:00230000
#08018:0000002300000000
#08115:2300000000000023
#08118:0023000000002300
#0811b:00230000
#08112:00230000
#05513:0034000034000000
#05512:00340000
#05514:0000000000345400
#05519:0000000000000034
#0561a:34
#05619:00340000
#05618:0000003454000000
#05613:0000000000340000
#0075a:0000000000140000
#00752:14
#00852:0014000000000000
#00854:00000014
#0095a:14
#03652:53000016
#0365b:0013
#03658:53
#03655:0013
#06353:0000000000000013
#0635b:63130000
#06358:0023000000000000
#06955:00630016
#06952:5313
#0695b:6313
#06958:00530000
#08356:0000000000240000
#07655:00000063
#05758:16
#00152:13
#00255:0063
#00458:0053
#00658:0053
#0055b:13
#01255:0063
#01352:13
#01955:0000000000000063
#0205b:0063
#02158:13
#01558:00540000
#01552:14
#01554:0000000000000064
#0155a:0000000000140000
#01658:0000005400000000
#01652:0014000000000000
#02458:00000014
#0245a:0014000000000000
#02354:00640000
#0235a:14
#02358:0000000000000054
#02352:0000000000140000
#03052:0054
#03054:00000014
#03154:14
#0315a:14
#03158:0014
#03152:0014
#03254:0064
#03252:14000018
#0325a:00140000
#03458:00530000
#03452:00530000
#03455:0013
#0345b:0013
#04458:00001316
#04455:63
#0445b:63
#04452:0013
#04255:00630000
#0425b:00630000
#04252:0013
#04258:0013
#04952:13
#05052:0053
#05055:00000013
#0525b:0063
#05258:00000053
#0535b:13
#0545b:0063
#05458:00000013
#05652:00000016
#06057:0015
#0645a:00000013
#06752:0013000000000000
#0675b:13
#06658:00000056
#0715a:14
#07156:00140000
#07152:0014
#04654:1414
#04658:00140000
#03858:1414
#03854:00140000
#0755a:64000014
#07558:0054
#07952:14
#07956:00140000
#0795a:0014
#0405b:0013
#04052:0013
#0485b:0013
#04852:0013
#07358:0013
#0735b:00630000
#07352:00530000
#07355:0013
#0815b:00630000
#08158:0013
#08152:00530000
#08155:0013
#02958:00000014
#0295a:0064
#07752:13
#07755:00000016
#0775b:0063
#01158:0000000000000053
#0013b0:00001323
#002350:0013
#002320:00000023
#003320:00001323
#004380:0013
#004390:00000000000000000033000000000000
#0043a0:0000000000330000
#0043b0:00000000000000000000003333333333
#0053b0:23
#005320:00001323
#006380:0013
#0063b0:00000023
#0073a0:0000140000240000
#007320:0000000000000014
#008320:0024000000000000
#009350:0000000000000013
#010350:00230000
#011380:0000000000000013
#0123b0:00230000
#012350:0013
#012340:00000000000000000033000000000000
#012330:0000000000330000
#012320:00000000000000000000003333333333
#013320:23
#013380:0000000000000013
#014380:00230000
#015380:00140000
#0153a0:0000000000240000
#015340:0000000000000014
#016320:0024000000000000
#016380:0000001400000000
#0163a0:00000024
#0173b0:0000000000000013
#0183b0:00230000
#019350:0000000000000013
#020320:00230000
#0203b0:0013
#0203a0:00000000000000000033000000000000
#020390:0000000000330000
#020380:00000000000000000000003333333333
#021380:23
#021320:0000000000000013
#022320:00230000
#023340:00140000
#023320:0000000000240000
#023380:0000000000000014
#0243a0:0024000000000000
#025350:13535353535323000000000000000000
#025340:0053005300530053005300530000000000000000000000000000000000000000
#026320:13535353535323000000000000000000
#026330:0053005300530053005300530000000000000000000000000000000000000000
#027380:13535353535323000000000000000000
#027390:0053005300530053005300530000000000000000000000000000000000000000
#0283b0:13535353535323000000000000000000
#0283a0:0053005300530053005300530000000000000000000000000000000000000000
#0293a0:0014
#029380:00000024
#030320:0014
#030340:00000024
#032340:0014
#032320:00000028
#034380:13330000
#0343b0:0023
#034321:13330000
#034351:0023
#036381:13
#0363b1:00332300
#036320:13
#036350:00332300
#0403b0:00132300
#040321:00132300
#042351:13330000
#042321:0023
#0423b0:13330000
#042380:0023
#044350:13
#044320:00332300
#0443b1:13
#044381:00332300
#0483b1:00132300
#048320:00132300
#049350:00001323
#050320:0013
#050350:00000023
#0513b0:00001323
#0523b0:0013
#0523a0:00000000000000000033000000000033
#052390:0000000000330033
#052380:00000000000000000000003333330000
#0533b0:23
#053380:00001323
#0543b0:0013
#054380:00000023
#055340:1400000000342400
#055330:0034000034000000
#055320:0000343400000000
#055381:00000014
#055391:0000000000000034
#0563a1:3434000000000000
#056391:00340000
#056381:0000003424000000
#056330:0000000014340000
#056320:00000026
#059380:0000000000000014
#060380:000000000000000000000000000000000000000000000000000000000000000000000000000000000000000000000000000000000000000000000000000000000000000000000000000000000000000000000000000000000000000000000000000000000000000000000000000000000000000000000000000000000000000000000000000000000000000000000000000000000000000000000000000000000000000000000000000000000000000000000000000000000000000000000000000000000000000000000000000000000054550000000000000000000000000000000000000000000000000000000000350000000000000000000000000000000000000000000000000000000000550000000000000000000000000000000000000000000000000000000000000000000000000000000000000000000000000000000000000000000000000000000000000000000000000000000000000000000000000000000000000000000000000000000000000000000000000000000000000000000000000000000000000000000000000000000000000000000000000000000000000000000000000000000000000000000000000000000000000000000000000000000000000000000000000000000000000000000000000000000000000000000000000000000000000000000000000000000000000000000000000000000000000000000000000000000000000000000000000000000000000000000000000000000000000000000000000000000000000000000000000000000000000000000000000000000000000000000000000000000000000000000000000000000000000000000000000000000000000000000000000000000000000000000000000000000000000000000000000000000000000000000000000000000000000000000000000000000000000000000000000000000000000000000000000000000000000000000000000000000000000000000000000000000000000000000000000000000000000000000000000000000000000000000000000000000000000000000000000000000000000000000000000000000000000000000000000000000000000000000000550000000000000000000000000000000000000000000000000000000000350000000000000000000000000000000000000000000000000000000000555400000000000000000000000000000000000000000000000000000000000000000000000000000000000000000000000000000000000000000054000000000000000000000000000000000000000000000000000000000000000000000000000000000000000000000000000000000000000000000000000000000000000000000000000000000000000000000000000000000000000000000000000000000000000000000000000000000000000000000000000000000000000000000000000000000000000000000000000000000000000000000000000000000000000000000000000000000000000000000000000000000000000000000000000000000000000000000000000000000000000000000000000000000000000000000000000000000000000000000000000000000000000000000000000000000000000000000000000000000000000000000000000000000000000000000000000000000000000000000000000000000000000000000000000000000000000000000000000000000000000000000000000000000000000000000000000000000000000000000000000000000000000000000000000000000000000000000000000000000000000000000000000000000000000000000000000000000000000000000000000000000000000000000000000000000000000000000000000000000000000000000000000000000000000000000000000000000000000000000000000000000000000000000000000000000000000000000000000000000000000000000000000000000000000000000000000000000000000000000000000000000000000000000000000000000000000000000000000000000000000000000000000000000000000000000000000000000000000000000000000000000000000000000000000000000000000000000000000000000000000000000000000000000000000000000000000000000000000000000000000000000000000000000000000000000000000000000000000000000000000000000000000000000000000000000000000000000000000000000000000000000000000000000000000000000000000000000000000000000000000000000000000000000000000000000000000000000000000000000000000000000000000000000000000000000000000000000000000000000000000000000000000000000000000000000000000000000000000000000000000000000000000000000000000000000000000000000000000000000000000000000000000000000000000000000000000000000000000000000000000000000000000000000000000000000000000000000000000000000000000000000000000000000000000000000000000000000000000000000000000000000000000000000000000000000000000000000000000000000000
#060390:000000000000000000000000000000000000000000000000000000000000000000000000000000000000000000000000000000000000000000000000000000000000000000000000000000000000000000000000000000000000000000000000000000000000000000000000000000000000000000000000000000000000000000000000000000000000000000000000000000000000000000000000000000000000000000000000000000000000000000000000000000000000000000000000000000000000000000000000000000000000000000000000000000000000000000000000000000000000000000000000000000000000000000000000000000000000000000000000000000000000005400000000000000000000000000000000000000000000000000000000000000000000000000000000000000000000000000000000000000000000000000000000000000000000000000000000000000000000000000000000000000000000000000000000000000000000000000000000000000000000000000000000000000000000000000000000000000000000000000000000000000000000000000000000000000000000000000000000000000000054550000000000000000000000000000000000000000000000000000000000350000000000000000000000000000000000000000000000000000000000550000000000000000000000000000000000000000000000000000000000000000000000000000000000000000000000000000000000000000000000000000000000000000000000000000000000000000000000000000000000000000000000000000000000000000000000000000000000000000000000000000000000000000000000000000000000000000000000000000000000000000000000000000000000000000000000000000000000000000000000550000000000000000000000000000000000000000000000000000000000350000000000000000000000000000000000000000000000000000000000555400000000000000000000000000000000000000000000000000000000000000000000000000000000000000000000000000000000000000000054000000000000000000000000000000000000000000000000000000000000000000000000000000000000000000000000000000000000000000000000000000000000000000000000000000000000000000000000000000000000000000000000000000000000000000000000000000000000000000000000000000000000000000000000000000000000000000000000000000000000000000000000000000000000000000000000000000000000000000000000000000000000000000000000000000000000000000000000000000000000000000000000000000000000000000000000000000000000000000000000000000000000000000000000000000000000000000000000000000000000000000000000000000000000000000000000000000000000000000000000000000000000000000000000000000000000000000000000000000000000000000000000000000000000000000000000000000000000000000000000000000000000000000000000000000000000000000000000000000000000000000000000000000000000000000000000000000000000000000000000000000000000000000000000000000000000000000000000000000000000000000000000000000000000000000000000000000000000000000000000000000000000000000000000000000000000000000000000000000000000000000000000000000000000000000000000000000000000000000000000000000000000000000000000000000000000000000000000000000000000000000000000000000000000000000000000000000000000000000000000000000000000000000000000000000000000000000000000000000000000000000000000000000000000000000000000000000000000000000000000000000000000000000000000000000000000000000000000000000000000000000000000000000000000000000000000000000000000000000000000000000000000000000000000000000000000000000000000000000000000000000000000000000000000000000000000000000000000000000000000000000000000000000000000000000000000000000000000000000000000000000000000000000000000000000000000000000000000000000000000000000000000000000000000000000000000000000000000000000000000000000000000000000000000000000000000000000000000000000000000000000000000000000000000000000000000000000000000000000000000000000000000000000000000000000000000000000000000000000000000000000000000000000000000000000000000000000000000000000000000000000000000000000000000000000000000000000000000000000000000000000000000000000000000000000000000000000000000000000000000000000000000000000000000000000000000000000000000000000000000000000000000000000000000000000000000000000000000000000000000
#0603a0:000000000000000000000000000000000000000000000000000000000000000000000000000000000000000000000000000000000000000000000000000000000000000000000000000000000000000000000000000000000000000000000000000000000000000000000000000000000000000000000000000000000000000000000000000000000000000000000000000000000000000000000000000000000000000000000000000000000000000000000000000000000000000000000000000000000000000000000000000000000000000000000000000000000000000000000000000000000000000000000000000000000000000000000000000000000000000000000000000000000000000000000000000000000000000000000000000000000000000000000000000000000000000000000000000000000000000000000000000000000000000000000000000000000000000000000000000000000000000000000000000000000000000000000000000000000000000000000000000000000000000000000000000000000000000000000000000000000000000000000000000000000000000000000000000000000000000000000000000000000000000000000000000000000000000000000000000000000000000000000000000000000000000000000000000000000000000000000000000000000000005400000000000000000000000000000000000000000000000000000000000000000000000000000000000000000000000000000000000000000000000000000000000000000000000000000000000000000000000000000000000000000000000000000000000000000000000000000000000000000000000000000000000000000000000000000000000000000000000000000000000000000000000000000000000000000000000000000000000000000054000000000000000000000000000000000000000000000000000000000000000000000000000000000000000000000000000000000000000000000000000000000000000000000000000000000000000000000000000000000000000000000000000000000000000000000000000000000000000000000000000000000000000000000000000000000000000000000000000000000000000000000000000000000000000000000000000000000000000000000000000000000000000000000000000000000000000000000000000000000000000000000000000000000000000000000000000000000000000000000000000000000000000000000000000000000000000000000000000000000000000000000000000000000000000000000000000000000000000000000000000000000000000000000000000000000000000000000000000000000000000000000000000000000000000000000000000000000000000000000000000000000000000000000000000000000000000000000000000000000000000000000000000000000000000000000000000000000000000000000000000000000000000000000000000000000000000000000000000000000000000000000000000000000000000000000000000000000000000000000000000000000000000000000000000000000000000000000000000000000000000000000000000000000000000000000000000000000000000000000000000000000000000000000000000000000000000000000000000000000000000000000000000000000000000000000000000000000000000000000000000000000000000000000000000000000000000000000000000000000000000000000000000000000000000000000000000000000000000000000000000000000000000000000000000000000000000000000000000000000000000000000000000000000000000000000000000000000000000000000000000000000000000000000000000000000000000000000000000000000000000000000000000000000000000000000000000000000000000000000000000000000000000000000000000000000000000000000000000000000000000000000000000000000000000000000000000000000000000000000000000000000000000000000000000000000000000000000000000000000000000000000000000000000000000000000000000000000000000000000000000000000000000000000000000000000000000000000000000000000000000000000000000000000000000000000000000000000000000000000000000000000000000000000000000000000000000000000000000000000000000000000000000000000000000000000000000000000000000000000000000000000000000000000000000000000000000000000000000000000000000000000000000000000000000000000000000000000000000000000000000000000000000000000000000000000000000000000000000000000000000000000000000000000000000000000000000000000000000000000000000000000000000000000000000000000000000000000000000000000000000000000000000000000000000000000000000000000000000000000000000000000000000000000000000000000000000000000000000000000000
#060370:00000000000000000000000000000000000000000000000000000000000000552500000000000000000000000000000000000000000000000000000000000000
#0633b0:13230000
#063380:0053000000000000
#063330:00000000000000000000135353532300
#063320:0000000000000000000000000000000000000000005500550055005500000000
#0643a0:0000000013005300530053003300000033333333333333332300000000000000
#064390:0000000000550055005500550000000000000000000000000000000000000000
#066380:0000000000000000160000005656565626000000000000000000000000000000
#066390:00000000000000000000000000000000000000000000000000540054005400540000000000000000000000000000000000000000000000000000000000000000
#066380:00000016
#0673b0:23
#069320:1323
#069350:00330000
#0693b1:1323
#069381:00330000
#0733b1:00130000
#073381:0023
#073320:00130000
#073350:0023
#0753a0:14
#075380:00240000
#075380:0014
#0753a0:00000024
#076350:00000013
#077320:23
#0773b0:0013
#077350:00000026
#0813b0:00130000
#081380:0023
#081321:00130000
#081351:0023
#082341:180000000000000000000000000000000000000000000000000000000000000000000000000000000000000000000000000000000000000000000000580000000000000000000000000000000000000000000000000000000000000000000000000000000000000000000000000000000000000000000000580000000000000000000000000000000000000000000000000000000000000000000000000000000000000000000000000000000000000000000000580000000000000000000000000000000000000000000000000000000000000000000000000000000000000000000000000000000000000000000058000000000000000000000000000000000000000000000000000000000000000000000000000000000000000000000000000000000000000000000000000000000000000000000000000000000000000000000000000000000000000000000000000000000000000000000000000000000000000000000000000000000000000000000000000000000000000000000000000000000000000000000000000000000000000000000000000000000000000000000000000000000000000000000000000000000000000000000000000000000000000000000000000000000000000000000000000000000000000000000000000000000000000000000000000000000000000000000000000000000000000000000000000000000000000000000000000000000000000000000000000000000000000000000000000000000000000000000000000000000000000000000000000000000000000000000000000000000000000000000000000000000000000000000000000000000000000000000000000000000000000000000000000000000000000000000000000000000000000000000000000000000000000000000000000000000000000000000000000000000000000000000000000000000000000000000000000000000000000000000000000000000000000000000000000000000000000000000000000000000000000000000000000000000000000000000000000000000000000000000000000000000000000000000000000000000000000000000000000000000000000000000000000000000000000000000000000000000000000000000000000000000000000000000000000000000000000000000000000000000000000000000000000000000000000000000000000000000000000000000000000000000000000000000000000000000000000000000000000000000000000000000000000000000000000000000000000000000000000000000000000000000000000000000000000000000000000000000000000000000000000000000000000000000000000000000000000000000000000000000000000000000000000000000000000000000000000000000000000000000000000000000000000000000000000000000000000000000000000000000000000000000000000000000000000000000000000000000000000000000000000000000000000000000000000000000000000000000000000000000000000000000000000000000000000000000000000000000000000000000000000000000000000000000000000000000000000000000000000000000000000000000000000000000000000000000000000000000000000000000000000000000000000000000000000000000000000000000000000000000000000000000000000000000000000000000000000000000000000000000000000000000000000000000000000000000000000000000000000000000000000000000000000000000000000000000000000000000000000000000000000000000000000000000000000000000000000000000000000000000000000000000000000000000000000000000000000000000000000000000000000000000000000000000000000000000000000000000000000000000000000000000000000000000000000000000000000000000000000000000000000000000000000000000000000000000000000000000000000000000000000000000000000000000000000000000000000000000000000000000000000000000000000000000000000000000000000000000000000000000000000000000000000000000000000000000000000000000000000000000000000000000000000000000000000000000000000000000000000000000000000000000000000000000000000000000000000000000000000000000000000000000000000000000000000000000000000000000000000000000000000000000000000000000000000000000000000000000000000000000000000000000000000000000000000000000000000000000000000000000000000000000000000000000000000000000000000000000000000000000000000000000000000000000000000000000000000000000000000000000000000000000000000000000000000000000000000000000000000000000000000000000000000000000000000000000000000000000000000000000000000000000000000000000000000000000000000000000000000000000000000000000000000000000000000000000000000000000000000000000000
#082361:00550000000000000000000000000000000000000000000000000000000000000000000000000000000000000000000000000000000000000000000000000000
#082351:00000054000000540000000000000000000000000000000000000000000000000000000000000000000000000000000000000000000000000000000000000000
#082371:00000000005400000000000000000000000000000000000000000000000000000000000000000000000000000000000000000000000000000000000000000000
#082321:000000005c00005c000000000000000000000000000000000000000000000000
#083361:0000000000540000
#083341:0000000000000028
#0619b0:0000130000230000
#061980:00000000000000530000000000000000
#061920:00000013
#061940:0000000000000023
#0629b0:13
#062990:0023000000000000
#062920:00130000
#062940:0000002300000000
