This file was generated by Ched 2.7.0.0.
#TITLE ""
#ARTIST ""
#DESIGNER ""
#DIFFICULTY 0
#PLAYLEVEL
#SONGID ""
#WAVE ""
#WAVEOFFSET 0
#JACKET ""
#REQUEST "ticks_per_beat 480"
#00002: 4
#BPM01: 170
#00008: 01
#TIL00: ""
#VOLUME: ""
#HISPEED 00
#MEASUREHS 00
#06118:1400140000140000
#06114:0014000014001400
#0671a:14
#06716:00140000
#07418:0014000014000000
#07414:1400000000140000
#07412:00140000
#0741a:00000014
#05718:00140000
#05714:0014
#0571f:11
#05712:24
#06612:0014000000000000
#06618:24140000
#0661a:0000000000140000
#06614:00001414
#0711a:14
#07116:00140014
#07112:0014
#00114:00140000
#0011a:2414
#00214:1414
#00218:00140014
#00312:1414
#00318:00140000
#00418:1414
#00414:00140014
#00514:00140000
#0051a:2414
#00614:1414
#00618:00140014
#0091a:2414
#00910:41
#01012:1414
#01118:1414
#01214:1414
#0131a:1414
#01314:00140000
#01412:1414
#01418:00140000
#01714:1414
#01718:00140014
#01812:1414
#0181a:00140014
#01914:1414
#01918:00140014
#02012:1414
#0201a:00140014
#02114:14
#02118:00140000
#02112:0014
#0211a:00000014
#02110:41
#02214:14
#02218:00140000
#02212:0014
#0221a:00000014
#0291a:0014
#03012:2414
#03318:00140000
#03314:0014
#0331a:00000014
#03312:24
#03310:41
#03412:14
#03416:00140000
#03612:14
#03616:00140000
#03718:00140000
#03714:0014
#0371a:00000014
#03712:14
#03812:14
#03816:00140014
#0381a:0014
#04112:00140000
#0411a:0014
#04114:00000014
#04118:24
#0421a:14
#04216:00140000
#0441a:14
#04416:00140000
#04512:00140000
#0451a:0014
#04514:00000014
#04518:14
#0461a:14
#04616:00140014
#04612:0014
#04918:00140000
#04914:0014
#04912:24
#0501a:14
#05014:00140000
#05018:0014
#05012:00000014
#05114:00140000
#05118:0014
#0511a:14
#05212:14
#05218:00140000
#05214:0014
#0521a:00000014
#05318:00140000
#05314:0014
#05312:14
#05310:41
#0541a:14
#05414:00140000
#05418:0014
#05412:00000014
#03518:00140000
#03514:0014
#0351a:00000014
#03512:14
#04312:00140000
#0431a:0014
#04314:00000014
#04318:14
#04310:41
#05814:00140000
#05818:0014
#0581a:14
#0591a:00140000
#05914:0014
#05912:14
#05918:00000014
#0621a:1400140000140000
#06212:0014000014001400
#06814:0014000000000000
#0681a:24140000
#06818:0000000000140000
#06812:00001414
#0681f:21
#0691a:14
#06916:00140000
#06910:41
#07014:0014000000000000
#07018:14140000
#0701a:0000000000140000
#07012:00001414
#07218:0000343414000000
#0721a:24
#07219:0034000000000034
#07318:3434140000000000
#07912:14
#07916:00140014
#0791a:0014
#07818:0014000000001400
#07814:0000140000140000
#07812:14
#0781a:0014
#08014:0000343414000000
#08012:24
#08013:0034000000000034
#08114:3434140000000000
#0811a:00000024
#07512:14
#07516:00140014
#0751a:0014
#07614:0000140000140000
#0761a:0014
#07618:0014000000001400
#07612:14
#07716:00140000
#07712:14
#0311a:24
#03112:0024
#03218:24
#03214:00240000
#03912:24
#03913:0034000000000034
#03914:0000343400000000
#0471a:24
#04719:0034000000000034
#04718:0000343400000000
#04012:3434000000000000
#0481a:3434000000000000
#08312:0000000000000054
#0315a:14
#03152:0014
#03258:14000014
#03254:00140000
#00854:00000014
#02454:00000014
#02958:00000014
#0295a:0064
#03052:0054
#03054:00000014
#0365a:00000014
#04052:0014
#04452:00000014
#0485a:0014
#0565a:00000014
#06052:00000014
#0645a:00000014
#06752:00000014
#06952:00000014
#0735a:0014
#07358:00540000
#07258:0054
#08054:0064
#08154:00640000
#08152:0014
#0775a:00000014
#007320:1400000000000034
#007340:0000340000340000
#008320:0034000000000000
#008340:0000003434342400
#0153a0:1400000000000034
#015380:0000340000340000
#0163a0:0034000000000000
#016380:0000003400002400
#023320:1400000000000034
#023340:0000340000340000
#024320:0034000000000000
#024340:0000003434342400
#025380:14
#025390:0000003400000000
#0253a0:00000024
#026340:14
#026330:0000003400000000
#026320:00000024
#0273a0:14
#027390:0000003400000000
#027380:00000024
#028320:14
#028330:0000003400000000
#028340:00000024
#0293a0:1434343434000000
#029380:00000024
#030320:1434343434000000
#030340:00000024
#032380:00001424
#0343a0:00001424
#0363a0:00001424
#039320:14
#039330:0034000000000034
#039340:0000343434003400
#040320:3434340024000000
#042320:00001424
#044320:00001424
#0473a0:14
#047390:0034000000000034
#047380:0000343434003400
#0483a0:3434340024000000
#0553a0:14000034
#055380:0000003400000000
#056380:0034000000000000
#0563a0:00003424
#060320:1434343434002400
#063380:1400000000000034
#0633a0:0000340000340000
#064380:0034000000000000
#0643a0:0000003400002400
#067320:00001424
#069320:00001424
#0723a0:14000034
#072390:0034000000000034
#072380:0000343434000000
#073380:3434340000000000
#0733a0:0024
#0773a0:00001424
#080320:14000034
#080330:0034000000000034
#080340:0000343434000000
#081340:3434340000000000
#081320:0024
#082340:1454545454000054000000000000000000000000000000000000000000000000
#082330:00560056005600560000000000000000000000000000000000000000000000000000000000000000000000000000000000000000000000000000000000000000
#083320:0000000000000024
