This file was generated by Ched 2.7.0.0.
#TITLE ""
#ARTIST ""
#DESIGNER ""
#DIFFICULTY 0
#PLAYLEVEL
#SONGID ""
#WAVE ""
#WAVEOFFSET 0
#JACKET ""
#REQUEST "ticks_per_beat 480"
#00002: 4
#BPM01: 102
#BPM02: 94
#BPM03: 85
#BPM04: 80
#BPM05: 90
#BPM06: 76
#BPM07: 81
#BPM08: 92
#BPM09: 95
#BPM0A: 103
#BPM0B: 97
#BPM0C: 104
#BPM0D: 106
#BPM0E: 98
#BPM0F: 101.099
#BPM0G: 98.691
#BPM0H: 100.519
#BPM0I: 101.738
#BPM0J: 101
#BPM0K: 100.055
#BPM0L: 93.055
#BPM0M: 87.055
#BPM0N: 81.055
#BPM0O: 46
#BPM0P: 78
#BPM0Q: 96
#BPM0R: 99
#BPM0S: 107
#00008: 01
#01808: 0C0001000D000E0A
#02208: 010E00000R090R00
#02308: 0B0S0100
#01608: 0000020003040506
#02108: 0P030Q000E000R00
#01708: 0700080009000A0B
#01908: 0F0G0H0I0A000J00
#02008: 0C000J0K0L0M0N0O
#TIL00: ""
#VOLUME: ""
#HISPEED 00
#MEASUREHS 00
#00518:14
#00510:41
#00614:14
#0071a:14
#00812:14
#0091a:14
#0101a:14
#01114:14
#01214:14
#01318:14
#01310:41
#01418:14
#01512:14
#02514:14
#02518:0014
#02510:41
#02612:14
#0261a:0014
#02714:1414
#02818:1414
#0311a:14
#03112:0014
#03212:0016
#03218:26
#03210:41
#03318:16
#03312:0016
#03518:0016
#03512:26
#03612:16
#03618:0016
#04218:0016
#04212:26
#0421f:21
#04312:16
#04318:0016
#04310:41
#04412:1616
#04518:1616
#04612:16
#04618:0016
#05014:14
#0371f:11
#04912:24
#0491a:0024
#01910:41
#0013a0:14
#0023a0:24
#003320:14
#004320:24
#016320:14
#017320:34
#018340:34
#019320:34
#020340:24
#0213a0:14
#022380:34
#0233a0:34
#024380:24
#029320:14
#030340:24
#034380:1626
#037320:1626
#038380:16
#0393a0:3424
#047320:1626
#048380:1626
