This file was generated by Ched 2.7.0.0.
#TITLE ""
#ARTIST ""
#DESIGNER ""
#DIFFICULTY 0
#PLAYLEVEL
#SONGID ""
#WAVE ""
#WAVEOFFSET 0
#JACKET ""
#REQUEST "ticks_per_beat 480"
#00002: 4
#BPM01: 102
#BPM02: 94
#BPM03: 85
#BPM04: 80
#BPM05: 90
#BPM06: 76
#BPM07: 81
#BPM08: 92
#BPM09: 95
#BPM0A: 103
#BPM0B: 97
#BPM0C: 104
#BPM0D: 106
#BPM0E: 98
#BPM0F: 101.099
#BPM0G: 98.691
#BPM0H: 100.519
#BPM0I: 101.738
#BPM0J: 101
#BPM0K: 100.055
#BPM0L: 93.055
#BPM0M: 87.055
#BPM0N: 81.055
#BPM0O: 46
#BPM0P: 78
#BPM0Q: 96
#BPM0R: 99
#BPM0S: 107
#00008: 01
#01808: 0C0001000D000E0A
#02208: 010E00000R090R00
#02308: 0B0S0100
#01608: 0000020003040506
#02108: 0P030Q000E000R00
#01708: 0700080009000A0B
#01908: 0F0G0H0I0A000J00
#02008: 0C000J0K0L0M0N0O
#TIL00: ""
#VOLUME: ""
#HISPEED 00
#MEASUREHS 00
#0051a:1414
#00510:41
#00614:1414
#00718:1414
#00918:0014
#01012:1414
#0101a:00140000
#01118:14
#01114:0014
#0121a:1414
#01212:00140000
#0141a:14
#01414:00140000
#01418:0014
#01412:00000014
#0151a:14
#01514:0014
#0251a:1414
#02514:00140000
#02510:41
#02712:1414
#02718:00140000
#02912:14
#02918:00140000
#02914:0014
#0291a:00000014
#03014:14
#03018:00140000
#03012:0014
#0311a:14
#03114:00140000
#03118:0014
#03112:00000014
#0341a:14
#03414:00140000
#03418:00001414
#03712:14
#03718:00140000
#03714:00001414
#0371f:11
#0391a:00140000
#04314:1414
#04318:00140014
#04310:41
#0441a:0014
#04412:24
#0461a:14
#04612:00140000
#04618:0014
#04614:00000014
#04712:00001414
#0471a:24240000
#04912:14
#0491a:0014
#05014:14
#0161a:24
#04213:24
#04219:0024
#0421f:21
#04818:24242400
#04814:0024002400000000
#03818:00363636
#01910:41
#03210:41
#01310:41
#01354:0000001400000000
#0165a:0014
#02452:14
#03052:0014
#0395a:00640000
#04253:14
#04452:14
#04554:0014
#04952:14
#0495a:0014
#0013a0:1424
#0023a0:1424
#003320:1424
#004320:1424
#008320:14
#009340:24
#013340:1434342400000000
#0163a0:14342400
#017320:14
#017340:0034
#018320:34
#018340:0024
#0193a0:14
#019380:0034
#0203a0:34
#020380:0024
#021340:1424
#022380:1424
#023320:14
#023340:0034
#024320:24
#026320:1424
#0283a0:1424
#0323a0:14240000
#032340:00001424
#033380:14240000
#033320:00001424
#035320:14240000
#035380:00001424
#036340:14240000
#0363a0:00001424
#038380:16363636
#0393a0:34340000
#039380:0024
#045340:1434343424000000
