This file was generated by Ched 2.7.0.0.
#TITLE ""
#ARTIST ""
#DESIGNER ""
#DIFFICULTY 0
#PLAYLEVEL
#SONGID ""
#WAVE ""
#WAVEOFFSET 0
#JACKET ""
#REQUEST "ticks_per_beat 480"
#00002: 4
#BPM01: 116
#00008: 01
#TIL00: ""
#VOLUME: ""
#HISPEED 00
#MEASUREHS 00
#00115:00130000
#0011b:000000000000000000000000000000000000001300000000000000000000000000000000000000000000000000000000000000000000000000000000000000000000001300000000000000000000000000000000000000000000000000000000
#00114:0000000000130000
#00116:00000013
#00117:000000000000000000000000000000000000000000000000000000000000000000000000000000000000001300000000000000000000000000000000000000000000000000000000000000000000000000000000000000000000000000000000
#00119:000000000000000000000000000000000000000000000000000000000000000000000000000000000000000000000000000000000000001300000000000000000000000000000000000000000000000000000000000000000000000000000000
#00112:1300000013000013
#0021b:13
#00217:000000000000000000000000000000000000001300000000000000000000000000000000000000000000000000000000000000000000000000000000000000000000000000000000000000000000000000000000000000000000000000000000
#00212:000000000000000000000000000000000000001300000000000000000000000000000000000000000000000000000000000000000000000000000000000000000000000000000000130000000000000000000000000000000000000000000000
#00218:000000000000000000000000000000000000000000000000000000000000000000000000000000000000000000000000130000000000000000000000000000000000001300000000000000000000000000000000130000000000000000000000
#00215:0000000000130000
#00315:00131313
#00318:000000000000000000000000000000000000001300000000000000000000000000000000000000000000000000000000000000000000000000000000130000000000000000000000000000000000000000000000130000000000000000000000
#00312:130000000000000000000000000000000000000000000000000000000000000000000000000000000000000000000000000000000000001300000000000000000000000000000000000000000000001300000000000000000000000000000000
#0031b:000000000000000000000000000000000000000000000000000000000000000000000000000000000000001300000000000000000000000000000000000000000000001300000000000000000000000000000000000000000000000000000000
#00412:000000000000000000000000000000000000000000000000000000000000000000000000130000000000001300000000000000000000000000000000000000000000000000000000000000000000000000000000000000000000000000000000
#0041b:000000000000000000000000000000000000000000000000000000000000000000000000230000000000002300000000000000000000000000000000000000000000000000000000000000000000000000000000000000000000000000000000
#00415:230000000000000000000000000000000000002300000000000000000000000000000000000000000000000000000000000000000000000000000000000000000000000000000000000000000000000000000000000000000000000000000000
#00418:000000000000002300000000000000000000000000000000230000000000000000000000000000000000000000000000000000000000000000000000000000000000000000000000000000000000000000000000000000000000000000000000
#00518:0013001313000013
#0051b:130000000000000000000000000000000000001300000000000000000000000000000000000000000000000000000000000000000000000000000000000000000013000000000000000000000000000000000000000000000000000000000000
#00515:00131300
#00512:130000000000000000000000000000000000000000000000000000000000000000000000000000000000000000000000000000000000000000000000000000000013000000000000000000000000000000000000000000000000000000000000
#00510:41
#00718:0013000000130013
#00715:000000000000000000000000000000000000001300000000000000000000000000000000000000000000000000000000130000000000000000000000000000000000000000000000130000000000000000000000000000000000000000000000
#0071b:130000000000000000000000000000000000000000000000130000000000000000000000000000000000001300000000000000000000000000000000000000000000001300000000000000000000000000000000000000000000001300000000
#00712:130000000000000000000000000000000000000000000000000000000000000000000000130000000000000000000000000000000000001300000000000000000000000000000000000000000000001300000000000000000000000000000000
#0081b:000000000000000000000000000000000000001300000000000000000000000000000000000000000000000000000000000000000000000000000000000000000000000000000000230000000000000000000000000000000000000000000000
#00815:00000000130000000013000000002300
#00818:000000000000001300000000000000000000000000000000000000000000001300000000000000000000001300000000000000000000000000000000130000000000000000000000000000000000000000000000130000000000000000000000
#00812:0000001300001300
#00912:13131300
#00915:000000000000000000000000130000000000000000000000000000000000000000000000130000000000000000000000000000000000000000000000000000000000001300000000000000000000000000000000000000000000000000000000
#00918:000000000000000000000000000000000000001300000000000000000000000000000000000000000000000000000000130000000000000000000000000000000000000000000000000000000000000000000000000000000000000000000000
#0091b:130000000000000000000000000000000000000000000000000000000000001300000000000000000000000000000000000000000000000000000000000000000000001300000000000000000000000000000000000000000000000000000000
#0101b:130000000000000000000000130000000000000000000000130000000000000000000000130000000000000000000000000000000000000000000000000000000000000000000000000000000000000000000000000000000000002300000000
#0101a:0013001300130013001300130013001300000000000000000000000000000000
#01019:00130013001300130000000000000000
#01015:1313
#01012:000000000000000000000000000000000000000000000000000000000000000000000000000000000000000000000000000000000000000000000000000000000000000000000000000000000000002300000000000000000000000000000000
#01018:00000023
#01118:0013000000000000
#01115:23130000
#01112:000000000000000000000000000000000000000000000000000000000000000000000000130000000000000000000000000000000000000000000000000000000000000000000000000000000000000000000000000000000000002300000000
#0111b:000000000000000000000000000000000000000000000000000000000000000000000000000000000000000000000000130000000000000000000000000000000000000000000000000000000000002300000000000000000000000000000000
#01215:000000000000000000000000130000000000000000000000000000000000000000000000000000000000000000000000000000000000000000000000000000000000001300000000000000000000001300000000000000000000000000000000
#01218:2300130000001313
#01218:00000013
#0121b:0000001300130000
#01212:0013
#01210:41
#01312:1300000000000013
#01313:00000000130000000000001300000000
#01314:0013
#0141a:00000000130000000000001300000000
#01419:0013
#0141b:0000000000000013
#0151a:00000000130000000000001300000000
#01519:0013
#0151b:1300000000000013
#01613:00000000130000000000001300000000
#01614:0013
#01612:0000000000000013
#01715:0013001300132300
#01718:000000000000000000000000000000000000000000000000230000000000000000000000000000000000000000000000230000000000000000000000000000000000001300000000000000000000000000000000000000000000000000000000
#0171b:0000000000000013
#01712:2300230023000013
#01918:000000000000000000000000130000000000000000000000000000000000000000000000000000000000000000000000000000000000001300000000000000000000001300000000000000000000001300000000000000000000001300000000
#01912:23132323
#01915:0000001300130013
#0191b:13231300
#02118:000000000000000000000000000000000000130000000000000000000000000000000000000000000000000000000000000000000000000000000000000000000000000000000000000000000000000000000000000000000000001300000000
#02115:0000130000000013
#0211b:0000001313000000
#02116:240000000000002400000000000000000000000000000000000000000000000000000000130000000000000000000000130000000000000000000000000000000000000000000000000000000000000000000000000000000000000000000000
#02112:2300000000130000
#02117:0000000000130000
#02110:41
#02212:13001313
#0221b:000000000000000000000000000000000000001300000000000000000000000000000000000000000000000000000000000000000000001300000000000000000000000000000000000000000000001300000000000000000000000000000000
#02215:0000001300130013
#02218:000000000000000000000000000000000000000000000000000000000000000000000000000000000000001300000000000000000000000000000000000000000000001300000000000000000000000000000000000000000000000000000000
#02312:000000000000000000000000000000000000001300000000000000000000000000000000000000000000000000000000130000000000000000000000000000000000000000000000000000000000000000000000000000000000000000000000
#0231b:130000000000000000000000000000000000000000000000000000000000001300000000000000000000000000000000000000000000000000000000000000000000001300000000000000000000000000000000000000000000000000000000
#02315:0000001300000000
#02318:000000000000000000000000000000000000000000000000000000000000000000000000000000000000001300000000000000000000000000000000000000000000000000000000000000000000000000000000130000000000000000000000
#0241b:130000000000000000000000000000000000000000000000130000000000000000000000000000000000000000000000130000000000000000000000000000000000000000000000000000000000001300000000000000000000001300000000
#02415:0013000000000000
#02418:0000001300000000
#02412:1300130013130000
#02417:000000000000000000000000000000000000000000000000000000000000000000000000000000000000000000000000000000000000001300000000000000000000000000000000000000000000000000000000000000000000000000000000
#02419:000000000000000000000000000000000000000000000000000000000000000000000000000000000000000000000000000000000000000000000000000000000000001300000000000000000000000000000000000000000000000000000000
#02414:00000013
#02416:0000000000000013
#02512:1313
#02518:000000000000000000000000130000000000001300000000000000000000000000000000130000000000001300000000000000000000000000000000000000000000000000000000000000000000000000000000000000000000000000000000
#02515:000000000000000000000000000000000000000000000000130000000000001300000000000000000000000000000000000000000000000000000000000000000000001300000000000000000000000000000000000000000000001300000000
#0251b:00000000000000000000000000130000
#02519:000000000053
#02517:000000000000000000000000000000000000000000000000000000000000000000000000000000000053000000000000
#02618:130000000000000000000000000000000000001300000000000000000000000000000000000000000000000000000000000000000000000000000000000000000000000000000000000000000000000000000000000000000000000000000000
#02612:000000130000000000000000000013000000000000000000
#0261b:0000001300000000
#02617:000000000000001300000000
#02619:0000000000000013
#02615:000000000000000000000000000000000000000000000000000000000000000000000000000000000000001300000000000000000000000000000000000000000000000000000000000000000000000000000000000000000000000000000000
#02614:0000000000000013
#02717:1313
#0271b:000000000000000000000000000000000000001300000000000000000000000000000000000000000000000000000000000000000000000000000000130000000000000000000000000000000000000000000000000000000000000000000000
#02718:000000000000000000000000000000000000000000000000000000000000001300000000000000000000000000000000000000000000000000000000000000000000000000000000000000000000000000000000000000000000000000000000
#02715:0000001300000000
#02712:130000000000000000000000000000000000000000000000000000000000000000000000000000000000000000000000130000000000000000000000000000000000000000000000000000000000001300000000000000000000000000000000
#02716:000000000000000000000000000000000000001300000000000000000000000000000000000000000000000000000000000000000000000000000000000000000000000000000000000000000000000000000000000000000000001300000000
#02816:000000000000000000000000000000000000000000000000000000000000000000000000000000000000001300000000000000000000000000000000000000000000000000000000000000000000000000000000000000000000000000000000
#0281b:000000000000000000000000000000000000000000000000000000000000000000000000000000000000001300000000000000000000000000000000000000000000000000000000000000000000000000000000000000000000000000000000
#02818:000000000000001300000000000000000000000000000000000000000000000000000000000000000000000000000000000000000000000000000000000000000000000000000000000000000000000000000000000000000000000000000000
#02815:0013000000000000
#02817:00130000
#02812:00130000
#0361b:00131300
#03618:0013001300001300
#03615:000000000000001300000000000000000000000000000000000000000000000000000000000000000000000000000000000000000000000000000000000000000000000000000000000000000000000000000000000000000000000000000000
#03612:00131300
#03715:130000000000000000000000000000000000000000000000000000000000000000000000130000000000000000000000000000000000001300000000000000000000000000000000000000000000001300000000000000000000000000000000
#03712:000000000000000000000000000000000000000000000000000000000000000000000000000000000000000000000000530000000000000000000000000000000000001300000000000000000000000000000000000000000000000000000000
#0371b:00132323
#03718:0000005300230023
#03710:41
#0371a:000000000000005300000000000000000000000000000000
#03719:005300
#03714:000000000053000000000000
#03713:000000000000000000000053000000000000000000000000
#0381b:230000000000000000000000000000000000001300000000000000000000000000000000000000000000000000000000130000000000000000000000000000000000000000000000000000000000000000000000000000000000000000000000
#03817:0000001300001300
#03819:0000000000130000
#03814:0000000000000013
#03816:0013
#03812:00000013
#03916:130000000000001300000000000000000000000000000000000000000000000000000000000000000000000000000000000000000000000000000000130000000000000000000000000000000000000000000000000000000000000000000000
#03918:000000000000000000000000000000000000001300000000000000000000000000000000000000000000000000000000000000000000000000000000000000000000000000000000000000000000000000000000000000000000000000000000
#03915:00130000
#03917:000000000000000000000000000000000000000000000000000000000000000000000000130000000000001300000000000000000000000000000000000000000000000000000000000000000000001300000000000000000000000000000000
#0391b:000000000000000000000000000000000000000000000000000000000000000000000000000000000000000000000000000000000000001300000000000000000000000000000000000000000000000000000000000000000000000000000000
#03919:000000000000000000000000000000000000000000000000000000000000000000000000000000000000000000000000000000000000000000000000000000000000001300000000000000000000000000000000000000000000000000000000
#03914:00000013
#03912:0000000000000013
#0401b:130000000000001300000000000000000000000000000000000000000000000000000000000000000000000000000000000000000000000000000000000000000000000000000000000000000000000000000000000000000000000000000000
#04018:000000000000000000000000000000000000001300000000000000000000000000000000000000000000000000000000000000000000000000000000000000000000000000000000000000000000000000000000000000000000000000000000
#04015:00130000
#04012:000000000000000000000000000000000000000000000000000000000000000000000000130000000000001300000000000000000000000000000000000000000000000000000000000000000000000000000000000000000000000000000000
#04016:230000000000002300000000000000000000000000000000000000000000000000000000000000000000000000000000000000000000000000000000000000000000000000000000000000000000000000000000000000000000000000000000
#04017:000000000000000000000000000000000000000000000000000000000000000000000000230000000000002300000000000000000000000000000000000000000000000000000000000000000000000000000000000000000000000000000000
#04512:1414141414000000
#04518:000000000000000000000000000000000000001300000000000000000000000000000000000000000000000000000000000000000000000000000000000000000000000000000000000000000000000000000000000000000000000000000000
#0451a:0000000014141414
#04515:000000000000000000000000000000000000000000000000000000000000000000000000000000000000000000000000000000000000000000000000000000000000001300000000000000000000000000000000000000000000000000000000
#04615:000000000000000000000000000000000000000000000000000000000000000000000000000000000000000000000000000000000000000000000000000000000000001300000000000000000000000000000000000000001300000000000000
#04618:000000000000000000000000000000000000001300000000000000000000000000000000000000000000000000000000000000000000000000000000000000000000000000000000000000000000000000000000000000000000000013000000
#04612:1414141414000000
#0461a:1400000014141414
#04718:0000001300130000
#04715:0013
#04712:13
#04915:0000000000000013
#04918:000000000000000000000000000000000000000000000000000000000000000000000000000000000000000000000000000000000000000000000000000000000000000000000000000000000000000000000000000000000000001300000000
#0491b:23
#0641b:00131313
#06418:000000000000001300000000000000000000000000000000000000000000000000000000130000000000000000000000000000000000000000000000130000000000000000000000000000000000000000000000000000000000000000000000
#06415:0013000000000000
#0651b:13
#00019:00120000
#00012:00001313
#00017:0012000000000000
#00015:1200000000130013
#0001b:000000000000000000000000000000000000000000000000000000000000000000000000000000000000000000000000000000000000001300000000000000000000000000000000000000000000001300000000000000000000000000000000
#00018:000000000000000000000000000000000000000000000000000000000000000000000000000000000000001300000000000000000000000000000000000000000000001300000000000000000000000000000000000000000000001300000000
#00615:0013001313000013
#00612:130000000000000000000000000000000000001300000000000000000000000000000000000000000000000000000000000000000000000000000000000000000013000000000000000000000000000000000000000000000000000000000000
#00618:00131300
#0061b:130000000000000000000000000000000000000000000000000000000000000000000000000000000000000000000000000000000000000000000000000000000013000000000000000000000000000000000000000000000000000000000000
#01818:0013001300132300
#01815:230000000000000000000000000000000000000000000000230000000000000000000000000000000000000000000000230000000000000000000000000000000000001300000000000000000000000000000000000000000000000000000000
#01812:0000000000000013
#0181b:2300230023000013
#02915:000000000000000000000000000000000000001300000000000000000000000000000000000000000000000000000000000000000000000000000000000000000000000000000000000000000000000000000000000000000000001300000000
#02918:0000130000000013
#02912:0000001313000000
#02917:0000001313000000
#0291b:2300000000130000
#02916:240000000000002400000000000000000000000000000000000000000000000000000000000000000000000000000000000000000000000000000000130000000000000000000000000000000000000000000000000000000000000000000000
#02910:41
#0301b:13001313
#03012:000000000000000000000000000000000000001300000000000000000000000000000000000000000000000000000000000000000000001300000000000000000000000000000000000000000000001300000000000000000000000000000000
#03018:0000001300130013
#03015:000000000000000000000000000000000000000000000000000000000000000000000000000000000000001300000000000000000000000000000000000000000000001300000000000000000000000000000000000000000000000000000000
#0311b:000000000000000000000000000000000000001300000000000000000000000000000000000000000000000000000000130000000000000000000000000000000000000000000000000000000000000000000000000000000000000000000000
#03112:130000000000000000000000000000000000000000000000000000000000001300000000000000000000000000000000000000000000000000000000000000000000001300000000000000000000000000000000000000000000000000000000
#03118:0000001300000000
#03115:000000000000000000000000000000000000000000000000000000000000000000000000000000000000001300000000000000000000000000000000000000000000000000000000000000000000000000000000130000000000000000000000
#03218:0013000000000000
#03215:0000001300000000
#03216:000000000000000000000000000000000000000000000000000000000000000000000000000000000000000000000000000000000000001300000000000000000000000000000000000000000000000000000000000000000000000000000000
#0321b:2300230023130000
#03214:000000000000000000000000000000000000000000000000000000000000000000000000000000000000000000000000000000000000000000000000000000000000001300000000000000000000000000000000000000000000000000000000
#03212:230000000000000000000000000000000000000000000000230000000000000000000000000000000000000000000000230000000000000000000000000000000000000000000000000000000000001300000000000000000000001300000000
#03219:00000013
#03217:0000000000000013
#0331b:1313
#03315:000000000000000000000000130000000000001300000000000000000000000000000000130000000000001300000000000000000000000000000000000000000000000000000000000000000000000000000000000000000000000000000000
#03318:000000000000000000000000000000000000000000000000130000000000001300000000000000000000000000000000000000000000000000000000000000000000001300000000000000000000000000000000000000000000001300000000
#03312:00000000000000000000000000130000
#03314:000000000053
#03316:000000000000000000000000000000000000000000000000000000000000000000000000000000000053000000000000
#03415:130000000000000000000000000000000000001300000000000000000000000000000000000000000000000000000000000000000000000000000000000000000000000000000000000000000000000000000000000000000000000000000000
#0341b:000000000000000000000000130000000000000000000000000000000000000000000000000000000000000000000000000000000000001300000000000000000000000000000000000000000000000000000000000000000000000000000000
#03412:0000001300000000
#03416:000000000000000000000000000000000000000000000000000000000000000000000000000000000000000000000000000000000000001300000000000000000000000000000000000000000000000000000000000000000000000000000000
#03414:0000000000000013
#03418:000000000000000000000000000000000000000000000000000000000000000000000000000000000000001300000000000000000000000000000000000000000000000000000000000000000000000000000000000000000000000000000000
#03419:0000000000000013
#03516:1313
#03512:000000000000000000000000000000000000001300000000000000000000000000000000000000000000000000000000000000000000000000000000130000000000000000000000000000000000000000000000000000000000000000000000
#03515:000000000000000000000000000000000000000000000000000000000000001300000000000000000000000000000000000000000000000000000000000000000000000000000000000000000000000000000000000000000000000000000000
#03518:0000001300000000
#0351b:130000000000000000000000000000000000000000000000000000000000000000000000000000000000000000000000130000000000000000000000000000000000000000000000000000000000001300000000000000000000000000000000
#03517:000000000000000000000000000000000000001300000000000000000000000000000000000000000000000000000000000000000000000000000000000000000000000000000000000000000000000000000000000000000000001300000000
#04112:14
#0411f:11
#04116:54
#0411a:0054
#0421a:14
#04212:0054
#04312:14
#0431a:0054
#0441a:14
#04412:0054
#05012:13001313
#0501b:000000000000000000000000000000000000001300000000000000000000000000000000000000000000000000000000000000000000001300000000000000000000000000000000000000000000001300000000000000000000000000000000
#05015:0000001300130000
#05016:0000000000000014
#05018:000000000000000000000000000000000000000000000000000000000000000000000000000000000000001300000000000000000000000000000000000000000000001300000000000000000000000000000000000000000000000000000000
#0501f:21
#05010:0041
#05112:000000000000000000000000000000000000001300000000000000000000000000000000000000000000000000000000130000000000000000000000000000000000000000000000000000000000000000000000000000000000000000000000
#0511b:130000000000000000000000000000000000000000000000000000000000001300000000000000000000000000000000000000000000000000000000000000000000001300000000000000000000000000000000000000000000000000000000
#05115:0000001300000000
#05118:000000000000000000000000000000000000000000000000000000000000000000000000000000000000001300000000000000000000000000000000000000000000000000000000000000000000000000000000130000000000000000000000
#0521b:130000000000000000000000000000000000000000000000130000000000000000000000000000000000000000000000130000000000000000000000000000000000001300000000000000000000000000000000000000000000001300000000
#05216:0014001400001300
#05212:1300130013130013
#05217:000000000000000000000000000000000000000000000000000000000000000000000000000000000000000000000000000000000000001300000000000000000000000000000000000000000000001300000000000000000000000000000000
#05316:140000000000000000000000000000000000000000000000000000000000001300000000000000000000000000000000000000000000000000000000000000000000000000000000000000000000000000000000000000000000000000000000
#05317:000000000000000000000000000000000000001300000000000000000000000000000000000000000000001300000000000000000000000000000000000000000000000000000000000000000000130000000000000000000000000000000000
#05312:000000000000000000000000140000000000000000000000130000000000000000000000000000000000000000000000130000000000000000000000000000000000000000000000000000000000000000000000000000000000001300000000
#0531b:000000000000000000000000000000000000130000000000000000000000000000000000000000000053000000000000
#05315:000000000000000000000000000000000000000000000000000000000000000000000000000000000000000000000000000000000000000000000000000000000000001300000000000000000000000000000000000000000000000000000000
#05319:000000000053
#05416:14
#0541b:0013001300000000
#05418:000000000000000000000000000000000000001300000000000000000000000000000000000000000000000000000000000000000000000000000000000000000000000000000000000000000000000000000000000000000000000000000000
#05412:000000000000000000000000130000000000000000000000000000000000000000000000000000000000000000000000000000000000001300000000000000000000000000000000000000000000000000000000000000000000000000000000
#05417:000000000000000000000000000000000000000000000000000000000000000000000000000000000000000000000000000000000000001300000000000000000000000000000000000000000000000000000000000000000000000000000000
#05419:0000000000000013
#05415:000000000000000000000000000000000000000000000000000000000000000000000000000000000000001300000000000000000000000000000000000000000000000000000000000000000000000000000000000000000000000000000000
#05414:0000000000000013
#05517:1300000000130000
#0551b:000000000000000000000000000000000000001300000000000000000000000000000000000000000000000000000000130000000000000000000000000000000000000000000000000000000000000000000000000000000000000000000000
#05516:000000000000000000000000000000000000001300000000000000000000001400000000000000000000000000000000130000000000000000000000000000000000000000000000000000000000001300000000000000000000000000000000
#05512:130000000000000000000000000000000000000000000000000000000000000000000000140000000000000000000000000000000000000000000000000000000000000000000000000000000000000000000000000000000000001300000000
#05616:000000000000000000000000000000000000000000000000000000000000000000000000000000000000001300000000000000000000000000000000000000000000000000000000000000000000000000000000000000000000000000000000
#0561b:000000000000000000000000000000000000000000000000000000000000000000000000000000000000001300000000000000000000000000000000000000000000000000000000000000000000000000000000000000000000000000000000
#05615:000000000000001300000000000000000000000000000000000000000000000000000000000000000000000000000000000000000000000000000000000000000000000000000000000000000000000000000000000000000000000000000000
#05618:0013000000000000
#05617:00130000
#05612:00130000
#05718:0000000000000013
#05715:000000000000000000000000000000000000000000000000000000000000000000000000000000000000000000000000000000000000000000000000000000000000000000000000000000000000000000000000000000000000001300000000
#05716:240000000000000000000000000000000000001300000000000000000000000000000000000000000000000000000000130000000000000000000000000000000000000000000000000000000000000000000000000000000000000000000000
#0571b:23131300
#05712:000000000000002400000000000000000000000000000000000000000000000000000000130000000000000000000000000000000000000000000000130000000000000000000000000000000000000000000000000000000000000000000000
#05717:0000001300130000
#0581b:13001313
#05812:000000000000000000000000000000000000001300000000000000000000000000000000000000000000000000000000000000000000001300000000000000000000000000000000000000000000001300000000000000000000000000000000
#05818:0000001300130000
#05816:0000000000000014
#05815:000000000000000000000000000000000000000000000000000000000000000000000000000000000000001300000000000000000000000000000000000000000000001300000000000000000000000000000000000000000000000000000000
#0591b:000000000000000000000000000000000000001300000000000000000000000000000000000000000000000000000000130000000000000000000000000000000000000000000000000000000000000000000000000000000000000000000000
#05912:130000000000000000000000000000000000000000000000000000000000001300000000000000000000000000000000000000000000000000000000000000000000001300000000000000000000000000000000000000000000000000000000
#05918:0000001300000000
#05915:000000000000000000000000000000000000000000000000000000000000000000000000000000000000001300000000000000000000000000000000000000000000000000000000000000000000000000000000130000000000000000000000
#06016:000000000000000000000000140000000000000000000000000000000000000000000000140000000000000000000000000000000000001300000000000000000000000000000000000000000000001300000000000000000000000000000000
#0601b:1300130013130013
#06012:130000000000000000000000000000000000000000000000130000000000000000000000000000000000000000000000130000000000000000000000000000000000001300000000000000000000000000000000000000000000001300000000
#06017:00000013
#06116:140000000000000000000000000000000000001300000000000000000000000000000000000000000000001300000000000000000000000000000000000000000000000000000000000000000000130000000000000000000000000000000000
#0611b:000000000000000000000000000000000000000000000000130000000000000000000000000000000000000000000000130000000000000000000000000000000000000000000000000000000000000000000000000000000000001300000000
#06112:000000000000000000000000000000000000130000000000000000000000000000000000000000000053000000000000
#06118:000000000000000000000000000000000000000000000000000000000000000000000000000000000000000000000000000000000000000000000000000000000000001300000000000000000000000000000000000000000000000000000000
#06117:000000000000000000000000000000000000000000000000000000000000001300000000000000000000000000000000000000000000000000000000000000000000000000000000000000000000000000000000000000000000000000000000
#0611a:0014000000000000
#06114:000000000053
#06216:140000000000000000000000000000000000000000000000000000000000000000000000000000000000000000000000000000000000001300000000000000000000000000000000000000000000000000000000000000000000000000000000
#06212:0013001300000000
#06215:000000000000000000000000000000000000001300000000000000000000000000000000000000000000000000000000000000000000000000000000000000000000000000000000000000000000000000000000000000000000000000000000
#0621b:000000000000000000000000130000000000000000000000000000000000000000000000000000000000000000000000000000000000001300000000000000000000000000000000000000000000000000000000000000000000000000000000
#06214:0000000000000013
#06218:000000000000000000000000000000000000000000000000000000000000000000000000000000000000001300000000000000000000000000000000000000000000000000000000000000000000000000000000000000000000000000000000
#06219:0000000000000013
#06316:130000000000000000000000000000000000000000000000000000000000001400000000000000000000000000000000000000000000000000000000130000000000000000000000000000000000000000000000000000000000000000000000
#06312:000000000000000000000000000000000000001300000000000000000000000000000000000000000000000000000000130000000000000000000000000000000000000000000000000000000000000000000000000000000000000000000000
#0631a:0000001400000000
#06317:000000000000000000000000000000000000001300000000000000000000000000000000000000000000000000000000130000000000000000000000000000000000000000000000000000000000001300000000000000000000000000000000
#0631b:130000000000000000000000000000000000000000000000000000000000000000000000000000000000000000000000000000000000000000000000000000000000000000000000000000000000000000000000000000000000001300000000
#04812:530000000000000000000000000000000000000000000000000000000000000000000000000000000000000000000000000000000000000000000000130000000000000000000000000000000000000000000000000000000000001300000000
#04818:000000000000000000000000000000001300000000130000
#04815:000000000000000000000000000000000000000000000000000000000000000000000000000000000000000000000000000000000000000000000000000000000000000013000000000000000000001300000000000000000000000000000000
#0481b:53000013
#02012:23
#00257:000000000000000000000000000000000000005300000000000000000000000000000000000000000000000000000000000000000000000000000000000000000000000000000000000000000000000000000000000000000000000000000000
#00252:000000000000000000000000000000000000005300000000000000000000000000000000000000000000000000000000000000000000000000000000000000000000000000000000530000000000000000000000000000000000000000000000
#0025b:53
#00258:0000000000000053
#00352:13
#0035b:13
#00555:0000000053000013
#00552:000000000000000000000000000000000000000000000000000000000000000000000000000000000000000000000000000000000000000000000000000000000053000000000000000000000000000000000000000000000000000000000000
#0065b:000000000000000000000000000000000000000000000000000000000000000000000000000000000000000000000000000000000000000000000000000000000063000000000000000000000000000000000000000000000000000000000000
#00658:0000000063000013
#0075b:00130000
#00852:0000005300000000
#00958:0053
#0095b:000000000000000000000000000000000000000000000000000000000000000000000000000000000000000000000000000000000000000000000000000000000000005300000000000000000000000000000000000000000000000000000000
#00955:000000000000000000000000000000000000000000000000000000000000000000000000000000000000000000000000000000000000000000000000000000000000005300000000000000000000000000000000000000000000000000000000
#0105b:2323232313000000
#01059:00230023002300230000000000000000
#0105a:0053005300530053005300530053005300000000000000000000000000000000
#01055:0013
#0115b:0013
#02052:13
#0215b:0053
#02156:0053
#02157:0000000000230000
#02152:0000000000230000
#02256:000000000000000000000000000000000000001300000000000000000000000000000000000000000000000000000000000000000000000000000000000000000000000000000000000000000000000000000000000000000000000000000000
#0225b:000000000000000000000000000000000000001300000000000000000000000000000000000000000000000000000000000000000000000000000000000000000000000000000000000000000000000000000000000000000000000000000000
#02252:53
#02255:0000000000000013
#0235b:53
#02352:0063
#02357:000000000000000000000000000000000000001300000000000000000000000000000000000000000000000000000000000000000000000000000000000000000000000000000000000000000000000000000000000000000000000000000000
#02356:000000000000000000000000000000000000000000000000000000000000000000000000000000000000000000000000000000000000000000000000000000000000001300000000000000000000000000000000000000000000000000000000
#02552:1353
#0265b:0000005300000000
#02657:000000000000005300000000
#02652:000000000000005300000000
#02752:1353
#02757:13
#02856:000000000000000000000000000000000000000000000000000000000000000000000000000000000000005300000000000000000000000000000000000000000000000000000000000000000000000000000000000000000000000000000000
#0285b:000000000000000000000000000000000000000000000000000000000000000000000000000000000000005300000000000000000000000000000000000000000000000000000000000000000000000000000000000000000000000000000000
#02852:00630000
#02952:0063
#02957:0063
#0295b:0000000000230000
#02956:0000000000230000
#0305b:63
#03052:000000000000000000000000000000000000001300000000000000000000000000000000000000000000000000000000000000000000000000000000000000000000000000000000000000000000000000000000000000000000000000000000
#03058:0000000000000013
#03057:000000000000000000000000000000000000001300000000000000000000000000000000000000000000000000000000000000000000000000000000000000000000000000000000000000000000000000000000000000000000000000000000
#03152:63
#0315b:0053
#03156:000000000000000000000000000000000000001300000000000000000000000000000000000000000000000000000000000000000000000000000000000000000000000000000000000000000000000000000000000000000000000000000000
#03157:000000000000000000000000000000000000000000000000000000000000000000000000000000000000000000000000000000000000000000000000000000000000001300000000000000000000000000000000000000000000000000000000
#0335b:1363
#03452:0000006300000000
#0345b:000000000000000000000000000000000000000000000000000000000000000000000000000000000000000000000000000000000000006300000000000000000000000000000000000000000000000000000000000000000000000000000000
#03456:000000000000000000000000000000000000000000000000000000000000000000000000000000000000000000000000000000000000006300000000000000000000000000000000000000000000000000000000000000000000000000000000
#03556:13
#0355b:1363
#03658:0013000000001300
#03652:0013
#03755:13
#03955:00530000
#04057:000000000000000000000000000000000000000000000000000000000000000000000000000000000000001300000000000000000000000000000000000000000000000000000000000000000000000000000000000000000000000000000000
#04052:000000000000000000000000000000000000000000000000000000000000000000000000000000000000001300000000000000000000000000000000000000000000000000000000000000000000000000000000000000000000000000000000
#0445a:54
#04352:54
#0425a:54
#04152:54
#04752:53
#05052:53
#0505b:000000000000000000000000000000000000001300000000000000000000000000000000000000000000000000000000000000000000000000000000000000000000000000000000000000000000000000000000000000000000000000000000
#05056:000000000000000000000000000000000000001300000000000000000000000000000000000000000000000000000000000000000000000000000000000000000000000000000000000000000000000000000000140000000000000000000000
#0515b:53
#05152:0063
#05156:000000000000000000000000000000000000001400000000000000000000000000000000000000000000000000000000000000000000000000000000000000000000001400000000000000000000000000000000000000000000000000000000
#05356:14
#05352:0053
#0545b:0000005300000000
#05452:000000000000000000000000000000000000000000000000000000000000000000000000000000000000000000000000000000000000005300000000000000000000000000000000000000000000000000000000000000000000000000000000
#05457:000000000000000000000000000000000000000000000000000000000000000000000000000000000000000000000000000000000000005300000000000000000000000000000000000000000000000000000000000000000000000000000000
#05557:13
#05552:13
#05556:0053
#05656:000000000000000000000000000000000000000000000000000000000000000000000000000000000000005300000000000000000000000000000000000000000000000000000000000000000000000000000000000000000000000000000000
#0565b:000000000000000000000000000000000000000000000000000000000000000000000000000000000000005300000000000000000000000000000000000000000000000000000000000000000000000000000000000000000000000000000000
#05652:00630000
#0585b:63
#05852:000000000000000000000000000000000000001300000000000000000000000000000000000000000000000000000000000000000000000000000000000000000000000000000000000000000000000000000000000000000000000000000000
#05856:0000000000000014
#05857:000000000000000000000000000000000000001300000000000000000000000000000000000000000000000000000000000000000000000000000000000000000000000000000000000000000000000000000000000000000000000000000000
#05952:63
#0595b:0053
#05956:000000000000000000000000000000000000001400000000000000000000000000000000000000000000000000000000000000000000000000000000000000000000001400000000000000000000000000000000000000000000000000000000
#06156:14
#0615b:0063
#06252:0000006300000000
#0625b:000000000000000000000000000000000000000000000000000000000000000000000000000000000000000000000000000000000000006300000000000000000000000000000000000000000000000000000000000000000000000000000000
#06256:000000000000000000000000000000000000000000000000000000000000000000000000000000000000000000000000000000000000006300000000000000000000000000000000000000000000000000000000000000000000000000000000
#06356:13
#0635b:13
#06357:0063
#0575b:0053
#05756:0053
#05752:0000000000230000
#05757:0000000000230000
#06455:0053000000000000
#0645b:00001313
#0655b:13
#06552:13
#0495b:63
#04956:00000014
#0023b0:1300002300000000
#002370:000000000000000000000000000000000000003300000000000000000000000000000000000000000000000000000000000000000000000000000000000000000000000000000000000000000000000000000000000000000000000000000000
#002321:000000000000000000000000000000000000001300000000000000000000000000000000000000000000000000000000000000000000000000000000000000000000000000000000000000000000000000000000000000000000000000000000
#002361:0000002300000000
#002321:00000013
#002351:0000000000000023
#002380:0000000000000013
#0033b0:23
#005350:0000000013000023
#005320:000000000000000000000000000000000000000000000000000000000000000000000000000000000000000000000000000000000000000000000000000000000033000000000000000000000000000000000000000000000000000000000000
#006380:0000000013000023
#0063b0:000000000000000000000000000000000000000000000000000000000000000000000000000000000000000000000000000000000000000000000000000000000033000000000000000000000000000000000000000000000000000000000000
#008350:130000000000002300000000000000000000000000000000000000000000000000000000000000000000000000000000000000000000000000000000000000000000000000000000000000000000000000000000000000000000000000000000
#008320:0000001300000000
#008350:000000000000000000000000000000000000000000000000000000000000000000000000000000000000002300000000000000000000000000000000000000000000000000000000000000000000000000000000000000000000000000000000
#009380:0000000013000023
#0093b0:000000000000000000000000000000000000000000000000000000000000000000000000000000000000000000000000000000000000000000000000000000000000003300000000000000000000000000000000000000000000000000000000
#009351:000000000000000000000000000000000000000000000000000000000000000000000000000000000000000000000000000000000000000000000000000000000000001300000000000000000000000000000000000000000000000000000000
#009321:0000000000000023
#0103b1:1353535323000000
#0103a1:0053005300530053005300530053005300000000000000000000000000000000
#010391:00530053005300530000000000000000
#010381:000000000000000000000000000000000000000000000000000000000000000000000000000000000000000000000000000000000000000000000000000000000000000000000000130000000000002300000000000000000000000000000000
#011351:000000000000000000000000000000000000000000000000000000000000000000000000000000000000000000000000000000000000000000000000000000000000000000000000130000000000002300000000000000000000000000000000
#013361:14
#0143b1:23
#014320:13
#015360:34
#016320:23
#0163b1:13
#017361:24
#021321:130000000000002300000000000000000000000000000000000000000000000000000000000000000000000000000000000000000000000000000000000000000000000000000000000000000000000000000000000000000000000000000000
#0213b1:00001323
#021371:0000000000530000
#021360:00001323
#021320:0000000000530000
#022320:13
#022360:000000000000000000000000000000000000002300000000000000000000000000000000000000000000000000000000000000000000000000000000000000000000000000000000000000000000000000000000000000000000000000000000
#0233b0:13
#023370:000000000000000000000000000000000000002300000000000000000000000000000000000000000000000000000000000000000000000000000000000000000000000000000000000000000000000000000000000000000000000000000000
#023320:0013
#023360:000000000000000000000000000000000000000000000000000000000000000000000000000000000000000000000000000000000000000000000000000000000000002300000000000000000000000000000000000000000000000000000000
#025320:0013
#025350:0000000000230000
#025381:000000000000000000000000000000000000000000000000000000000000000000000000000000000000000000000000000000000000000000000000130000000000002300000000000000000000000000000000000000000000000000000000
#026351:0000132300000000
#0263b0:0000001300000000
#026380:000000000000000000000000000000000000000000000000000000000000000000000000000000000000002300000000000000000000000000000000000000000000000000000000000000000000000000000000000000000000000000000000
#026320:000000000000001300000000
#026360:00000023
#026371:000000000000001300000000
#0263b1:00000023
#027321:0013
#027361:000000000000000000000000000000000000000000000000000000000000000000000000000000000000000000000000000000000000000000000000330000000000002300000000000000000000000000000000000000000000000000000000
#0273b0:000000000000000000000000000000000000000000000000000000000000000000000000000000000000000000000000000000000000000000000000000000000000001300000000000000000000000000000000000000000000002300000000
#027370:000000000000000000000000000000000000000000000000000000000000000000000000000000000000000000000000000000000000000000000000000000000000000000000000000000000000003300000000000000000000000000000000
#028320:0000130000000023
#028360:000000000000000000000000000000000000000000000000000000000000000000000000000000000000003300000000000000000000000000000000000000000000000000000000000000000000000000000000000000000000000000000000
#0283b1:000000000000000000000000000000000000000000000000000000000000000000000000000000000000001300000000000000000000000000000000000000000000000000000000000000000000000000000000000000000000000000000000
#028371:0000000000000023
#0293b1:130000000000002300000000000000000000000000000000000000000000000000000000000000000000000000000000000000000000000000000000000000000000000000000000000000000000000000000000000000000000000000000000
#029321:00001323
#029361:0000000000530000
#029370:00001323
#0293b0:0000000000530000
#0303b0:13
#030370:000000000000000000000000000000000000002300000000000000000000000000000000000000000000000000000000000000000000000000000000000000000000000000000000000000000000000000000000000000000000000000000000
#031320:13
#031360:000000000000000000000000000000000000002300000000000000000000000000000000000000000000000000000000000000000000000000000000000000000000000000000000000000000000000000000000000000000000000000000000
#0313b0:0013
#031370:000000000000000000000000000000000000000000000000000000000000000000000000000000000000000000000000000000000000000000000000000000000000002300000000000000000000000000000000000000000000000000000000
#0333b0:0013
#033380:0000000000230000
#033351:000000000000000000000000000000000000000000000000000000000000000000000000000000000000000000000000000000000000000000000000130000000000002300000000000000000000000000000000000000000000000000000000
#034381:0000132300000000
#034320:0000001300000000
#034350:000000000000000000000000000000000000000000000000000000000000000000000000000000000000002300000000000000000000000000000000000000000000000000000000000000000000000000000000000000000000000000000000
#0343b0:000000000000000000000000000000000000000000000000000000000000000000000000000000000000000000000000000000000000001300000000000000000000000000000000000000000000000000000000000000000000000000000000
#034370:00000023
#034361:000000000000000000000000000000000000000000000000000000000000000000000000000000000000000000000000000000000000001300000000000000000000000000000000000000000000000000000000000000000000000000000000
#034321:00000023
#0353b1:0013
#035371:000000000000000000000000000000000000000000000000000000000000000000000000000000000000000000000000000000000000000000000000330000000000002300000000000000000000000000000000000000000000000000000000
#035320:000000000000000000000000000000000000000000000000000000000000000000000000000000000000000000000000000000000000000000000000000000000000001300000000000000000000000000000000000000000000002300000000
#035360:000000000000000000000000000000000000000000000000000000000000000000000000000000000000000000000000000000000000000000000000000000000000000000000000000000000000003300000000000000000000000000000000
#038320:1300002300000000
#038360:000000000000000000000000000000000000003300000000000000000000000000000000000000000000000000000000000000000000000000000000000000000000000000000000000000000000000000000000000000000000000000000000
#0393b0:130000000000002300000000000000000000000000000000000000000000000000000000000000000000000000000000000000000000000000000000000000000000000000000000000000000000000000000000000000000000000000000000
#039350:00130000
#039320:000000000000000000000000000000000000000000000000000000000000000000000000330000000000002300000000000000000000000000000000000000000000000000000000000000000000000000000000000000000000000000000000
#041320:14
#042360:24
#0423a1:14
#043361:24
#043320:14
#044360:24
#0443a1:14
#045361:24
#047321:13
#047351:0000002300000000
#047321:00000013
#048321:23
#0473b0:00000013
#0483b0:23
#0493b0:13
#049360:00000024
#050320:13
#050360:000000000000000000000000000000000000002300000000000000000000000000000000000000000000000000000000000000000000000000000000000000000000000000000000000000000000000000000000000000000000000000000000
#0513b0:13
#051360:000000000000000000000000000000000000002400000000000000000000000000000000000000000000000000000000000000000000000000000000000000000000000000000000000000000000000000000000000000000000000000000000
#051320:0013
#051360:000000000000000000000000000000000000000000000000000000000000000000000000000000000000000000000000000000000000000000000000000000000000002400000000000000000000000000000000000000000000000000000000
#053320:0013
#053350:0000000000230000
#053381:000000000000000000000000000000000000000000000000000000000000000000000000000000000000000000000000000000000000000000000000130000000000002300000000000000000000000000000000000000000000000000000000
#054351:0000132300000000
#0543b0:0000001300000000
#054380:000000000000000000000000000000000000000000000000000000000000000000000000000000000000002300000000000000000000000000000000000000000000000000000000000000000000000000000000000000000000000000000000
#054320:000000000000000000000000000000000000000000000000000000000000000000000000000000000000000000000000000000000000001300000000000000000000000000000000000000000000000000000000000000000000000000000000
#054360:00000023
#054371:000000000000000000000000000000000000000000000000000000000000000000000000000000000000000000000000000000000000001300000000000000000000000000000000000000000000000000000000000000000000000000000000
#0543b1:00000023
#055361:0013
#055321:000000000000000000000000000000000000000000000000000000000000000000000000000000000000000000000000000000000000000000000000330000000000002300000000000000000000000000000000000000000000000000000000
#055370:000000000000000000000000000000000000000000000000000000000000000000000000000000000000000000000000000000000000000000000000000000000000001300000000000000000000000000000000000000000000002300000000
#0553b0:000000000000000000000000000000000000000000000000000000000000000000000000000000000000000000000000000000000000000000000000000000000000000000000000000000000000003300000000000000000000000000000000
#056320:0000130000000023
#056360:000000000000000000000000000000000000000000000000000000000000000000000000000000000000003300000000000000000000000000000000000000000000000000000000000000000000000000000000000000000000000000000000
#0563b1:000000000000000000000000000000000000000000000000000000000000000000000000000000000000001300000000000000000000000000000000000000000000000000000000000000000000000000000000000000000000000000000000
#056371:0000000000000023
#0573b1:13
#057371:000000000000002300000000000000000000000000000000000000000000000000000000000000000000000000000000000000000000000000000000000000000000000000000000000000000000000000000000000000000000000000000000
#0573b1:00001323
#057371:0000000000530000
#057360:00001323
#057320:0000000000530000
#0583b0:13
#058370:000000000000000000000000000000000000002300000000000000000000000000000000000000000000000000000000000000000000000000000000000000000000000000000000000000000000000000000000000000000000000000000000
#059320:13
#059360:000000000000000000000000000000000000002400000000000000000000000000000000000000000000000000000000000000000000000000000000000000000000000000000000000000000000000000000000000000000000000000000000
#0593b0:0013
#059360:000000000000000000000000000000000000000000000000000000000000000000000000000000000000000000000000000000000000000000000000000000000000002400000000000000000000000000000000000000000000000000000000
#0613b0:0013
#061380:0000000000230000
#061351:000000000000000000000000000000000000000000000000000000000000000000000000000000000000000000000000000000000000000000000000130000000000002300000000000000000000000000000000000000000000000000000000
#062381:0000132300000000
#062320:0000001300000000
#062350:000000000000000000000000000000000000000000000000000000000000000000000000000000000000002300000000000000000000000000000000000000000000000000000000000000000000000000000000000000000000000000000000
#0623b0:000000000000000000000000000000000000000000000000000000000000000000000000000000000000000000000000000000000000001300000000000000000000000000000000000000000000000000000000000000000000000000000000
#062370:00000023
#062361:000000000000000000000000000000000000000000000000000000000000000000000000000000000000000000000000000000000000001300000000000000000000000000000000000000000000000000000000000000000000000000000000
#062321:00000023
#063371:0013
#0633b1:000000000000000000000000000000000000000000000000000000000000000000000000000000000000000000000000000000000000000000000000330000000000002300000000000000000000000000000000000000000000000000000000
#063360:000000000000000000000000000000000000000000000000000000000000000000000000000000000000000000000000000000000000000000000000000000000000001300000000000000000000000000000000000000000000002300000000
#063320:000000000000000000000000000000000000000000000000000000000000000000000000000000000000000000000000000000000000000000000000000000000000000000000000000000000000003300000000000000000000000000000000
#064350:0013000000000000
#065320:23
#0259b0:00000000000000000000000000130000
#025970:000000000000000000000000000000000000000000000000000000000000000000000000000000000023000000000000
#033920:00000000000000000000000000130000
#033960:000000000000000000000000000000000000000000000000000000000000000000000000000000000023000000000000
#0379b0:00130000
#037980:0000002300000000
#037951:0000001300000000
#037921:0023
#053971:00000000000000000000000000130000
#0539b1:000000000000000000000000000000000000000000000000000000000000000000000000000000000023000000000000
#061961:00000000000000000000000000130000
#061921:000000000000000000000000000000000000000000000000000000000000000000000000000000000023000000000000
