This file was generated by Ched 2.7.0.0.
#TITLE ""
#ARTIST ""
#DESIGNER ""
#DIFFICULTY 0
#PLAYLEVEL
#SONGID ""
#WAVE ""
#WAVEOFFSET 0
#JACKET ""
#REQUEST "ticks_per_beat 480"
#00002: 4
#BPM01: 116
#00008: 01
#TIL00: ""
#VOLUME: ""
#HISPEED 00
#MEASUREHS 00
#00116:140000000000000000000000000000000000000000000000130000000000000000000000000000000000001400000000000000000000001400000000000000000000001400000000000000000000000000000000130000000000000000000000
#0011a:520000000000000000000000000000000000001400000000140000000000000000000000000000000000000000000000000000000000000000000000000000000000000000000000000000000000000000000000000000000000000000000000
#0011b:0000000000130013
#00112:00001313
#0021b:0013
#00212:1300000000131300
#00216:000000000000000000000000000000000000000000000000000000000000000000000000000000000000000000000000140000000000000000000000000000000000001400000000000000000000000000000000000000000000000000000000
#00218:0000000000000013
#00217:000000000000000000000000000000000000001300000000000000000000000000000000000000000000000000000000000000000000000000000000000000000000000000000000000000000000000000000000000000000000000000000000
#00215:0000000000000013
#00316:0000121414141414
#00318:000000000000000000000000000000000000001200000000000000000000000000000000000000000000000000000000000000000000000000000000000000000000000000000000000000000000000000000000000000000000000000000000
#00312:000000000000000000000000000000000000000000000000000000000000000000000000000000000000001400000000000000000000000000000000000000000000001400000000000000000000000000000000000000000000000000000000
#0031a:000000000000000000000000000000000000000000000000000000000000000000000000000000000000000000000000000000000000001400000000000000000000000000000000000000000000001400000000000000000000000000000000
#00514:0014000000000000
#0051b:130000000000000000000000000000000000001300000000000000000000000000000000000000000000000000000000000000000000000000000000000000000000000000000000000000000000000000000000000000000000000000000000
#00516:000000000000000000000000000000000000000000000000000000000000000000000000000000000000000000000000000000000000000000000000000000000000000000000000000000000000000000000000000000000000000000000000000000000000000000000000000000000000000000000000000000000000000000000000000000000000000000000000000000000000000000000000000000000000000000000000000000000000000000000000000000000000000000000000000000000000000000000000000000000000000000000000000000000000000000000000000000000000000000000000140000000000000000000000000000000000000000000000000000000000000000000000000000000000000000000000000000000000000000000000000000000000000000000000000000000000000000000000000000000000000000000000000000000000000000000000000000000000000000000000000000000000000000000000000000000000000000000000000000000000000000000000000000000000000000000000000000000000000000000000000000000000000000000000000000000000000000000000000000000000000000000000000000000000000000000000000000000000000000000000140000000000000000000000000000000000000000000000000000000000000000000000000000000000000000000000000000000000000000000000000000000000000000000000000000000000000000000000000000000000000000000000000000000000000000000000000000000000000000000000000000000000000000000000000000000000000000000000000000000000000000000000000000000000000000000000000000000000000000000000000000000000000000000014000000000000000000000000000000000000000000000000000000000000000000000000000000000000000000000000000000000000000000000000000000000000000000000000000000000000000000000000000000000000000000000000000000000000000000000000000000000000000000000000000000000000000000000000000000000000000000000000000000000000000000000000000000000000000000000000140000000000000000000000000000000000000000000000000000000000000000000000000000000000000000000000000000000000000000000000000000000000000000000000000000000000000000000000000000000000000000000000000000000000000000000000000000000000000000000000
#00518:0000001400000000
#00512:140000000000000000000000000000000000000000000000000000000000000000000000000000000000000000000000000000000000000000000000000000000000005c00000000000000000000000000000000000000000000000000000000
#0051a:0014
#00510:41
#00718:000000000000000000000000120000000000000000000000000000000000000000000000000000000000000000000000000000000000005300000000000000000000000000000000000000000000000000000000000000000000001300000000
#00716:000000000000000000000000000000000000001200000000000000000000000000000000000000000000000000000000000000000000000000000000000000000000005300000000000000000000000000000000000000000000000000000000
#0071a:140000000000000000000000000000000000000000000000140000000000000000000000000000000000000000000000000000000000000000000000000000000000001300000000000000000000000000000000000000000000000000000000
#00712:140000000013
#0071b:000000000000000000000000000000000000000000000000000000000000000000000000000000000000001300000000000000000000000000000000000000000000000000000000000000000000000000000000000000000000000000000000
#00713:000000000000000000000000000000000000000000000000000000000000000000000000000000000000000000000000000000000000001300000000000000000000000000000000000000000000000000000000000000000000000000000000
#00715:000000000000000000000000000000000000000000000000000000000000000000000000000000000000005300000000000000000000000000000000000000000000000000000000000000000000000000000000000000000000005300000000
#00717:000000000000000000000000000000000000000000000000000000000000000000000000000000000000000000000000000000000000000000000000000000000000000000000000000000000000005300000000000000000000000000000000
#0081a:000000000000000000000000000000000000001400000000000000000000000000000000000000000000000000000000000000000000000000000000000000000000000000000000000000000000000000000000000000000000000000000000
#00816:000000000000000000000000000000000000000000000000140000000000001400000000000000000000001400000000000000000000001200000000000000000000000000000000000000000000000000000000000000000000000000000000
#00818:1300000000122613
#00815:00000013
#00812:000000000000001300000000000000000000000000000000000000000000000000000000000000000000000000000000000000000000000000000000000000000000000000000000000000000000000000000000260000000000000000000000
#01118:0014000000000000
#01116:000000000000001200000000000000000000000000000000140000000000000000000000000000000000001200000000000000000000000000000000000000000000000000000000000000000000000000000000000000000000002800000000
#01114:000000000000000000000000000000000000001200000000000000000000000000000000140000000000000000000000000000000000000000000000000000000000000000000000260000000000000000000000000000000000000000000000
#01112:000000000000000000000000000000000000000000000000000000000000001200000000000000000000000000000000140000000000000000000000000000000000000000000000000000000000000000000000000000000000000000000000
#0111a:240000000000000000000000000000000000000000000000000000000000000000000000000000000000000000000000000000000000000000000000000000000000000000000000000000000000002200000000000000000000000000000000
#01216:000000000000000000000000000000000000000000000000140000000000000000000000000000000000000000000000000000000000000000000000000000000000001200000000000000000000001200000000000000000000000000000000
#01218:000000000000001200000000000000000000000000000000000000000000000000000000140000000000001200000000000000000000000000000000000000000000000000000000120000000000000000000000120000000000000000000000
#01212:2400000000130000
#01214:0014000000000000
#0121a:000000000000000000000000000000000000001200000000000000000000000000000000000000000000000000000000140000000000000000000000000000000000000000000000000000000000000000000000000000000000000000000000
#0121c:000000000000000000000000000000000000000000000000000000000000001200000000000000000000000000000000000000000000000000000000000000000000000000000000000000000000000000000000000000000000000000000000
#01217:0000000000130000
#01210:41
#01312:140000000000000000000000006400000000000000000000140000000000000000000064000000000000140000000000
#0131a:000000000000000000000000140000000000000000000000006400000000000000001400000000000000006400000000
#01316:000000000000640000000000640000000064000000640000
#01314:000000000000000000000000000000000000000000000000006400000000000000000000000000000000000000000000000000000000000000000000000000000000000000640000000000000000000000000000000000000000000000000000
#01318:000000000000000000000000000000000000000000000000000000000000000000000000000000000000000000000000006400000000000000000000000000000000000000000000000000000000000000000000006400000000000000000000
#01512:140000000000140000000000640000000014000000640000
#0151a:140000000000640000000000140000000064000000140000
#01518:000000000000000000000000000000000000000000000000006400000000000000000000000000000000000000000000000000000000000000000000000000000000000000640000000000000000000000000000000000000000000000000000
#01516:000000000000000000000000006400000000000000000000006400000000000000000064000000000000006400000000
#01514:000000000000000000000000000000000000000000000000000000000000000000000000000000000000000000000000006400000000000000000000000000000000000000000000000000000000000000000000006400000000000000000000
#01718:000000000000000000000000130000000000000000000000000000000000000000000000130000000000000000000000000000000000000000000000130000000000000000000000000000000000000000000000130000000000001300000000
#01715:000000000000000000000000000000000000001300000000000000000000000000000000000000000000001300000000000000000000000000000000000000000000001300000000000000000000000000000000000000000000000000000000
#01712:640000000000000000000000000000000000000000000000640000000000000000000000000000000000000000000000640000000000000000000000000000000000000000000000000000000000001300000000000000000000000000000000
#0171a:24242424
#01915:000000000000000000000000130000000000000000000000000000000000000000000000000000000000000000000000000000000000001300000000000000000000000000000000000000000000000000000000130000000000001300000000
#0191b:00130000
#01918:260000000000000000000000000000000000000000000000000000000000000000000000130000000000000000000000260000000000000000000000130000000000001300000000000000000000001300000000000000000000000000000000
#01912:00261326
#02118:000000000000000000000000000000000000001300000000000000000000000000000000130000000000000000000000000000000000000000000000130000000000000000000000000000000000000000000000000000000000000000000000
#02112:240000000000002400000000000000000000000000000000130000000000000000000000000000000000000000000000000000000000000000000000530000000000000000000000000000000000000000000000130000000000000000000000
#02116:000000000000000000000000000000000000000000000000000000000000000000000000000000000000000000000000000000000000000000000000000000000000000000000000000000000000000000000000000000000000001400000000
#02115:000000000000000000000000000000000000000000000000000000000000001300000000000000000000000000000000130000000000000000000000000000000000000000000000530000000000000000000000000000000000000000000000
#0211b:000000000000000000000000000000000000000000000000000000000000000000000000000000000000001300000000000000000000000000000000000000000000000000000000530000000000000000000000130000000000000000000000
#0211a:240000000000002400000000000000000000000000000000000000000000000000000000000000000000000000000000000000000000000000000000000000000000000053000000000000000000000000000000000000000000000000000000
#02110:41
#02113:000053
#02114:000000000000000000000000000000000053000000000000
#02119:000053
#02212:140000000000000000000000000000000000000000000000000000000000000000000000130000000000000000000000000000000000001300000000000000000000000000000000000000000000001300000000000000000000000000000000
#0221a:000000000000000000000000000000000000001400000000000000000000000000000000000000000000000000000000000000000000000000000000000000000000000000000000000000000000000000000000000000000000001400000000
#02216:0000001415001500
#02215:0000000000150015
#0221b:000000000000000000000000000000000000000000000000000000000000000000000000000000000000001300000000000000000000000000000000000000000000001300000000000000000000000000000000000000000000000000000000
#02316:140000000000000000000000000000000000001400000000000000000000000000000000140000000000000000000000140000000000000000000000000000000000001400000000000000000000000000000000000000000000000000000000
#0231a:000000000000000000000000000000000000000000000000000000000000001400000000000000000000000000000000000000000000000000000000000000000000000000000000000000000000000000000000000000000000000000000000
#02318:0000000000000013
#02312:000000000000000000000000000000000000000000000000000000000000000000000000000000000000001400000000000000000000000000000000000000000000000000000000000000000000000000000000000000000000000000000000
#02315:0000000000000013
#0241b:130000000000000000000000000000000000000000000000000000000000001300000000000000000000000000000000130000000000000000000000000000000000000000000000130000000000000000000000000000000000000000000000
#02412:1313000013130013
#02418:000000000000000000000000000000000000001400000000000000000000000000000000000000000000000000000000000000000000000000000000000000000000000000000000000000000000000000000000000000000000000000000000
#02417:000000000000000000000000000000000000000000000000000000000000000000000000000000000000000000000000000000000000001400000000000000000000000000000000000000000000001400000000000000000000000000000000
#02415:000000000000000000000000000000000000000000000000000000000000000000000000000000000000000000000000000000000000000000000000000000000000001400000000000000000000000000000000000000000000001400000000
#02414:00140000
#02416:000000000000001400000000000000000000000000000000000000000000000000000000140000000000000000000000000000000000000000000000000000000000000000000000000000000000000000000000000000000000000000000000
#0251b:1313
#02512:000000000000000000000000130000000000001300000000000000000000000000000000000000000000000000000000000000000000000000000000130000000000000000000000000000000000000014000000000000000000000000000000
#02518:000000000000000000000000130000000000000000000000130000000000001300000000000000000000000000000000000000000000000000000000000000000000000000000000000000000000000000005400000000000000000000000000
#02515:000000000000000000000000000000000000000000000000000000000000000000000000130000000000001300000000000000000000000000000000000000000000000000000000000000000000000000000000000000000000001300000000
#02517:0000000000130000
#0251a:000000000014
#02516:0000000000000054
#02618:13
#02612:000000140000000000000000000013000000000000130000
#0261a:000000000000000000000000000000000000001400000000000000000000000000000000000000000000000000000000000000000000000000000000000000000000000000000000000000000000000000000000000000000000000000000000
#0261b:0000001300000000
#02616:0000000000000014
#0271b:1300005300130000
#02712:000000000000000000000000000000000000001300000000000000000000000000000000000000000000000000000000130000000000000000000000000000000000000000000000130000000000000000000000000000000000000000000000
#02718:000000000000000000000000000000000000000000000000000000000000001300000000000000000000000000000000000000000000000000000000000000000000001600000000000000000000000000000000000000000000000000000000
#02715:0000001300000000
#02717:0013
#02716:140000000000000000000000000000000000001400000000000000000000000000000000000000000000000000000000000000000000000000000000000000000000000000000000000000000000000000000000150000000000000000000000
#02816:000000000000000000000000150000000000000000000000000000000000000000000000000000000000000000000000140000000000001400000000000000000000000000000000000000000000001400000000000000000000000000000000
#02812:1500130000001313
#0281b:000000000000000000000000000000000000000000000000000000000000000000000000000000000000001300000000000000000000000000000000130000000000001300000000000000000000000000000000000000000000000000000000
#03617:0013
#03619:15150015
#03612:0015
#03615:0015000000000000
#03616:0000001400141314
#03712:150000000000000000000000000000000000000000000000000000000000000000000000000000000000000000000000000000000000000000000000000000000000001300000000000000000000000000000000000000000000000000000000
#03715:000000000000000000000000000000000000000000000000000000000000000000000000130000000000000000000000000000000000001300000000000000000000000000000000000000000000001300000000000000000000000000000000
#03717:130000000000001300001300000000000000000000000000
#0371b:00130000
#03719:001300
#03713:000000000000000000000013000000000000000000000000
#03718:0000000026262626
#03710:41
#03812:160000000000000000000000000000000000005c00000000000000000000000000000000160000000000000000000000130000000000000000000000000000000000000000000000000000000000000000000000130000000000000013000000
#03815:000000000000000000000000000000000000000000000000000000000000000000000000000000000000000000000000000000000000000000000000000000000000000000000000000000000000000000000000000000000000000000000000000000000000000000000000000000000000000000000000000000000000000000000000000000000000000000000000000000000000000000000000000000000000000000000000000000000000000000000000000000000000000000000016000000000000000000000000000000000000000000000000000000000000000000000000000000000000000000000000000000000000000000000000000000000000000000000000000000000000000000000000000000000000000000000000000000000000000000000000000000000000000000000000000000000000000000000000000000000000000000000000000000000000000000000000000000000000000000000000000000000000000000000000000000000000000000000000000000000000000000000000000000000000000000000000000000000000000000000000000000000000000000000000000000000000000000000000000000000000000000000000000000000000000000000000000000000000000000000000000000000000000000000000000000000000000000000000000000000000000000000000000000000000000000000000000000000000000000000000000000000000000000000000000000000000000000000000000000000000000000000000000000000000000000000000000000000000000000000000000000000000000000000000000000000000000000000000000000000000000000000000000000000000000000000000000000000000000000000000000000000000000000000000000000000000000000000000000000000000000000000000000000000000000000000000000000000000000000000000000000000000000000000000000000000000000000000000000000000000000000000000000000000000000000000000000000000000000000000000000000000000000000000000000000000000000000000000000000000000000000000000000000000000000000000000000000000000000000000000000000000000000000000000000000000000000000000000000000000000000000000000000000000000000000000000000000000000000000000000000000000000000000000000000000000000000000000000000000000000000000000000000000000000000000000000000000000000000000000000
#0381b:0000000000131300
#03816:000000000000000000000000000000000000000000000000000000000000000000000000000000000000000000000000140000000000000000000000000000000000001400000000000000000000000000000000000000000000000000000000
#03817:000000000000000000000013
#03818:26
#04518:000000000000000000000000140000000000000000000000000000000000000000000000140000000000000000000000000000000000000000000000000000000000001300000000000000000000000000000000000000000000000000000000
#0451a:00140000
#04515:000000000000000000000000000000000000001300000000000000000000000000000000000000000000000000000000000000000000000000000000000000000000000000000000000000000000000000000000000000000000000000000000
#04512:000000000000000000000000000000000000000000000000000000000000000000000000000000000000001300000000000000000000000000000000000000000000000000000000140000000000000000000000000000000000000000000000
#04514:0000000000140014
#0451b:000000000000000000000000000000000000000000000000000000000000000000000000000000000000000000000000000000000000000000000000000000000000000000000000000000000000000000000000000000000000001300000000
#04516:0014
#04712:0000001400001400
#04716:0000000012120054
#0471a:14
#04718:000000000000000000000000000000000000000000000000000000000000000000000000000000000000000000000000000000000000001200000000000000000000001200000000000000000000000000000000000000000000540000000000
#04713:0000000000000000000000000000000000000000000000000054000000000000
#04714:00000000000000000000000000540000
#04715:0000000000000000000000000000000000000000000000000000005400000000
#04717:0000000000000000000000000000000000000000000000000000000000540000
#04719:0000000000000000000000000000000000000000000000000000000000000054
#04818:000000000000000000000000000000140014000000000000
#04814:000000000000000014140000
#0481b:000000000000000000000000000000000000000000000000000000000000000000000000000000000000000000000000000000000000000000000000000000000000000000000000000000000000001300000000000000000000000000000000
#04816:000000000000000000000000000000000000000000000000000000000000000000000000000000000000000000000000000000000000000000000000000000000000000000000000000000000000000000000000140000000000001400000000
#0481a:54
#0001a:00125252
#00012:00001313
#00018:000000000000000000000000120000000000000000000000000000000000000000000000000000000000001300000000000000000000000000000000000000000000001300000000000000000000000000000000000000000000001300000000
#00014:1200000000520052
#00019:12
#00016:0012000000000000
#00015:000000000000000000000000000000000000000000000000120000000000000000000000000000000000000000000000000000000000001300000000000000000000000000000000000000000000001300000000000000000000000000000000
#0001b:0000000000130013
#04112:1413
#04117:13
#0411f:11
#04118:0054
#0441a:14
#0441b:0013
#04414:0054
#04618:000000000000000000000000140000000000000000000000000000000000000000000000140000000000000000000000000000000000000000000000000000000000001300000000000000000000000000000000000000001200000000000000
#0461a:00140000
#04615:000000000000000000000000000000000000001300000000000000000000000000000000000000000000000000000000000000000000000000000000000000000000000000000000000000000000000000000000000000000000000000000000
#04612:000000000000000000000000000000000000000000000000000000000000000000000000000000000000001300000000000000000000000000000000000000000000000000000000140000000000000000000000000000000000000000000000
#04614:0000000000140012
#04616:140000000000000000000000140000000000000000000012
#00412:000000000000000000000000000000000000000000000000000000000000000000000000140000000000001400000000000000000000000000000000000000000000000000000000000000000000000000000000000000000000000000000000
#00419:220000000000002200000000000000000000000000000000000000000000000000000000000000000000000000000000000000000000000000000000000000000000000000000000000000000000000000000000000000000000000000000000
#00415:220000000000002200000000000000000000000000000000230000000000000000000000000000000000000000000000000000000000000000000000000000000000000000000000000000000000000000000000000000000000000000000000
#00418:000000000000000000000000000000000000002300000000000000000000000000000000000000000000000000000000000000000000000000000000000000000000000000000000000000000000000000000000000000000000000000000000
#0041a:000000000000000000000000000000000000000000000000000000000000000000000000240000000000002400000000000000000000000000000000000000000000000000000000000000000000000000000000000000000000000000000000
#00618:0014000000000000
#00612:130000000000000000000000000000000000001300000000000000000000000000000000000000000000000000000000140000000000000000000000000000000000005c00000000000000000000000000000000000000000000000000000000
#00616:000000000000000000000000000000000000000000000000000000000000000000000000000000000000000000000000000000000000000000000000000000000000000000000000000000000000000000000000000000000000000000000000000000000000000000000000000000000000000000000000000000000000000000000000000000000000000000000000000000000000000000000000000000000000000000000000000000000000000000000000000000000000000000000000000000000000000000000000000000000000000000000000000000000000000000000000000000000000000000000000140000000000000000000000000000000000000000000000000000000000000000000000000000000000000000000000000000000000000000000000000000000000000000000000000000000000000000000000000000000000000000000000000000000000000000000000000000000000000000000000000000000000000000000000000000000000000000000000000000000000000000000000000000000000000000000000000000000000000000000000000000000000000000000000000000000000000000000000000000000000000000000000000000000000000000000000000000000000000000000000140000000000000000000000000000000000000000000000000000000000000000000000000000000000000000000000000000000000000000000000000000000000000000000000000000000000000000000000000000000000000000000000000000000000000000000000000000000000000000000000000000000000000000000000000000000000000000000000000000000000000000000000000000000000000000000000000000000000000000000000000000000000000000000014000000000000000000000000000000000000000000000000000000000000000000000000000000000000000000000000000000000000000000000000000000000000000000000000000000000000000000000000000000000000000000000000000000000000000000000000000000000000000000000000000000000000000000000000000000000000000000000000000000000000000000000000000000000000000000000000140000000000000000000000000000000000000000000000000000000000000000000000000000000000000000000000000000000000000000000000000000000000000000000000000000000000000000000000000000000000000000000000000000000000000000000000000000000000000000000000
#00614:0000001400000000
#0061a:14
#00918:0014000000000000
#00912:130000000000000000000000000000000000001300000000000000000000000000000000000000000000000000000000140000000000000000000000000000000000005c00000000000000000000000000000000000000000000000000000000
#00916:000000000000000000000000000000000000000000000000000000000000000000000000000000000000000000000000000000000000000000000000000000000000000000000000000000000000000000000000000000000000000000000000000000000000000000000000000000000000000000000000000000000000000000000000000000000000000000000000000000000000000000000000000000000000000000000000000000000000000000000000000000000000000000000000000000000000000000000000000000000000000000000000000000000000000000000000000000000000000000000000140000000000000000000000000000000000000000000000000000000000000000000000000000000000000000000000000000000000000000000000000000000000000000000000000000000000000000000000000000000000000000000000000000000000000000000000000000000000000000000000000000000000000000000000000000000000000000000000000000000000000000000000000000000000000000000000000000000000000000000000000000000000000000000000000000000000000000000000000000000000000000000000000000000000000000000000000000000000000000000000140000000000000000000000000000000000000000000000000000000000000000000000000000000000000000000000000000000000000000000000000000000000000000000000000000000000000000000000000000000000000000000000000000000000000000000000000000000000000000000000000000000000000000000000000000000000000000000000000000000000000000000000000000000000000000000000000000000000000000000000000000000000000000000014000000000000000000000000000000000000000000000000000000000000000000000000000000000000000000000000000000000000000000000000000000000000000000000000000000000000000000000000000000000000000000000000000000000000000000000000000000000000000000000000000000000000000000000000000000000000000000000000000000000000000000000000000000000000000000000000140000000000000000000000000000000000000000000000000000000000000000000000000000000000000000000000000000000000000000000000000000000000000000000000000000000000000000000000000000000000000000000000000000000000000000000000000000000000000000000000
#00914:0000001400000000
#0091a:14
#01018:1616161616000000
#01014:000000000000000000000000000000540000000000540000000000000000000000000000000000540000000000540000000000000000000000000000000000000000000000000000000000000000002200000000000000000000000000000000
#01016:00000052000000520000000026000000
#01012:560000540000520000540000560000000000000000000000560000540000520000540000560000000000000000000000560000000000000000000000000000000000000000000000000000000000000000000000000000000000002800000000
#0141a:140000000000000000000000006400000000000000000000140000000000000000000064000000000000140000000000
#01412:140000000000000000000000140000000000000000000000006400000000000000001400000000000000006400000000
#01416:000000000000640000000000640000000064000000640000
#01418:000000000000000000000000000000000000000000000000006400000000000000000000000000000000000000000000000000000000000000000000000000000000000000640000000000000000000000000000000000000000000000000000
#01414:000000000000000000000000000000000000000000000000000000000000000000000000000000000000000000000000006400000000000000000000000000000000000000000000000000000000000000000000006400000000000000000000
#0161a:140000000000000000000000000000000000000000000000140000000000000000000000000000000000000000000000640000000000000000000000000000000000000000000000000000000000001200000000000000000000000000000000
#01612:1400640014140000
#01616:000000000000000000000000000000000000000000000000000064000000000000000000000000000000000000000000000064000000000000000000000000000000001200000000000000000000000000000000000000000000001200000000
#01618:000000000000000000000000000000000000000000000000000000000000000000000000000000000000000000000000006400000000000000000000000000000000000000000000120000000000000000000000120000000000000000000000
#01614:000000000000000000000000000000000000000000000000006400000000000000000000000000000000000000000000000000000000000000000000000000000000000000000000000000000000000000000000000000000000000000000000
#01815:000000000000000000000000130000000000000000000000000000000000000000000000130000000000000000000000000000000000000000000000130000000000000000000000000000000000000000000000130000000000001300000000
#01818:000000000000000000000000000000000000001300000000000000000000000000000000000000000000001300000000000000000000000000000000000000000000001300000000000000000000000000000000000000000000000000000000
#0181b:000000000000000000000000000000000000000000000000000000000000000000000000000000000000000000000000000000000000000000000000000000000000000000000000000000000000001300000000000000000000000000000000
#01812:24242424
#0181a:64646400
#02915:000000000000000000000000000000000000001300000000000000000000000000000000130000000000000000000000000000000000000000000000130000000000000000000000000000000000000000000000000000000000000000000000
#0291b:0000130000530013
#02916:000000000000000000000000000000000000000000000000000000000000000000000000000000000000000000000000000000000000000000000000000000000000000000000000000000000000000000000000000000000000001400000000
#02918:000000000000000000000000000000000000000000000000000000000000001300000000000000000000000000000000130000000000000000000000000000000000000000000000530000000000000000000000000000000000000000000000
#02912:240000000000002400000000000000000000000000000000000000000000000000000000000000000000001300000000000000000000000000000000000000000000000000000000530000000000000000000000130000000000000000000000
#0291a:240000000000002400000000000000000000000000000000000000000000000000000000000000000000000000000000000000000000000000000000000000005300000000000000000000000000000000000000000000000000000000000000
#02910:41
#02919:000000000000000000000000000000000053000000000000
#02914:000053
#02913:000000000000000000000000000000000053000000000000
#0301a:14
#03012:000000000000000000000000000000000000001400000000000000000000000000000000000000000000001300000000000000000000000000000000000000000000001300000000000000000000000000000000000000000000001400000000
#03016:0000001400150015
#03015:00001515
#0301b:000000000000000000000000000000000000000000000000000000000000000000000000130000000000000000000000000000000000001300000000000000000000000000000000000000000000001300000000000000000000000000000000
#03116:140000000000000000000000000000000000001400000000000000000000000000000000140000000000000000000000140000000000000000000000000000000000001400000000000000000000000000000000000000000000000000000000
#03112:000000000000000000000000000000000000000000000000000000000000001400000000000000000000000000000000000000000000000000000000000000000000000000000000000000000000000000000000000000000000000000000000
#03115:0000000000000013
#0311a:000000000000000000000000000000000000000000000000000000000000000000000000000000000000001400000000000000000000000000000000000000000000000000000000000000000000000000000000000000000000000000000000
#03118:0000000000000013
#0321b:2313000023130013
#03214:000000000000000000000000000000000000001400000000000000000000000000000000000000000000000000000000000000000000000000000000000000000000000000000000000000000000000000000000000000000000000000000000
#03212:230000000000000000000000000000000000000000000000000000000000001300000000000000000000000000000000230000000000000000000000000000000000000000000000130000000000000000000000000000000000000000000000
#03216:000000000000001400000000000000000000000000000000000000000000000000000000140000000000000000000000000000000000000000000000000000000000000000000000000000000000000000000000000000000000000000000000
#03215:000000000000000000000000000000000000000000000000000000000000000000000000000000000000000000000000000000000000001400000000000000000000000000000000000000000000001400000000000000000000000000000000
#03217:000000000000000000000000000000000000000000000000000000000000000000000000000000000000000000000000000000000000000000000000000000000000001400000000000000000000000000000000000000000000001400000000
#03218:00240000
#0331b:000000000000000000000000130000000000001300000000000000000000000000000000000000000000000000000000000000000000000000000000130000000000000000000000000000000000000000000000000000000000000000000000
#03315:000000000000000000000000130000000000000000000000130000000000001300000000000000000000000000000000000000000000000000000000000000000000000000000000000000000000000000000000000000000000000000000000
#03318:000000000000000000000000000000000000000000000000000000000000000000000000130000000000001300000000000000000000000000000000000000000000000000000000000000000000000000000000000000000000001300000000
#03312:130000130014
#0331a:000000000014
#03316:0000000000130054
#03314:000000000000000000000000000000000000000000000000000000000000000000000000000000000054000000000000
#03415:13
#0341a:0014000000000000
#03412:000000000000000000000000000000000000001400000000000000000000000000000000130000000000000000000000000000000000000000000000000000000000000000000000000000000000000000000000000000000000000000000000
#0341b:000000000000000000000000000013000000000000130000
#03416:0000000000000014
#03512:130000000000000000000000000000000000000000000000000000000000000000000000530000000000000000000000000000000000000000000000130000000000001600000000000000000000000000000000000000000000000000000000
#0351b:000000000013000000000000130000000000130000000000
#03515:000000000000000000000000000000000000000000000000000000000000001300000000000000000000000000000000000000000000000000000000000000000000000000000000000000000000000000000000150000000000000000000000
#03518:0000001300000000
#03516:140000000014000000000000130000000000000000000000
#03918:00120000
#03916:00000012000014001400140014001400
#03912:000000000000001300000000000000000000000000000000000000000000000000000000000000000000000000000000000000000000001400000000000000000000000000000000000000000000001400000000000000000000000000000000
#0391a:000000000000000000000000000000000000000000000000000000000000000000000000000000000000001400000000000000000000000000000000000000000000001400000000000000000000000000000000000000000000000000000000
#0401a:000000000000000000000000000000000000000000000000000000000000000000000000140000000000001400000000000000000000000000000000000000000000000000000000000000000000000000000000000000000000000000000000
#04015:220000000000002200000000000000000000002300000000000000000000000000000000000000000000000000000000000000000000000000000000000000000000000000000000000000000000000000000000000000000000000000000000
#04019:220000000000002200000000000000000000000000000000000000000000000000000000000000000000000000000000000000000000000000000000000000000000000000000000000000000000000000000000000000000000000000000000
#04018:00230000
#04012:000000000000000000000000000000000000000000000000000000000000000000000000240000000000002400000000000000000000000000000000000000000000000000000000000000000000000000000000000000000000000000000000
#04312:1413
#04318:0054
#0421a:14
#0421b:0013
#04214:0054
#04912:2300000000000013
#04916:000000000000000000000000000000000000000000000000000000000000000000000000000000000000000000000000000000000000000000000000000000000000000000000000000000000000000000000000000000000000000000000000000000000000000000000000000000000000000000000000000000000000000000000000000000000000000000000000000000000000000000000000000000000000000000000000000000000000000000000000000000000000000000000000000000000000000000000000000000000000000000000000000000000000000000000000000000000000000000000000000000000000000000000000000000000000000000000000000000000000000000000000000000000000000000000000000000000000000000000000000000000000000000000000000000000000000000000000000000000000000000000000000000000000000000000000000000000000000000000000000000000000000000000000000000000000000000000000000000000000000000000000000000000000000000000000000000000000000000000000000000000000000000000000000000000000000000000000000000000000000000000000000000000000000000000000000000000000000000000000000000000000000000000000000000000000000000000000000000000000000000000000000000000000000000000000000000000000000000000000000000000000000000000000000000000000000000000000000000000000000000000000000000000000000000000000000000000000000000000000000000000000000000000000000000000000000000000000000000000000000000000000000000000000000000000000000000000000000000000000000000000000000000000000000000000000000000000000000000000000000000000000000000000000000000000000000000000000000000000000000000000000000000000000000000000000000000000000000000000000000000000000000000000000000000000000000000000000000000000000000000000000000000000000000000000000000000000000000000000000000000000000000000000000000000000000000000000000000000000000000000000000000000000000000000000000000000000000000000000000000000000000000000000000000000000000000000000000000000000000000000000000000000000000000000000000000000000000000000000000000000000000000000000000000000000000000000000000000000000000000000000000000000000000000000000000000000000000000000000000000000000000000000000000000000000000000000000000000000000000000000000000000000000000000000000000000000000000000000000000000000000000000000000000000000000000000000000000000000000000000000000000000000000000000000000000000000000000000000000000000000000000000000000000000000000000000000000000000000000000000000000000000000000000000000000000000000000000000000000000000000000000000000000000000000000000000000000000000000000000000000000000000000000000000000000000000000000000000000000000000000000000000000000000000000000000000000000000000000000000000000000000000000000000000000000000000000000000000000000000000000000000000000000000000000000000000000000000000000000000000000000000000000000000000000000000000000000000000000000000000000000000000000000000000000000000000000000000000000000000000000000000000000000000000000000000000000000000000000000000000000000000000000000000000000000000000000000000000000000074540000000000000000000000000000000000000000000000000000000000000000000000000000000000000000000000000000000000000000000000000000000000000000000000000000000000000000000000000000000000000000000000000000000000000000000000000000000000000000000000000000000000000000000000000000000000000000000000000000000000000000000000000000000000000000000000000000000000000000000000000000000000000000000000000000000000000000000000000000000000000000000000000000000000000000000000000000000000000000000000000000000000000000000000000000000000000000000000000000000000000000000000000000000000000000000000000000000000000000000000000000000000000000000000000000000000000000000000000000000000000000000000000000000000000000000000000000000000000000000000000000000000000000000000000000000000000014000000000000000000000000000000000000000000000000000000000000000000000000000000000000000000000000000000000000000000000000000000000000000000000000000000000000000000000000000000000000000000000000000000
#0491b:2300000000000013
#05012:140000000000000000000000000000000000000000000000000000000000000000000000130000000000000000000000000000000000001300000000000000000000000000000000000000000000001300000000000000000000000000000000
#0501a:000000000000000000000000000000000000001400000000000000000000000000000000000000000000000000000000000000000000000000000000000000000000000000000000000000000000000000000000000000000000001400000000
#05016:0000001400000000
#05017:00001616
#05013:0000000000160016
#0501b:000000000000000000000000000000000000000000000000000000000000000000000000000000000000001300000000000000000000000000000000000000000000001300000000000000000000000000000000000000000000000000000000
#0501f:21
#05010:0041
#05116:140000000000000000000000000000000000001400000000000000000000000000000000140000000000000000000000140000000000000000000000000000000000001400000000000000000000000000000000000000000000000000000000
#0511a:140000000000000000000000000000000000000000000000000000000000001400000000000000000000000000000000000000000000000000000000000000000000000000000000000000000000000000000000000000000000000000000000
#05118:0000000000000016
#05112:000000000000000000000000000000000000000000000000000000000000000000000000000000000000001400000000140000000000000000000000000000000000000000000000000000000000000000000000160000000000000000000000
#0521b:1313
#05212:1314001413160016
#05216:000000000000001400000000000000000000001400000000000000000000001400000000000000000000000000000000000000000000001400000000000000000000001400000000000000000000001400000000000000000000001400000000
#05218:00000016
#0521a:00140000
#05318:160000000000000000000000130000000000000000000000130000000000001300000000000000000000000000000000000000000000000000000000000000000000000000000000000000000000000000005400000000000000000000000000
#05312:000000000000000000000000130000000000001600000000000000000000000000000000000000000000000000000000000000000000000000000000130000000000000000000000000000000000000014000000000000000000000000000000
#05315:000000000000000000000000000000000000000000000000000000000000000000000000130000000000001600000000000000000000000000000000000000000000000000000000000000000000000000000000000000000000001300000000
#0531b:0013
#0531a:000000000014
#05317:0000000000130000
#05316:0000000000000054
#05418:13
#05412:000000140000000000000000000013000000000000130000
#0541a:000000000000000000000000000000000000001400000000000000000000000000000000000000000000000000000000000000000000000000000000000000000000000000000000000000000000000000000000000000000000000000000000
#0541b:0000001300000000
#05416:0000000000000018
#0551b:1300005300130000
#05512:000000000000000000000000000000000000001300000000000000000000000000000000000000000000000000000000130000000000000000000000000000000000000000000000130000000000000000000000000000000000000000000000
#05518:000000000000000000000000000000000000000000000000000000000000001300000000000000000000000000000000000000000000000000000000000000000000000000000000000000000000000000000000000000000000000000000000
#05515:0000001300000000
#05517:0000000013000014
#05516:140000000000000000000000000000000000001400000000000000000000000000000000000000000000000000000000000000000000000000000000000000000000001600000000000000000000000000000000000000000000000000000000
#05617:0014000000000000
#05612:1500130000001313
#0561b:000000000000000000000000000000000000000000000000000000000000000000000000000000000000001300000000000000000000000000000000130000000000001300000000000000000000000000000000000000000000000000000000
#05616:000000000000000000000000000000000000000000000000000000000000000000000000000000000000000000000000140000000000001400000000000000000000000000000000000000000000001400000000000000000000000000000000
#05718:000000000000000000000000000000000000001300000000000000000000000000000000130000000000000000000000000000000000000000000000130000000000000000000000000000000000000000000000000000000000000000000000
#05712:240000000000002400000000000000000000000000000000130000000000000000000000000000000000000000000000000000000000000000000000530000000000000000000000000000000000000000000000130000000000000000000000
#05715:000000000000000000000000000000000000000000000000000000000000001300000000000000000000000000000000130000000000000000000000000000000000000000000000530000000000000000000000000000000000000000000000
#0571b:000000000000000000000000000000000000000000000000000000000000000000000000000000000000001300000000000000000000000000000000000000000000000000000000530000000000000000000000130000000000000000000000
#05716:000000000000000000000000000000000000000000000000000000000000000000000000000000000000000000000000000000000000000000000000000000000000000000000000000000000000000000000000000000000000001400000000
#0571a:240000000000002400000000000000000000000000000000000000000000000000000000000000000000000000000000000000000000000000000000000000000000000053000000000000000000000000000000000000000000000000000000
#05713:000053
#05714:000000000000000000000000000000000053000000000000
#05719:000053
#0581a:14
#05812:000000000000000000000000000000000000001400000000000000000000000000000000000000000000001300000000000000000000000000000000000000000000001300000000000000000000000000000000000000000000001400000000
#05816:0000001400000000
#05813:00001616
#05817:0000000000160016
#0581b:000000000000000000000000000000000000000000000000000000000000000000000000130000000000000000000000000000000000001300000000000000000000000000000000000000000000001300000000000000000000000000000000
#05916:140000000000000000000000000000000000001400000000000000000000000000000000140000000000000000000000140000000000000000000000000000000000001400000000000000000000000000000000000000000000000000000000
#05912:140000000000000000000000000000000000000000000000000000000000001400000000000000000000000000000000000000000000000000000000000000000000000000000000000000000000000000000000160000000000000000000000
#0591a:000000000000000000000000000000000000000000000000000000000000000000000000000000000000001400000000140000000000000000000000000000000000000000000000000000000000000000000000000000000000000000000000
#05918:0000000000000016
#06012:13141316
#0601a:0014001400000000
#06016:000000000000001400000000000000000000001400000000000000000000001400000000000000000000000000000000000000000000001400000000000000000000001400000000000000000000001400000000000000000000001400000000
#0601b:1313
#06018:0000000000160016
#06112:160000130014
#0611b:0013000000130000
#06118:000000000000000000000000000000000000001600000000000000000000000000000000130000000000000000000000000000000000000000000000000000000000000000000000000000000000000000000000000000000000001300000000
#06115:000000000000000000000000130000000000000000000000130000000000001300000000000000000000001600000000000000000000000000000000000000000000000000000000000000000000000000000000000000000000000000000000
#0611a:000000000014
#06116:0000000000130054
#06114:000000000000000000000000000000000000000000000000000000000000000000000000000000000054000000000000
#06215:13
#0621a:0014000000000000
#06212:000000000000000000000000000000000000001400000000000000000000000000000000130000000000000000000000000000000000000000000000000000000000000000000000000000000000000000000000180000000000000000000000
#0621b:000000000000000000000000000013000000000000130000
#06312:1300005300130000
#0631b:000000000000000000000000000000000000001300000000000000000000000000000000000000000000000000000000130000000000000000000000000000000000000000000000130000000000000000000000000000000000000000000000
#06315:000000000000000000000000000000000000000000000000000000000000001300000000000000000000000000000000000000000000000000000000000000000000000000000000000000000000000000000000140000000000000000000000
#06318:0000001300000000
#06316:140000000000000000000000000000000000001400000000000000000000000000000000000000000000000000000000130000000000000000000000000000000000000000000000000000000000000000000000000000000000000000000000
#06314:000000000000000000000000000000000000000000000000000000000000000000000000000000000000000000000000000000000000000000000000000000000000001600000000000000000000000000000000000000000000000000000000
#06419:15
#06415:0014001300130013
#06412:00131616
#06512:16
#02012:2c
#00252:6300001300005300
#00258:0000000000000053
#00257:000000000000000000000000000000000000006300000000000000000000000000000000000000000000000000000000000000000000000000000000000000000000000000000000000000000000000000000000000000000000000000000000
#00256:0000001400000000
#00255:0000000000000053
#0035b:13
#00352:130000000000000000000000000000000000000000000000000000000000000000000000000000000000003400000000000000000000000000000000000000000000003400000000000000000000000000000000000000000000000000000000
#0035a:000000000000000000000000000000000000000000000000000000000000000000000000000000000000000000000000000000000000004400000000000000000000000000000000000000000000004400000000000000000000000000000000
#0075a:00140000
#01152:0014
#02052:1c
#02155:0053
#02256:000000000000000000000000000000000000001400000000000000000000000000000000000000000000000000000000000000000000000000000000000000000000000000000000000000000000000000000000000000000000000000000000
#0225a:000000000000000000000000000000000000001400000000000000000000000000000000000000000000000000000000000000000000000000000000000000000000000000000000000000000000000000000000000000000000000000000000
#02252:54
#02255:0000000000000015
#02356:540000000000000000000000000000000000001400000000000000000000000000000000000000000000000000000000640000000000000000000000000000000000001400000000000000000000000000000000000000000000000000000000
#02352:000000000000000000000000000000000000001400000000000000000000000000000000000000000000000000000000000000000000000000000000000000000000000000000000000000000000000000000000000000000000000000000000
#0235a:000000000000000000000000000000000000000000000000000000000000000000000000000000000000000000000000000000000000000000000000000000000000001400000000000000000000000000000000000000000000000000000000
#0255b:130000000000000000000000000000000000000000000000000000000000000000000000000000000000000000000000000000000000000000000000000000000000001300000000000000000000000000000000000000000000000000000000
#02557:0000000000530000
#02552:0000000000530000
#02556:000000000000000000000000000000000000000000000000000000000000000000000000000000000000000000000000000000000000000000000000000000000000001300000000000000000000000000000000000000000000000000000000
#0265b:0000005300001300
#02652:000000000000005300000000
#02658:13
#02656:000000000000000000000000000000000000000000000000000000000000000000000000000000000000001400000000000000000000000000000000000000000000000000000000140000000000000000000000000000000000000000000000
#02756:14
#0275b:13
#02752:0053
#02852:00630000
#03652:0015
#03659:00150015
#03752:15
#03758:0000000046464646
#0445a:54
#0445b:0053
#04152:5453
#04157:53
#0475a:64
#04952:53
#0495b:63
#00552:0000000000000014
#0055a:0054
#00556:000000000000000000000000000000000000000000000000000000000000000000000000000000000000000000000000000000000000000000000000000000000000000000000000000000000000000000000000000000000000000000000000000000000000000000000000000000000000000000000000000000000000000000000000000000000000000000000000000000000000000000000000000000000000000000000000000000000000000000000000000000000000000000000000000000000000000000000000000000000000000000000000000000000000000000000000000000000000000000000000000000000000000000000000000000000000000000000000000000000000000000000000000000000000000000000000000000000000000000000000000000000000000000000000000000000000000000000000000000000000000000000000000000000000000000000000000000000000000000000000000000000000000000000000000000000000000000000000000000000000000000000000000000000000000000000000000000000000000000000000000000000000000000000000000000000000000000000000000000000000000000000000000000000000000000000000000000000000000000000000000000000000000000000000000000000000000000000000000000000000000000000000000000000000000000000000000000000000000000000000000000000000000000000000000000000000000000000000000000000000000000000000000000000000000000000000000000000000000000000000000000000000000000000000000000000000000000000000000000000000000000000000000000000000000000000000000000000000000000000000000000000000000000000054000000000000000000000000000000000000000000000000000000000000000000000000000000000000000000000000000000000000000000000000000000000000000000000000000000000000000000000000000000000000000000000000000000000000000000000000000000000000000000000000000000000000000000000000000000000000000000000000000000000000000000000000000000000000000000000000140000000000000000000000000000000000000000000000000000000000000000000000000000000000000000000000000000000000000000000000000000000000000000000000000000000000000000000000000000000000000000000000000000000000000000000000000000000000000000000000
#00858:53
#0085b:000000000000001300000000000000000000000000000000000000000000000000000000000000000000000000000000000000000000000000000000000000000000000000000000000000000000000000000000000000000000000000000000
#00856:000000000000000000000000000000000000000000000000000000000000000000000000000000000000004400000000000000000000000000000000000000000000000000000000000000000000000000000000000000000000000000000000
#01052:0016
#01058:0016
#0125a:0014
#01258:0000000000000052
#02452:0000000000130013
#0245b:00000013
#0305a:64
#03052:000000000000000000000000000000000000001400000000000000000000000000000000000000000000000000000000000000000000000000000000000000000000000000000000000000000000000000000000000000000000000000000000
#03056:000000000000000000000000000000000000001400000000000000000000000000000000000000000000000000000000000000000000000000000000000000000000000000000000000000000000000000000000150000000000000000000000
#03156:640000000000000000000000000000000000001400000000000000000000000000000000000000000000000000000000540000000000000000000000000000000000001400000000000000000000000000000000000000000000000000000000
#0315a:000000000000000000000000000000000000001400000000000000000000000000000000000000000000000000000000000000000000000000000000000000000000000000000000000000000000000000000000000000000000000000000000
#03152:000000000000000000000000000000000000000000000000000000000000000000000000000000000000000000000000000000000000000000000000000000000000001400000000000000000000000000000000000000000000000000000000
#03455:13
#03452:0000006300001300
#0345b:000000000000006300000000
#03456:000000000000000000000000000000000000000000000000000000000000000000000000000000000000001400000000000000000000000000000000000000000000000000000000140000000000000000000000000000000000000000000000
#02958:0063
#03552:13
#03556:14
#0355b:0063
#03858:4600001600000000
#03855:000000000000000000000000000000000000000000000000000000000000000000000000000000000000000000000000000000000000000000000000000000000000000000000000000000000000000000000000000000000000000000000000000000000000000000000000000000000000000000000000000000000000000000000000000000000000000000000000000000000000000000000000000000000000000000000000000000000000000000000000000000000000000000000056000000000000000000000000000000000000000000000000000000000000000000000000000000000000000000000000000000000000000000000000000000000000000000000000000000000000000000000000000000000000000000000000000000000000000000000000000000000000000000000000000000000000000000000000000000000000000000000000000000000000000000000000000000000000000000000000000000000000000000000000000000000000000000000000000000000000000000000000000000000000000000000000000000000000000000000000000000000000000000000000000000000000000000000000000000000000000000000000000000000000000000000000000000000000000000000000000000000000000000000000000000000000000000000000000000000000000000000000000000000000000000000000000000000000000000000000000000000000000000000000000000000000000000000000000000000000000000000000000000000000000000000000000000000000000000000000000000000000000000000000000000000000000000000000000000000000000000000000000000000000000000000000000000000000000000000000000000000000000000000000000000000000000000000000000000000000000000000000000000000000000000000000000000000000000000000000000000000000000000000000000000000000000000000000000000000000000000000000000000000000000000000000000000000000000000000000000000000000000000000000000000000000000000000000000000000000000000000000000000000000000000000000000000000000000000000000000000000000000000000000000000000000000000000000000000000000000000000000000000000000000000000000000000000000000000000000000000000000000000000000000000000000000000000000000000000000000000000000000000000000000000000000000000000000000000000000
#03852:5600001600000000
#04052:000000000000000000000000000000000000000000000000000000000000000000000000000000000000001400000000000000000000000000000000000000000000000000000000000000000000000000000000000000000000000000000000
#0405a:000000000000000000000000000000000000000000000000000000000000000000000000000000000000001400000000000000000000000000000000000000000000000000000000000000000000000000000000000000000000000000000000
#04352:5453
#0425a:54
#0425b:0053
#0455a:00140000
#04552:00000014
#0465a:00140000
#04652:00000014
#05052:54
#0505a:000000000000000000000000000000000000001400000000000000000000000000000000000000000000000000000000000000000000000000000000000000000000000000000000000000000000000000000000000000000000000000000000
#05053:0000000000000016
#05056:000000000000000000000000000000000000001400000000000000000000000000000000000000000000000000000000000000000000000000000000000000000000000000000000000000000000000000000000000000000000000000000000
#05156:540000000000000000000000000000000000001400000000000000000000000000000000000000000000000000000000640000000000000000000000000000000000001400000000000000000000000000000000000000000000000000000000
#05152:000000000000000000000000000000000000001400000000000000000000000000000000000000000000000000000000000000000000000000000000000000000000000000000000000000000000000000000000000000000000000000000000
#0515a:000000000000000000000000000000000000000000000000000000000000000000000000000000000000000000000000000000000000000000000000000000000000001400000000000000000000000000000000000000000000000000000000
#05252:0000000000160016
#05258:00000016
#05358:16
#05352:0000000000530000
#05357:0000000000530000
#05356:000000000000000000000000000000000000000000000000000000000000000000000000000000000000000000000000000000000000000000000000000000000000001300000000000000000000000000000000000000000000000000000000
#0535b:000000000000000000000000000000000000000000000000000000000000000000000000000000000000000000000000000000000000000000000000000000000000001300000000000000000000000000000000000000000000000000000000
#05458:13
#0545b:0000005300001300
#05452:000000000000005300000000
#05456:000000000000000000000000000000000000000000000000000000000000000000000000000000000000001400000000000000000000000000000000000000000000000000000000140000000000000000000000000000000000000000000000
#0555b:13
#05556:14
#05552:0053
#05652:00630000
#05755:0053
#0585a:64
#05852:000000000000000000000000000000000000001400000000000000000000000000000000000000000000000000000000000000000000000000000000000000000000000000000000000000000000000000000000000000000000000000000000
#05857:0000000000000016
#05856:000000000000000000000000000000000000001400000000000000000000000000000000000000000000000000000000000000000000000000000000000000000000000000000000000000000000000000000000000000000000000000000000
#05956:640000000000000000000000000000000000001400000000000000000000000000000000000000000000000000000000540000000000000000000000000000000000001400000000000000000000000000000000000000000000000000000000
#0595a:000000000000000000000000000000000000001400000000000000000000000000000000000000000000000000000000000000000000000000000000000000000000000000000000000000000000000000000000000000000000000000000000
#05952:000000000000000000000000000000000000000000000000000000000000000000000000000000000000000000000000000000000000000000000000000000000000001400000000000000000000000000000000000000000000000000000000
#06058:0000000000160016
#06052:00000016
#06152:160000000000000000000000000000000000000000000000000000000000000000000000000000000000000000000000000000000000000000000000000000000000001300000000000000000000000000000000000000000000000000000000
#0615b:0000000000630000
#06156:0000000000630000
#06157:000000000000000000000000000000000000000000000000000000000000000000000000000000000000000000000000000000000000000000000000000000000000001300000000000000000000000000000000000000000000000000000000
#06255:13
#06252:0000006300001300
#0625b:000000000000006300000000
#06256:000000000000000000000000000000000000000000000000000000000000000000000000000000000000001400000000000000000000000000000000000000000000000000000000140000000000000000000000000000000000000000000000
#06352:13
#06356:14
#0635b:0063
#06455:0054000000000000
#06452:00003636
#06552:36
#0655a:14
#00156:14
#00652:0064
#00656:000000000000000000000000000000000000000000000000000000000000000000000000000000000000000000000000000000000000000000000000000000000000000000000000000000000000000000000000000000000000000000000000000000000000000000000000000000000000000000000000000000000000000000000000000000000000000000000000000000000000000000000000000000000000000000000000000000000000000000000000000000000000000000000000000000000000000000000000000000000000000000000000000000000000000000000000000000000000000000000000000000000000000000000000000000000000000000000000000000000000000000000000000000000000000000000000000000000000000000000000000000000000000000000000000000000000000000000000000000000000000000000000000000000000000000000000000000000000000000000000000000000000000000000000000000000000000000000000000000000000000000000000000000000000000000000000000000000000000000000000000000000000000000000000000000000000000000000000000000000000000000000000000000000000000000000000000000000000000000000000000000000000000000000000000000000000000000000000000000000000000000000000000000000000000000000000000000000000000000000000000000000000000000000000000000000000000000000000000000000000000000000000000000000000000000000000000000000000000000000000000000000000000000000000000000000000000000000000000000000000000000000000000000000000000000000000000000000000000000000000000000000000000000000064000000000000000000000000000000000000000000000000000000000000000000000000000000000000000000000000000000000000000000000000000000000000000000000000000000000000000000000000000000000000000000000000000000000000000000000000000000000000000000000000000000000000000000000000000000000000000000000000000000000000000000000000000000000000000000000000140000000000000000000000000000000000000000000000000000000000000000000000000000000000000000000000000000000000000000000000000000000000000000000000000000000000000000000000000000000000000000000000000000000000000000000000000000000000000000000000
#0065a:0000000000000014
#00952:0064
#00956:000000000000000000000000000000000000000000000000000000000000000000000000000000000000000000000000000000000000000000000000000000000000000000000000000000000000000000000000000000000000000000000000000000000000000000000000000000000000000000000000000000000000000000000000000000000000000000000000000000000000000000000000000000000000000000000000000000000000000000000000000000000000000000000000000000000000000000000000000000000000000000000000000000000000000000000000000000000000000000000000000000000000000000000000000000000000000000000000000000000000000000000000000000000000000000000000000000000000000000000000000000000000000000000000000000000000000000000000000000000000000000000000000000000000000000000000000000000000000000000000000000000000000000000000000000000000000000000000000000000000000000000000000000000000000000000000000000000000000000000000000000000000000000000000000000000000000000000000000000000000000000000000000000000000000000000000000000000000000000000000000000000000000000000000000000000000000000000000000000000000000000000000000000000000000000000000000000000000000000000000000000000000000000000000000000000000000000000000000000000000000000000000000000000000000000000000000000000000000000000000000000000000000000000000000000000000000000000000000000000000000000000000000000000000000000000000000000000000000000000000000000000000000000000064000000000000000000000000000000000000000000000000000000000000000000000000000000000000000000000000000000000000000000000000000000000000000000000000000000000000000000000000000000000000000000000000000000000000000000000000000000000000000000000000000000000000000000000000000000000000000000000000000000000000000000000000000000000000000000000000140000000000000000000000000000000000000000000000000000000000000000000000000000000000000000000000000000000000000000000000000000000000000000000000000000000000000000000000000000000000000000000000000000000000000000000000000000000000000000000000
#0095a:0000000000000014
#0395a:000000000000000000000000000000000000000000000000000000000000000000000000000000000000004400000000000000000000000000000000000000000000004400000000000000000000000000000000000000000000000000000000
#03952:000000000000000000000000000000000000000000000000000000000000000000000000000000000000000000000000000000000000003400000000000000000000000000000000000000000000003400000000000000000000000000000000
#0325b:0000000000130013
#03252:00000013
#03352:130000000000000000000000000000000000000000000000000000000000000000000000000000000000000000000000000000000000000000000000000000000000001300000000000000000000000000000000000000000000000000000000
#0335b:0000000000630000
#03356:0000000000630000
#03357:000000000000000000000000000000000000000000000000000000000000000000000000000000000000000000000000000000000000000000000000000000000000001300000000000000000000000000000000000000000000000000000000
#002320:1300002300000000
#002370:000000000000000000000000000000000000003300000000000000000000000000000000000000000000000000000000000000000000000000000000000000000000000000000000000000000000000000000000000000000000000000000000
#002361:1400002400000000
#002321:00000013
#002351:0000000000000033
#003321:23
#002380:0000000000000013
#0033b0:23
#0053a0:0014
#005360:000000000000000000000000000000000000000000000000000000000000000000000000000000000000000000000000000000000000000000000000000000000000000000000000000000000000000000000000000000000000000000000000000000000000000000000000000000000000000000000000000000000000000000000000000000000000000000000000000000000000000000000000000000000000000000000000000000000000000000000000000000000000000000000000000000000000000000000000000000000000000000000000000000000000000000000000000000000000000000000000000000000000000000000000000000000000000000000000000000000000000000000000000000000000000000000000000000000000000000000000000000000000000000000000000000000000000000000000000000000000000000000000000000000000000000000000000000000000000000000000000000000000000000000000000000000000000000000000000000000000000000000000000000000000000000000000000000000000000000000000000000000000000000000000000000000000000000000000000000000000000000000000000000000000000000000000000000000000000000000000000000000000000000000000000000000000000000000000000000000000000000000000000000000000000000000000000000000000000000000000000000000000000000000000000000000000000000000000000000000000000000000000000000000000000000000000000000000000000000000000000000000000000000000000000000000000000000000000000000000000000000000000000000000000000000000000000000000000000000000000000000000000000000000054000000000000000000000000000000000000000000000000000000000000000000000000000000000000000000000000000000000000000000000000000000000000000000000000000000000000000000000000000000000000000000000000000000000000000000000000000000000000000000000000000000000000000000000000000000000000000000000000000000000000000000000000000000000000000000000000000000000000000000000000000000000000000000000000000000000000000000000000000000000000000000000000000000000000000000000000000000000000000000000000000000000000000000000000000000000000000000000000000000000000000000000000000000000000000000000000
#005320:0000000000000024
#006320:0014
#006360:000000000000000000000000000000000000000000000000000000000000000000000000000000000000000000000000000000000000000000000000000000000000000000000000000000000000000000000000000000000000000000000000000000000000000000000000000000000000000000000000000000000000000000000000000000000000000000000000000000000000000000000000000000000000000000000000000000000000000000000000000000000000000000000000000000000000000000000000000000000000000000000000000000000000000000000000000000000000000000000000000000000000000000000000000000000000000000000000000000000000000000000000000000000000000000000000000000000000000000000000000000000000000000000000000000000000000000000000000000000000000000000000000000000000000000000000000000000000000000000000000000000000000000000000000000000000000000000000000000000000000000000000000000000000000000000000000000000000000000000000000000000000000000000000000000000000000000000000000000000000000000000000000000000000000000000000000000000000000000000000000000000000000000000000000000000000000000000000000000000000000000000000000000000000000000000000000000000000000000000000000000000000000000000000000000000000000000000000000000000000000000000000000000000000000000000000000000000000000000000000000000000000000000000000000000000000000000000000000000000000000000000000000000000000000000000000000000000000000000000000000000000000000000000054000000000000000000000000000000000000000000000000000000000000000000000000000000000000000000000000000000000000000000000000000000000000000000000000000000000000000000000000000000000000000000000000000000000000000000000000000000000000000000000000000000000000000000000000000000000000000000000000000000000000000000000000000000000000000000000000000000000000000000000000000000000000000000000000000000000000000000000000000000000000000000000000000000000000000000000000000000000000000000000000000000000000000000000000000000000000000000000000000000000000000000000000000000000000000000000000
#0063a0:0000000000000024
#007320:0000001300000000
#007350:000000000000000000000000000000000000000000000000000000000000000000000000000000000000002300000000000000000000000000000000000000000000000000000000000000000000000000000000000000000000000000000000
#0073b0:0013
#007380:000000000000000000000000000000000000000000000000000000000000000000000000000000000000000000000000000000000000002300000000000000000000000000000000000000000000000000000000000000000000000000000000
#007330:0000000000130000
#007360:000000000000000000000000000000000000000000000000000000000000000000000000000000000000000000000000000000000000000000000000000000000000002300000000000000000000000000000000000000000000000000000000
#0073a0:00000013
#007370:000000000000000000000000000000000000000000000000000000000000000000000000000000000000000000000000000000000000000000000000000000000000000000000000000000000000002300000000000000000000000000000000
#007320:0000000000000013
#007350:000000000000000000000000000000000000000000000000000000000000000000000000000000000000000000000000000000000000000000000000000000000000000000000000000000000000000000000000000000000000002300000000
#008380:13
#0083b0:000000000000002300000000000000000000000000000000000000000000000000000000000000000000000000000000000000000000000000000000000000000000000000000000000000000000000000000000000000000000000000000000
#008320:000000000000000000000000000000000000000000000000000000000000000000000000140000000000002400000000000000000000000000000000000000000000000000000000000000000000000000000000000000000000000000000000
#009320:0014
#009360:000000000000000000000000000000000000000000000000000000000000000000000000000000000000000000000000000000000000000000000000000000000000000000000000000000000000000000000000000000000000000000000000000000000000000000000000000000000000000000000000000000000000000000000000000000000000000000000000000000000000000000000000000000000000000000000000000000000000000000000000000000000000000000000000000000000000000000000000000000000000000000000000000000000000000000000000000000000000000000000000000000000000000000000000000000000000000000000000000000000000000000000000000000000000000000000000000000000000000000000000000000000000000000000000000000000000000000000000000000000000000000000000000000000000000000000000000000000000000000000000000000000000000000000000000000000000000000000000000000000000000000000000000000000000000000000000000000000000000000000000000000000000000000000000000000000000000000000000000000000000000000000000000000000000000000000000000000000000000000000000000000000000000000000000000000000000000000000000000000000000000000000000000000000000000000000000000000000000000000000000000000000000000000000000000000000000000000000000000000000000000000000000000000000000000000000000000000000000000000000000000000000000000000000000000000000000000000000000000000000000000000000000000000000000000000000000000000000000000000000000000000000000000000000054000000000000000000000000000000000000000000000000000000000000000000000000000000000000000000000000000000000000000000000000000000000000000000000000000000000000000000000000000000000000000000000000000000000000000000000000000000000000000000000000000000000000000000000000000000000000000000000000000000000000000000000000000000000000000000000000000000000000000000000000000000000000000000000000000000000000000000000000000000000000000000000000000000000000000000000000000000000000000000000000000000000000000000000000000000000000000000000000000000000000000000000000000000000000000000000000
#0093a0:0000000000000024
#012380:0000000000000012
#0133a0:24
#021350:0013
#021320:0000000000230000
#022320:14
#022360:000000000000000000000000000000000000002400000000000000000000000000000000000000000000000000000000000000000000000000000000000000000000000000000000000000000000000000000000000000000000000000000000
#023360:14
#023320:000000000000000000000000000000000000002400000000000000000000000000000000000000000000000000000000000000000000000000000000000000000000000000000000000000000000000000000000000000000000000000000000
#023360:0014
#0233a0:000000000000000000000000000000000000000000000000000000000000000000000000000000000000000000000000000000000000000000000000000000000000002400000000000000000000000000000000000000000000000000000000
#025320:0000000000130000
#025360:000000000000000000000000000000000000000000000000000000000000000000000000000000000000000000000000000000000000000000000000000000000000002300000000000000000000000000000000000000000000000000000000
#025371:0000000000130000
#0253b1:000000000000000000000000000000000000000000000000000000000000000000000000000000000000000000000000000000000000000000000000000000000000002300000000000000000000000000000000000000000000000000000000
#026361:0000142400000000
#0263b0:0000001300000000
#026360:000000000000000000000000000000000000000000000000000000000000000000000000000000000000002400000000000000000000000000000000000000000000000000000000000000000000000000000000000000000000000000000000
#026320:000000000000001300000000
#0263b0:00000023
#026361:000000000000001400240000
#027321:0013
#027361:0000000000240000
#0273b1:000000000000000000000000000000000000000000000000000000000000000000000000000000000000000000000000000000000000000000000000000000000000000000000000000000000000001300000000230000000000000000000000
#027371:000000000000000000000000000000000000000000000000000000000000000000000000000000000000000000000000000000000000000000000000000000000000000000000000000000000000000000000000000000000000001300000000
#028371:23
#0283b1:000000000000001300000000230000000000000000000000000000000000000000000000000000000000000000000000000000000000000000000000000000000000000000000000000000000000000000000000000000000000000000000000
#028371:000000000000000000000000000000000000001300000000230000000000000000000000000000000000000000000000000000000000000000000000000000000000000000000000000000000000000000000000000000000000000000000000
#028320:00130000
#028360:000000000000000000000000000000000000000000000000000000000000000000000000000000000000002400000000000000000000000000000000000000000000000000000000000000000000000000000000000000000000000000000000
#029380:0013
#0293b0:0000000000230000
#0303a0:14
#030360:000000000000000000000000000000000000002400000000000000000000000000000000000000000000000000000000000000000000000000000000000000000000000000000000000000000000000000000000000000000000000000000000
#031360:14
#0313a0:000000000000000000000000000000000000002400000000000000000000000000000000000000000000000000000000000000000000000000000000000000000000000000000000000000000000000000000000000000000000000000000000
#031360:0014
#031320:000000000000000000000000000000000000000000000000000000000000000000000000000000000000000000000000000000000000000000000000000000000000002400000000000000000000000000000000000000000000000000000000
#0333b0:0000000000130000
#033370:000000000000000000000000000000000000000000000000000000000000000000000000000000000000000000000000000000000000000000000000000000000000002300000000000000000000000000000000000000000000000000000000
#033361:0000000000130000
#033321:000000000000000000000000000000000000000000000000000000000000000000000000000000000000000000000000000000000000000000000000000000000000002300000000000000000000000000000000000000000000000000000000
#034361:0000142400000000
#034320:0000001300000000
#034360:000000000000000000000000000000000000000000000000000000000000000000000000000000000000002400000000000000000000000000000000000000000000000000000000000000000000000000000000000000000000000000000000
#0343b0:000000000000001300000000
#034320:00000023
#034361:000000000000001400240000
#0353b1:0013
#035361:0000000000240000
#035321:000000000000000000000000000000000000000000000000000000000000000000000000000000000000000000000000000000000000000000000000000000000000000000000000000000000000001300000000230000000000000000000000
#035361:000000000000000000000000000000000000000000000000000000000000000000000000000000000000000000000000000000000000000000000000000000000000000000000000000000000000000000000000000000000000001300000000
#036361:23
#036321:000000000000001300000000230000000000000000000000000000000000000000000000000000000000000000000000000000000000000000000000000000000000000000000000000000000000000000000000000000000000000000000000
#036361:000000000000000000000000000000000000001300000000230000000000000000000000000000000000000000000000000000000000000000000000000000000000000000000000000000000000000000000000000000000000000000000000
#038321:16
#038351:000000000000000000000000000000000000000000000000000000000000000000000000000000000000000000000000000000000000000000000000000000000000000000000000000000000000000000000000000000000000000000000000000000000000000000000000000000000000000000000000000000000000000000000000000000000000000000000000000000000000000000000000000000000000000000000000000000000000000000000000000000000000000000000056000000000000000000000000000000000000000000000000000000000000000000000000000000000000000000000000000000000000000000000000000000000000000000000000000000000000000000000000000000000000000000000000000000000000000000000000000000000000000000000000000000000000000000000000000000000000000000000000000000000000000000000000000000000000000000000000000000000000000000000000000000000000000000000000000000000000000000000000000000000000000000000000000000000000000000000000000000000000000000000000000000000000000000000000000000000000000000000000000000000000000000000000000000000000000000000000000000000000000000000000000000000000000000000000000000000000000000000000000000000000000000000000000000000000000000000000000000000000000000000000000000000000000000000000000000000000000000000000000000000000000000000000000000000000000000000000000000000000000000000000000000000000000000000000000000000000000000000000000000000000000000000000000000000000000000000000000000000000000000000000000000000000000000000000000000000000000000000000000000000000000000000000000000000000000000000000000000000000000000000000000000000000000000000000000000000000000000000000000000000000000000000000000000000000000000000000000000000000000000000000000000000000000000000000000000000000000000000000000000000000000000000000000000000000000000000000000000000000000000000000000000000000000000000000000000000000000000000000000000000000000000000000000000000000000000000000000000000000000000000000000000000000000000000000000000000000000000000000000000000000000000000000000000000000000000000000
#038381:0000002600000000
#039371:130000000000002300000000000000000000000000000000000000000000000000000000000000000000000000000000000000000000000000000000000000000000000000000000000000000000000000000000000000000000000000000000
#041321:14
#0423a1:34
#043321:34
#0443a1:34
#045321:24
#041370:13
#041320:0053
#0423b0:0053
#043320:0053
#0443b0:0053
#045370:23
#0473a0:14
#047360:0000002400000000
#049320:13
#049360:00000024
#0493b1:13
#049361:000000000000000000000000000000000000000000000000000000000000000000000000000000000000000000000000000000000000000000000000000000000000000000000000000000000000000000000000000000000000000000000000000000000000000000000000000000000000000000000000000000000000000000000000000000000000000000000000000000000000000000000000000000000000000000000000000000000000000000000000000000000000000000000000000000000000000000000000000000000000000000000000000000000000000000000000000000000000000000000000000000000000000000000000000000000000000000000000000000000000000000000000000000000000000000000000000000000000000000000000000000000000000000000000000000000000000000000000000000000000000000000000000000000000000000000000000000000000000000000000000000000000000000000000000000000000000000000000000000000000000000000000000000000000000000000000000000000000000000000000000000000000000000000000000000000000000000000000000000000000000000000000000000000000000000000000000000000000000000000000000000000000000000000000000000000000000000000000000000000000000000000000000000000000000000000000000000000000000000000000000000000000000000000000000000000000000000000000000000000000000000000000000000000000000000000000000000000000000000000000000000000000000000000000000000000000000000000000000000000000000000000000000000000000000000000000000000000000000000000000000000000000000000000000000000000000000000000000000000000000000000000000000000000000000000000000000000000000000000000000000000000000000000000000000000000000000000000000000000000000000000000000000000000000000000000000000000000000000000000000000000000000000000000000000000000000000000000000000000000000000000000000000000000000000000000000000000000000000000000000000000000000000000000000000000000000000000000000000000000000000000000000000000000000000000000000000000000000000000000000000000000000000000000000000000000000000000000000000000000000000000000000000000000000000000000000000000000000000000000000000000000000000000000000000000000000000000000000000000000000000000000000000000000000000000000000000000000000000000000000000000000000000000000000000000000000000000000000000000000000000000000000000000000000000000000000000000000000000000000000000000000000000000000000000000000000000000000000000000000000000000000000000000000000000000000000000000000000000000000000000000000000000000000000000000000000000000000000000000000000000000000000000000000000000000000000000000000000000000000000000000000000000000000000000000000000000000000000000000000000000000000000000000000000000000000000000000000000000000000000000000000000000000000000000000000000000000000000000000000000000000000000000000000000000000000000000000000000000000000000000000000000000000000000000000000000000000000000000000000000000000000000000000000000000000000000000000000000000000000000000000000000000000000000000000000000000000000000000000000000000000000000000000000000000000000000000000000000000000000024000000000000000000000000000000000000000000000000000000000000000000000000000000000000000000000000000000000000000000000000000000000000000000000000000000000000000000000000000000000000000000000000000000000000000000000000000000000000000000000000000000000000000000000000000000000000000000000000000000000000000000000000000000000000000000000000000000000000000000000000000000000000000000000000000000000000000000000000000000000000000000000000000000000000000000000000000000000000000000000000000000000000000000000000000000000000000000000000000000000000000000000000000000000000000000000000000000000000000000000000000000000000000000000000000000000000000000000000000000000000000000000000000000000000000000000000000000000000000000000000000000000000000000000000000000000000000000000000000000000000000000000000000000000000000000000000000000000000000000000000000000000000000000000000000000000000000000000000000000000000000000000000000000000000000000000000000000000000000000000000
#050320:14
#050360:000000000000000000000000000000000000002400000000000000000000000000000000000000000000000000000000000000000000000000000000000000000000000000000000000000000000000000000000000000000000000000000000
#051360:14
#051320:000000000000000000000000000000000000002400000000000000000000000000000000000000000000000000000000000000000000000000000000000000000000000000000000000000000000000000000000000000000000000000000000
#051360:0014
#0513a0:000000000000000000000000000000000000000000000000000000000000000000000000000000000000000000000000000000000000000000000000000000000000002400000000000000000000000000000000000000000000000000000000
#053320:0000000000130000
#053360:000000000000000000000000000000000000000000000000000000000000000000000000000000000000000000000000000000000000000000000000000000000000002300000000000000000000000000000000000000000000000000000000
#053371:0000000000130000
#0533b1:000000000000000000000000000000000000000000000000000000000000000000000000000000000000000000000000000000000000000000000000000000000000002300000000000000000000000000000000000000000000000000000000
#054361:0000142400000000
#0543b0:0000001300000000
#054360:000000000000000000000000000000000000000000000000000000000000000000000000000000000000002400000000000000000000000000000000000000000000000000000000000000000000000000000000000000000000000000000000
#054320:000000000000001300000000
#0543b0:00000023
#054361:000000000000001400240000
#055321:0013
#055361:0000000000240000
#0553b1:000000000000000000000000000000000000000000000000000000000000000000000000000000000000000000000000000000000000000000000000000000000000000000000000000000000000001300000000230000000000000000000000
#055371:000000000000000000000000000000000000000000000000000000000000000000000000000000000000000000000000000000000000000000000000000000000000000000000000000000000000000000000000000000000000001300000000
#056371:23
#0563b1:000000000000001300000000230000000000000000000000000000000000000000000000000000000000000000000000000000000000000000000000000000000000000000000000000000000000000000000000000000000000000000000000
#056371:000000000000000000000000000000000000001300000000230000000000000000000000000000000000000000000000000000000000000000000000000000000000000000000000000000000000000000000000000000000000000000000000
#056320:00130000
#056360:000000000000000000000000000000000000000000000000000000000000000000000000000000000000002400000000000000000000000000000000000000000000000000000000000000000000000000000000000000000000000000000000
#057350:0013
#057320:0000000000230000
#0583a0:14
#058360:000000000000000000000000000000000000002400000000000000000000000000000000000000000000000000000000000000000000000000000000000000000000000000000000000000000000000000000000000000000000000000000000
#059360:14
#0593a0:000000000000000000000000000000000000002400000000000000000000000000000000000000000000000000000000000000000000000000000000000000000000000000000000000000000000000000000000000000000000000000000000
#059360:0014
#059320:000000000000000000000000000000000000000000000000000000000000000000000000000000000000000000000000000000000000000000000000000000000000002400000000000000000000000000000000000000000000000000000000
#0613b0:0000000000130000
#061370:000000000000000000000000000000000000000000000000000000000000000000000000000000000000000000000000000000000000000000000000000000000000002300000000000000000000000000000000000000000000000000000000
#061361:0000000000130000
#061321:000000000000000000000000000000000000000000000000000000000000000000000000000000000000000000000000000000000000000000000000000000000000002300000000000000000000000000000000000000000000000000000000
#062361:0000142400000000
#062320:0000001300000000
#062360:000000000000000000000000000000000000000000000000000000000000000000000000000000000000002400000000000000000000000000000000000000000000000000000000000000000000000000000000000000000000000000000000
#0623b0:000000000000001300000000
#062320:00000023
#062361:000000000000001400240000
#0633b1:0013
#063361:0000000000240000
#063321:000000000000000000000000000000000000000000000000000000000000000000000000000000000000000000000000000000000000000000000000000000000000000000000000000000000000001300000000230000000000000000000000
#063361:000000000000000000000000000000000000000000000000000000000000000000000000000000000000000000000000000000000000000000000000000000000000000000000000000000000000000000000000000000000000001300000000
#064361:23
#064321:000000000000001300000000230000000000000000000000000000000000000000000000000000000000000000000000000000000000000000000000000000000000000000000000000000000000000000000000000000000000000000000000
#064350:0014000000000000
#0653a0:24
#000980:000000000000000000000000000000000000000000000000000000000000000000000000000000000000001300000000000000000000000000000000000000000000000000000000000000000000000000000000000000000000000000000000
#0009a0:0022
#000950:000000000000000000000000000000000000000000000000000000000000000000000000000000000000000000000000000000000000001300000000000000000000000000000000000000000000000000000000000000000000000000000000
#000940:0000000000220000
#000980:000000000000000000000000000000000000000000000000000000000000000000000000000000000000000000000000000000000000000000000000000000000000001300000000000000000000000000000000000000000000000000000000
#0009a0:00000022
#000950:000000000000000000000000000000000000000000000000000000000000000000000000000000000000000000000000000000000000000000000000000000000000000000000000000000000000001300000000000000000000000000000000
#000940:0000000000000022
#000980:000000000000000000000000000000000000000000000000000000000000000000000000000000000000000000000000000000000000000000000000000000000000000000000000000000000000000000000000000000000000001300000000
#0019a0:22
#010920:16525600565256002600000000000000
#010960:00000052000000520000000000000000
#021980:0000000000130000
#0219b0:00000023
#021921:0000000000130000
#021951:00000023
#0259a1:000000000014
#025961:0000000000000024
#027981:000000000000000000000000000000000000000000000000000000000000001300000000000000000000000000000000000000000000000000000000000000000000000000000000000000000000000000000000000000000000000000000000
#0279b1:0000002300000000
#029951:0000000000130000
#029921:00000023
#0299b0:0000000000130000
#029980:00000023
#033920:000000000014
#033960:0000000000000024
#035950:000000000000000000000000000000000000000000000000000000000000001300000000000000000000000000000000000000000000000000000000000000000000000000000000000000000000000000000000000000000000000000000000
#035920:0000002300000000
#047920:00000014
#0489a0:24
#0539a0:000000000014
#053960:0000000000000024
#055980:000000000000000000000000000000000000000000000000000000000000001300000000000000000000000000000000000000000000000000000000000000000000000000000000000000000000000000000000000000000000000000000000
#0559b0:0000002300000000
#057980:0000000000130000
#0579b0:00000023
#057921:0000000000130000
#057951:00000023
#061921:000000000014
#061961:0000000000000024
#063951:000000000000000000000000000000000000000000000000000000000000001300000000000000000000000000000000000000000000000000000000000000000000000000000000000000000000000000000000000000000000000000000000
#063921:0000002300000000
