This file was generated by Ched 2.7.0.0.
#TITLE ""
#ARTIST ""
#DESIGNER ""
#DIFFICULTY 0
#PLAYLEVEL
#SONGID ""
#WAVE ""
#WAVEOFFSET 0
#JACKET ""
#REQUEST "ticks_per_beat 480"
#00002: 4
#BPM01: 188
#00008: 01
#TIL00: ""
#VOLUME: ""
#HISPEED 00
#MEASUREHS 00
#0001b:1353535353535353
#00312:1353535353535353
#02314:13
#02319:13
#0231b:0000130000230000
#02318:00000000000000130000000000000000
#02312:0000230000140000
#02315:00000000000000000000000000140000
#02412:2400000000130000
#0241a:14
#02416:00000024
#00115:00000013
#0011b:5353535353000000
#00215:13
#00218:00001313
#0281b:0013000000000013
#02816:0013000000000013
#02812:0013
#02810:0041
#0301b:13131313131313130000000013000000
#03012:13131313131313130000000013000000
#03013:0013001300130013001300130013001300000000000000000000000000000000
#0301a:0013001300130013001300130013001300000000000000000000000000000000
#03115:13000013
#03118:0000130000000013
#03112:0013
#0311a:0014
#03218:0013000000001300
#03215:0000000013000013
#03212:00140000
#0321b:00130000
#03412:001a000000000000
#0341b:0013
#03417:0000000000000013
#03512:00130000
#0351b:00130000
#03517:0000000000130000
#03612:13000013
#0361b:13
#03617:0000001300000000
#0381b:00130000
#03812:00130000
#03816:0000000000130000
#03715:13
#03718:00130000
#03712:0013
#03716:0000000000000013
#0371b:0013
#0391b:13000013
#03912:13
#03916:0000001300000000
#04015:00130000
#04012:0013000023000000
#04018:0000001300000000
#0401b:1313
#04010:0041
#04112:00130000
#04117:00130000
#04212:13000013
#0421b:13
#04315:1300001300000000
#04318:00130000
#04312:0013
#0431b:0013
#04718:00000013
#0471b:0013
#04712:13
#04815:13000013
#0481b:0000001300000000
#05019:13
#04917:00000013
#0491b:0013000000000000
#0521b:00130000
#05212:13
#05215:0013
#05218:0013
#06118:00130000
#06115:13
#0611b:0013
#05719:00000014
#05714:14
#05918:0013
#05915:00000013
#0591b:00130000
#0761b:00130000
#07612:00130000
#0761a:0000000024000024
#04617:13
#04612:13
#04614:00130000
#04619:00130000
#0461b:0023
#04616:0023
#0651a:00000013
#06519:0013
#06518:00130000
#07015:0033130000000013
#07018:0033130000000000
#0701f:0021
#09112:0013
#09116:0000000000000013
#09114:001a000000000000
#09412:0013
#09414:0016000000000000
#09416:00000013
#09418:0026
#07217:1313
#07212:0013
#0721a:00000024
#0821a:00131414
#08219:13
#08214:23
#08213:00230000
#08212:0023
#08215:00000023
#0831a:14141414
#08312:0023230000000000
#08315:0000000000230023
#0841a:14141414
#08415:23000023
#0851a:14141400
#08512:00001414
#08518:0000000000000023
#08514:23
#08513:00230000
#08510:0041
#04512:13
#0451b:13000013
#04416:00130000
#0441b:00130000
#0561a:00140000
#01812:1616161600000000
#01813:0016001600160016001600160016001600000000000000000000000000000000
#01814:00160016001600160000000000000000
#01818:26000013
#01815:00000013
#0191b:0000001300000000
#01915:0013000000000000
#0191a:0014
#01916:0000000000000014
#01912:0000000000000023
#02112:00000013
#0211b:0000000000000013
#0211a:0000001400000000
#02116:1400002300000000
#02012:00140000
#02016:0000000000140000
#0201b:0000000000230000
#0251b:1313
#02512:0000130000000013
#02517:0000000000000013
#02516:24242400
#0661b:0000001300000000
#06618:00000013
#06615:13000013
#06612:0000001300000000
#0751b:13
#07516:00000013
#07517:0000001300000000
#07512:24
#07812:00000013
#07816:0000000000000014
#0781a:0000002400000000
#07912:1314
#0791b:0013000000000000
#07916:00140014
#08812:14141400
#08818:00000013
#08815:0000000000000013
#08819:23
#0881a:00230000
#0881b:0023
#08915:0013000000001300
#08918:0000000013000013
#0891a:00140000
#08912:00230000
#01615:13
#01618:0013000024000014
#01612:0000001300000000
#01614:0000000014000024
#0601b:13
#06018:0000001300000000
#06012:13
#06015:0000001300000000
#07418:1300000000000013
#07415:0013000000001300
#07412:00130000
#0741a:0000240000240000
#00417:0013
#00412:5353535353000000
#00516:00130000
#00618:13
#00615:00131300
#0061b:00000013
#00712:13130000
#00715:00000013
#00718:0013
#00815:13
#00812:00001313
#0081b:00130000
#00915:13
#00918:00131300
#00912:00000013
#0101b:13130000
#01018:00000013
#01015:0013
#01118:13
#0111b:00001313
#01112:00130000
#0121a:00000000000000000000000000140000
#01217:0012
#01218:1300000000130000
#01412:13
#0141b:13
#01418:00130000
#01518:0013
#0151b:00000023
#01512:00000023
#02919:0000000000000013
#02914:0000000000000013
#02712:23000013
#0331a:14
#03312:1313
#03315:00130000
#03318:0000001300000000
#0331b:00000013
#03316:00000022
#05315:00000013
#05312:0013
#05412:0000001300000000
#05418:13000013
#05415:0000000000330000
#0541b:00330000
#05515:00141400
#05510:0041
#05812:13131300
#05816:0000000000000013
#0581f:0011
#05817:0023
#06418:0000000000000013
#0641a:0014
#06412:0023
#06712:0013000000000000
#0671b:0013000000000000
#06715:0053
#06718:0053
#07112:0013
#0711b:00130000
#07118:13
#07115:00130000
#07117:0000000000130000
#07110:00410000
#08019:13
#08014:13
#08017:00000000000000000000000000140000
#08015:00000000000000140000000000000000
#0801a:0000240000240000
#08012:00240000
#08118:00000013
#08116:00140000
#0811a:0014
#08115:00000023
#08112:24
#09012:14
#09018:00131322
#09015:0000001300130000
#0901b:23
#0921a:00140000
#09216:0000000000140000
#09212:00230000
#09312:15000025
#09316:0000001500000000
#09318:00000016
#0931a:24
#09712:0013
#0971b:0013
#0961b:13
#09617:00130000
#01713:0000150000250000
#01718:0000250000150000
#02218:13
#02215:0013000000000000
#02212:00130000
#02216:00000014
#02217:0000001300000000
#06218:00140000
#0621a:00000000000000000000000000000000005300000000000000000000000000000000000000000000000000000000000000000000000000000000000000000000
#0621b:0000000000000000005300000000000000000000000000000000000000000000
#06317:14
#06316:00000014
#06319:00530000000000000000000000000000000000000000000000000000000000000000000000000000000000000000000000005300000000000000000000000000
#0631a:0053000000000000000000000000000000000000000000000000000000000000
#06318:00000000000000000000000000000000000000000000000000000000000000000000000000000000000000000000000000530000000000000000000000000000
#06913:0013
#0691a:0013
#06912:00000022
#0691c:00000022
#08612:14141414
#08618:00230000
#0861b:0000000023000023
#08712:14141414
#0871b:23
#08718:00000023
#07318:0013001300000000
#07315:00130000
#0731b:1313
#07312:0000000024000024
#01314:002a
#01310:0041
#02616:00230000
#02614:0000000000230000
#02617:0000000000000023
#02619:0023
#07716:0000000000240000
#05114:00330000
#05119:00330000
#10016:00520000
#10018:00520000
#03356:00000022
#0335a:14
#03452:005a000000000000
#03457:0000000000000023
#0345b:0053
#03456:0012
#07055:00230000
#07058:00234600
#07052:0036
#09452:0063
#09454:0026000000000000
#09458:0046
#09456:00000023
#09152:0053
#09156:0000000000000023
#09154:006a000000000000
#09158:0012
#04855:53000053
#0485b:0000006300000000
#03557:0000000000230000
#0355b:00530000
#03657:0000002300000000
#0365b:53000013
#03752:0063
#03756:0000000000000023
#03852:00630000
#03856:0000000000230000
#03956:0000002300000000
#03952:53000013
#02856:0053000000000053
#0285b:0053000000000053
#02857:0013
#02852:0053
#04157:00630000
#0425b:63
#04257:00000013
#0405b:0063
#04052:0013
#04352:0053
#04552:53
#04556:00000013
#04456:00530000
#0565a:00540000
#01658:0014
#01654:0000000000000014
#01753:0000000000150000
#01758:00150000
#01858:16000053
#01852:2626262600000000
#01854:00260026002600260000000000000000
#01853:0056005600560056005600560056005600000000000000000000000000000000
#01955:0053000000000000
#0195a:0024
#01956:0000000000000064
#01952:0013
#0215a:0000006400000000
#02156:24
#02152:14
#02052:00240000
#02056:0000000000640000
#0205a:00140000
#05759:00000064
#05754:54
#07352:0014
#0735b:0053
#07552:14
#0755b:53
#07556:00000053
#07557:0000002300000000
#07652:0000000000000014
#0765a:0000000014000054
#07752:0000000000140000
#07756:0000140000540000
#07852:0000001400000000
#0785a:1400005400000000
#0855a:0014
#0315a:0014
#08852:0014
#09058:00000022
#09052:14
#0255b:0053
#02557:0000000000000053
#03052:53535353535353530000000000000000
#03053:0053005300530053005300530053005300000000000000000000000000000000
#0305b:63636363636363630000000000000000
#0305a:0063006300630063006300630063006300000000000000000000000000000000
#0605b:53000013
#06058:0000005300000000
#06052:63000013
#06055:0000006300000000
#0745a:00140000
#07452:00630000
#0665b:0000005300000000
#06658:00000053
#06655:53000053
#06652:0000005300000000
#00457:0053
#00556:00630000
#00658:53
#0065b:00000053
#00758:0053
#0085b:00530000
#00955:63
#00952:00000063
#01055:0063
#01152:00630000
#01255:13
#01258:5300000000530000
#01257:0022
#0125a:00000000000000000000000000240000
#01354:001a
#01558:13
#01555:13
#0235b:0000530000430000
#02358:00000000000000230000000000000000
#02352:0000130000640000
#02355:00000000000000000000000000240000
#02452:34
#0245a:54
#02957:00130000
#02952:0013
#02752:00000053
#03252:00140000
#05452:0000006300000000
#05458:63000063
#0495b:0063000000000000
#0465b:0063
#04656:0013
#05555:0054
#05857:0013
#05852:0063
#05856:0000000000000023
#05952:00130000
#06752:0023000000000000
#0675b:0023000000000000
#06755:0053
#06758:0053
#07252:13
#07257:13
#0715b:00530000
#07155:00130000
#0805a:0000140000540000
#08057:00000000000000000000000000240000
#08055:00000000000000240000000000000000
#08052:0000640000340000
#08156:00240000
#08152:64
#0815a:44
#0895a:00140000
#09252:00330000
#0925a:00640000
#09256:0000000000240000
#0935a:44
#09352:55000035
#09356:0000002500000000
#09358:00000066
#09752:0053
#0975b:0063
#0965b:63
#09657:00230000
#06255:00130000
#06354:13
#06353:00000013
#06452:0013
#06952:00000052
#0695c:00000052
#02257:0000005300000000
#05255:0053
#05258:0063
#05352:13
#0535b:13
#07952:0014
#004370:0013
#0053b0:00230000
#005361:00130000
#006321:23
#006380:13
#0063b0:00530033
#007380:5333
#0073b0:00000053
#0083b0:00330000
#008380:0053
#009380:23
#009351:13
#009321:00530033
#010351:5333
#010321:00000053
#011321:00330000
#011351:0053
#012351:23
#012380:1300000000530000
#012370:0052
#0123a0:00000000000000000000000000540000
#013340:002a
#014350:00130000
#015350:23
#014381:0000000000130000
#015381:23
#018321:1656565626000000
#018331:0056005600560056005600560056005600000000000000000000000000000000
#018341:00560056005600560000000000000000
#018381:00000013
#0193b1:0023000000000000
#019350:0013000000000000
#019320:0023
#0193a1:0014
#019361:0000000000000034
#0203a1:00240000
#020320:00140000
#020360:0000000000340000
#021320:24
#021361:14000024
#0213a1:0000003400000000
#022371:0000001300000000
#0223b1:00000023
#0233b1:0000130000230000
#023381:00000000000000530000000000000000
#023320:0000000000140000
#023350:00000000000000000000000000540000
#024320:24
#0243a1:14
#024361:0000000000240000
#0253b1:0013
#025371:0000000000000033
#0263b1:00230000
#026360:00132300
#026340:0000000000130023
#026371:0000000000000013
#027371:0023
#027320:1323
#027320:00000013
#028360:0033000000000033
#028320:0033
#029320:00332300
#0283b1:0013000000000000
#028371:0023
#0283b1:0000000000000013
#029371:00230000
#030320:13535353535353532300000000000000
#030330:0053005300530053005300530053005300000000000000000000000000000000
#0303b1:13535353535353532300000000000000
#0303a1:0053005300530053005300530053005300000000000000000000000000000000
#033361:00000012
#034321:005a000000000000
#034361:0022
#0343b0:0013
#034370:0000000000000053
#0353b0:00330000
#035370:0000000000530000
#0363b0:33000023
#036370:0000005300000000
#037320:0013
#037360:0000000000000053
#038320:00330000
#038360:0000000000530000
#039320:33000023
#039360:0000005300000000
#0403b0:0013
#041370:53330000
#0413b0:00000053
#0423b0:33
#042370:00005323
#043320:0013
#044360:53330000
#044320:00000053
#045320:33
#045360:00005323
#0463b0:0013
#047370:23
#048350:13
#048320:0000002300000000
#0483b1:0000001300000000
#048381:00000023
#048350:00000013
#049320:0023000000000000
#0493b1:0013000000000000
#049381:0023
#049320:0013
#050320:00230000
#0503b1:0000130000330000
#050381:0000000000000023
#050350:0000000000130000
#050320:0000000000000023
#0513b0:0013000000002300
#051390:00330000
#051380:0000003300000000
#051321:0013000000002300
#051341:00330000
#051351:0000003300000000
#052351:0013
#053321:23
#052380:0013
#0533b0:23
#054380:13
#0543b0:0000332300000000
#054321:0000001300000000
#054351:0000000000332300
#054380:00000013
#0553b0:0053000023000000
#055351:0014
#056331:00230000
#0563a0:00140000
#057380:23
#057341:14
#057321:00000023
#057390:00000014
#058370:0023
#058321:0013
#058361:0000000000000053
#059321:00230000
#0603b1:13000000000000000053000023000000
#060381:00000053000033000000000000000000
#060320:13000000000000000053000023000000
#060350:00000053000033000000000000000000
#061350:0013
#062350:00230000
#062340:00000013
#063340:23
#063330:00001323
#064320:00132300
#065350:13
#066350:33000033
#066320:0000003300000000
#067320:0053000000000000
#067350:0023
#0663b1:1300003300000000
#066381:00000033
#0673b1:0053000000000000
#067381:0023
#069321:00000012
#070351:0033330000000000
#070321:0026
#0693c0:00000012
#070380:0033330026000000
#0713b0:00130000
#071370:0023
#071320:00000013
#072320:23
#072360:00000013
#073360:23
#0733b0:0013
#073380:0000000000000023
#074320:00130000
#074350:0000000000230000
#0753b0:13000033
#075370:0000005300000000
#0763b0:0023000000000000
#075361:00000013
#076321:0023000000000000
#076321:0000000014000024
#0763a0:0000000000000014
#077360:00240000
#077321:0000140000240000
#077360:0000000000140000
#0783a0:24
#078321:1400002400000000
#0783a0:0000001400000000
#078360:00000024
#0793b0:0000001300002300
#080320:0000140000240000
#080350:00000000000000540000000000000000
#0803a1:0000000000140000
#080371:00000000000000000000000000540000
#0813a1:24
#081320:1424
#081360:00540000
#083320:00132300
#084350:1323
#0873b0:13535353535353532300000000000000
#0873a0:0053005300530053005300530053005300000000000000000000000000000000
#090380:00000012
#091340:005a000000000000
#091380:0022
#091321:0013
#091361:0000000000000053
#092321:00230000
#0923a0:00140000
#092360:0000000000540000
#0933a0:24
#093321:15000025
#093361:0000005500000000
#093380:00000016
#094340:0056000000000000
#094380:0026
#094321:0013
#094361:00000053
#095321:00330000
#097321:0033
#100361:00220000
#0963b0:13000033
#096370:00530000
#0973b0:0033
#100380:00220000
#0009b0:13
#0019b0:0023
#003920:13
#004920:0023
#067950:0013
#069960:22
#067981:0013
#069981:22
