This file was generated by Ched 2.7.0.0.
#TITLE ""
#ARTIST ""
#DESIGNER ""
#DIFFICULTY 0
#PLAYLEVEL
#SONGID ""
#WAVE ""
#WAVEOFFSET 0
#JACKET ""
#REQUEST "ticks_per_beat 480"
#00002: 4
#BPM01: 188
#00008: 01
#TIL00: ""
#VOLUME: ""
#HISPEED 00
#MEASUREHS 00
#02418:0000000000130000
#02412:26000013
#00118:00000013
#00112:53530000
#00215:13000013
#00218:0013
#03115:13000013
#03118:0000130000000013
#0311b:0013
#03215:00000013
#03218:0000000000000013
#0321b:00003313330000000000000000000000
#03414:00160000
#03416:00000012000000000000000000000000
#03512:00140000
#0351a:00140000
#0371a:0014
#0381a:00140000
#03812:00140000
#03614:14
#03618:0014005400545400
#03918:14
#03914:0014005400545400
#04312:0013
#04318:0013
#04112:00130000
#04118:00130000
#04718:00000013
#04715:0013
#04815:13
#04812:0000001300000000
#04818:00000013
#05018:13
#05015:00130000
#05012:00000000000000000013330000000000
#04915:00000013
#0491b:0013000000000000
#05218:00130000
#05215:1313
#02318:1300000000260000
#02312:00260000
#02515:13
#0251b:0013
#02518:00130000
#05715:00000013
#05713:13
#06517:00000014
#06514:0014
#06515:13
#0651b:00130000
#07012:0000000000000013
#07018:0033130000000000
#07015:0033130000000000
#0701b:0000000000000013
#0701f:0021
#08312:00230013
#0831b:13
#08318:00000013
#08315:13
#08313:0000006300000000
#08314:0063
#02812:0013000000000000
#0281b:0000000000000013
#02818:0013
#02810:0041
#03012:00000013
#03019:15151515151515150000000000000000
#03018:0015001500150015001500150015001500000000000000000000000000000000
#04512:13
#04518:13
#04515:0033003300000000
#04415:00130000
#0441b:00130000
#05616:00140000
#01918:0000001400000000
#01912:0014
#01916:0000000000000014
#01914:0014000000000000
#02118:00000014
#02116:14
#02114:0000000000000014
#0221a:0014
#02218:14140000
#02215:00000013
#02214:0014001400000000
#0201a:00140000
#02016:0000000000140000
#0661a:0000001400000000
#06617:00000014
#07914:14140000
#07918:0014001400001300
#07912:0014
#09113:001a000000000000
#0911a:00000014
#09114:0000000000000014
#00615:13
#00612:00000013
#00715:0013
#00812:00130000
#01412:13130000
#0141b:13130000
#01515:0013
#0151b:00000023
#02912:0000000000000015
#02915:00130000
#02918:0013
#02715:00000013
#02713:23
#05315:00000013
#05318:0013
#0541b:0000331300000000
#05418:1300000000331300
#05514:0014
#05510:0041
#06418:0000000000000013
#06412:0013
#0671a:0014000000000000
#06716:0054
#07212:0013
#0721b:00000023
#09014:00131300
#09019:0000001300130000
#09017:00000022
#09712:0013
#0971b:0013
#06919:00001424
#06913:00001424
#00012:13
#00015:00535373
#00918:13
#0091b:00000013
#01015:0013
#01112:00130000
#01612:0013
#01615:0000000000000013
#0161b:0013
#01618:0000000000000013
#01712:00130000
#01715:0000000000130000
#0171b:00130000
#01718:0000000000130000
#01812:13000013
#0181b:13000013
#03315:0000001300000000
#03312:23000013
#04215:13
#0421b:13
#04218:0033003300000000
#04618:13
#04615:00130000
#0461b:0023
#05118:0013000000000000
#0511b:00000000000033130000000000000000
#0511a:00330000
#0601b:0000001300000000
#06018:13
#07118:0000000000130000
#0711b:00130000
#07115:0000000000130000
#07112:00130000
#07110:00410000
#07315:1300001300000013
#0731b:0000000000000013
#07318:0023000023000000
#07417:0000000000140000
#07412:0000230000140000
#07418:00230000
#07814:00000014
#07818:0000000000000014
#0781a:24
#07716:0000000000140000
#07712:00240000
#07616:0000000000000014
#0761a:0024
#08415:0013000000130000
#08418:00131300
#08412:0000001300000000
#0841b:23000013
#0841a:0000000000000053
#08518:0053000000130000
#08515:00000013
#08512:0023
#08510:0041
#08519:53
#08517:00530000
#0861b:00230013
#08612:13
#08615:0000001300001300
#08618:1313
#08718:0013000000130000
#08715:00131300
#0871b:0000001300000000
#08712:23000013
#08713:0000000000000053
#08818:0013
#0881b:0000000000003313
#08814:53
#08815:0053000000000000
#08816:00530000
#08918:00130000
#0891b:0033000033133300
#09212:00001414
#0921a:14240000
#09214:0014000000000000
#09218:0000000000140014
#0931a:00141400
#09314:0000001400140000
#09312:24
#0941a:0014000000000000
#09416:0024
#0961a:12
#09618:00000012
#00415:00000013
#0041b:53530000
#00518:13000013
#00515:0013
#0031b:13
#00318:00535373
#0401b:0013
#04015:0023
#04010:0041
#05918:0013
#05912:00000013
#06115:1313
#0611b:00130000
#06112:0000000000000013
#06218:00130000
#06315:13
#06318:00000013
#07518:00000013
#07515:24000013
#0751a:24
#08015:13
#08012:0000000000260000
#08018:00260000
#0581f:0011
#05812:0022
#01318:0026
#01312:0026
#01310:0041
#02615:00230000
#02614:0000000000230000
#0261a:0000000000000023
#02619:0023
#08218:00230000
#08215:23
#0821b:0023
#0821a:0000000000630000
#08219:00000063
#08112:00000023
#08118:26
#10016:00520000
#10018:00520000
#03454:00560000
#03456:00000022000000001200000000000000
#04855:53
#04852:0000005300000000
#04858:00000063
#02852:0063000000000000
#0285b:0000000000000053
#02858:0053
#04455:00530000
#04552:53
#04555:00000013
#04352:0053
#05656:00540000
#0205a:00240000
#02056:0000000000540000
#01952:0024
#01956:0000000000000054
#05755:00000063
#05753:63
#07358:0013
#07355:0000000000000063
#0735b:0000000000000063
#0315b:0013
#03158:0000000000000063
#09153:006a000000000000
#09157:0012
#09057:00000022
#09058:13
#0255b:0053
#02558:0000000000000013
#07452:0000130000540000
#07458:00130000
#07457:0000000000540000
#0665a:0000005400000000
#06657:00000054
#00655:63
#00652:00000063
#00755:0063
#00852:00630000
#01358:0016
#01352:0016
#01558:13
#01555:13
#03059:65656565656565650000000000000000
#03058:0065006500650065006500650065006500000000000000000000000000000000
#02755:00000063
#0495b:0063000000000000
#0465b:0063
#05458:63000063
#0545b:0000002300000000
#05554:0064
#0675a:0024000000000000
#07058:00234600
#07055:00230000
#07052:0036
#09752:0053
#0975b:0063
#0225a:0014
#06959:00000054
#06953:00000064
#00958:53
#0095b:00000053
#01055:0063
#01152:00630000
#01255:13
#01855:0013
#01858:0013
#01852:53
#0185b:63
#01652:0053
#01655:0000000000000053
#0165b:0063
#01658:0000000000000063
#01752:00530000
#01755:0000000000530000
#0175b:00630000
#01758:0000000000630000
#02352:00360000
#02358:0000000000460000
#02452:36
#02958:0013
#0325b:00000023000000000000000000000000
#03355:0000006300000000
#03352:63000063
#03658:00000014
#03954:00000014
#05055:00530000
#05052:00000000000000000023000000000000
#05158:0063000000000000
#0515b:00000000000000230000000000000000
#05852:0012
#0605b:0000002300000000
#06058:53
#01452:00530000
#0145b:00630000
#07158:0000000000530000
#0715b:00630000
#07155:0000000000630000
#07152:00530000
#0755a:14
#07555:14000053
#07558:00000063
#07756:0000000000640000
#07752:00240000
#07656:0000000000000064
#0765a:0024
#08858:0053
#0885b:0000000000000023
#08958:00530000
#0895b:0000000000230000
#09456:0014
#0945a:0054000000000000
#00052:63
#00055:00000063
#0035b:63
#00358:00000063
#0405b:0063
#0425b:63
#04258:00000013
#04158:00630000
#06258:00530000
#06355:63
#06358:00000053
#06152:0000000000000023
#06155:0063
#0725b:13
#07252:13
#02156:64
#07952:0014
#08158:46
#08052:0000000000360000
#08058:00460000
#0785a:24
#0925a:00140000
#09352:14
#05255:0053
#05352:13
#006350:13
#006320:00333353
#007350:33335300
#007320:00000033
#008320:33530000
#008350:00003333
#009350:23
#009381:13
#0093b1:00333353
#010381:33332300
#010350:0013
#010320:00000033
#011320:33530000
#011350:00003333
#012350:23
#012340:0012
#013330:55
#013320:0026
#0123a1:0012
#013381:5526
#0143b1:00130000
#014381:0000000000330000
#015381:23
#014320:00130000
#014350:0000000000330000
#015350:23
#0153b0:00000013
#016380:3333000000530033
#0163b0:0000003333000000
#0173b0:53330053
#017380:0000005300330000
#0183b0:33
#018380:0023
#016321:0013
#016351:0000000000530033
#017321:53330053
#017351:0000005300330000
#018321:33
#018351:0023
#019321:0014
#019361:0000000000000034
#020321:00240000
#0203a0:00140000
#020360:0000000000340000
#0213a0:24
#021361:14
#021321:0000002400000000
#0253b1:0013
#025381:0000000000000023
#0263a1:0000000000000013
#0273a1:0023
#027330:1323
#027350:00000013
#028320:0033000000000000
#028350:0023
#028381:0013
#0283b1:0000000000000033
#029381:00230000
#030391:15555555555555552500000000000000
#030381:0055005500550055005500550055005500000000000000000000000000000000
#031381:0000000000000013
#0323b1:00003353330000000000000000000000
#032381:0023
#033321:13000033
#033351:0000003300000000
#034361:00520052005200002200000000000000
#034341:00360000
#0403b1:0013
#041381:53330000
#0413b1:00000053
#0423b1:33
#042381:0033003353332300
#043321:0013
#044351:53330000
#044321:00000053
#045321:33
#045351:0033003353332300
#0463b1:0013
#047381:23
#048351:13000023
#048321:0000003300000000
#048380:00000013
#0493b0:0033000000000000
#049380:0023
#050350:0000130000000023
#050320:00000000000000000053330000000000
#051380:0013000000002300
#0513a0:00330000
#0513b0:00000000000033530000000000000000
#052350:0013
#053320:23
#054380:1300000000333300
#0543b0:0000333300000000
#0553b0:00230000
#055340:0014
#056360:00340000
#057330:33
#057350:00000033
#058320:0022
#060380:13000023
#0603b0:0000003300000000
#061350:0013
#061320:0000000000000053
#062350:00230000
#062381:00130000
#0623b1:00000023
#063351:13
#063321:0023
#063381:00000013
#0643b1:00230000
#0663a1:1400003400000000
#066371:00000034
#0673a1:0054000000000000
#067361:0024
#069391:00000014
#070381:0033330026000000
#069330:00000014
#070350:0033330000000000
#070320:0026
#0713b0:00130000
#071380:0000000000330000
#0723b0:23
#071321:00130000
#071351:0000000000330000
#072321:23
#073351:0000000000000013
#074321:00230000
#0733b0:0000000000000013
#074380:00230000
#074370:0000000000140000
#0753a0:24
#074321:0000000000140000
#075351:24
#075381:00000013
#0763b1:00230000
#075350:00000013
#076320:00230000
#0763a0:0014
#076360:0000000000000034
#0773a0:00240000
#077321:00140000
#077361:0000000000340000
#078321:24
#0783a0:14
#078360:0000002400000000
#088380:0013
#0883b0:0000000000003333
#0893b0:0033000033533300
#089380:00330000
#090380:23
#090370:00000012
#091330:005a000000000000
#091370:0022
#0933a0:00000014
#0943a0:0034000000000000
#094360:0024
#095320:00130000
#097320:0033
#100360:00220000
#0973b1:0013
#100381:00220000
#000920:13
#000950:00530053
#001920:530000000000000000000000000000000000000000000000000000000000000000000000000000000000000000000000000000000000000000000000000000000000000000000000000000000000000000000000000000000000000000000000000000000000000000000000000000000000000000000000000000000000000000000000000000000000000000000000000000000000000000000000000000000000000000000000000000000000000000000000000000000000000000000000000000000000000000000000000000000000000000000000000000000000000000000000000000000000000000000000000000000000000000000000000000000000000000000000000000000000000000000000000000000000000000000000000000000000000000000000000000000000000000000000000000000000000000000000000000000000000000000000000000000000000000000000000000000000000000000000000000000000000000000000000000000000000000000000000000000000000000000000000000000000000000000000000000000000000000000000000000000000000000000000000000000000000000000000000000000000000000000000000000000000000000000000000000000000000000005353230000000000000000000000000000000000000000000000000000000000000000000000000000000000000000000000000000000000000000000000000000000000000000000000000000000000000000000000000000000000000000000000000000000000000000000000000000000000000000000000000000000000000000000000000000000000000000000000000000000000000000000000000000000000000000000000000000000000000000000000000000000000000000000000000000000000000000000000000000000000000000000000000000000000000000000000000000000000000000000000000000000000000000000000000000000000000000000000000000000000000000000000000000000000000000000000000000000000000000000000000000000000000000000000000000000000000000000000000000000000000000000000000000000000000000000000000000000000000000000000000000000000000000000000000000000000000000000000000000000000000000000000000000000000000000000000000000000000000000000000000000000000000000000000000000000000000000000000000000000000000000000000000000000000000000000000000000000000000000000000000000000000000000000000000000000000000000000000000000000000000000000000000000000000000000000000000000000000000000000000000000000000000000000000000000000000000000000000000000000000000000000000000000000000000000000000000000000000000000000000000000000000000000000000000000000000000000000000000000000000000000000000000000000000000000000000000000000000000000000000000000000000000000000000000000000000000000000000000000000000000000000000000000000000000000000000000000000000000000000000000000000000000000000000000000000000000000000000000000000000000000000000000000000000000000000000000000000000000000000000000000000000000000000000000000000000000000000000000000000000000000000000000000000000000000000000000000000000000000000000000000000000000000000000000000000000000000000000000000000000000000000000000000000000000000000000000000000000000000000000000000000000000000000000000000000000000000000000000000000000000000000000000000000000000000000000000000000000000000000000000000000000000000000000000000000000000000000000000000000000000000000000000000000000000000000000000000000000000000000000000000000000000000000000000000000000000000000000000000000000000000000000000000000000000000000000000000000000000000000000000000000000000000000000000000000000000000000000000000000000000000000000000000000000000000000000000000000000000000000000000000000000000000000000000000000000000000000000000000000000000000000000000000000000000000000000000000000000000000000000000000000000000000000000000000000000000000000000000000000000000000000000000000000000000000000000000000000000000000000000000000000000000000000000000000000000000000000000000000000000000000000000000000000000000000000000000000000000000000000000000000000000000000000000000000000000000000000000000000000000000000000000000000000000000000000000000000000000000000000000000000000000000000000000000000000000000000000000000000000000000000000000000000000000000000000000000000000000000000000000
#0039b0:13
#003980:00530053
#0049b0:530000000000000000000000000000000000000000000000000000000000000000000000000000000000000000000000000000000000000000000000000000000000000000000000000000000000000000000000000000000000000000000000000000000000000000000000000000000000000000000000000000000000000000000000000000000000000000000000000000000000000000000000000000000000000000000000000000000000000000000000000000000000000000000000000000000000000000000000000000000000000000000000000000000000000000000000000000000000000000000000000000000000000000000000000000000000000000000000000000000000000000000000000000000000000000000000000000000000000000000000000000000000000000000000000000000000000000000000000000000000000000000000000000000000000000000000000000000000000000000000000000000000000000000000000000000000000000000000000000000000000000000000000000000000000000000000000000000000000000000000000000000000000000000000000000000000000000000000000000000000000000000000000000000000000000000000000000000000000000005353230000000000000000000000000000000000000000000000000000000000000000000000000000000000000000000000000000000000000000000000000000000000000000000000000000000000000000000000000000000000000000000000000000000000000000000000000000000000000000000000000000000000000000000000000000000000000000000000000000000000000000000000000000000000000000000000000000000000000000000000000000000000000000000000000000000000000000000000000000000000000000000000000000000000000000000000000000000000000000000000000000000000000000000000000000000000000000000000000000000000000000000000000000000000000000000000000000000000000000000000000000000000000000000000000000000000000000000000000000000000000000000000000000000000000000000000000000000000000000000000000000000000000000000000000000000000000000000000000000000000000000000000000000000000000000000000000000000000000000000000000000000000000000000000000000000000000000000000000000000000000000000000000000000000000000000000000000000000000000000000000000000000000000000000000000000000000000000000000000000000000000000000000000000000000000000000000000000000000000000000000000000000000000000000000000000000000000000000000000000000000000000000000000000000000000000000000000000000000000000000000000000000000000000000000000000000000000000000000000000000000000000000000000000000000000000000000000000000000000000000000000000000000000000000000000000000000000000000000000000000000000000000000000000000000000000000000000000000000000000000000000000000000000000000000000000000000000000000000000000000000000000000000000000000000000000000000000000000000000000000000000000000000000000000000000000000000000000000000000000000000000000000000000000000000000000000000000000000000000000000000000000000000000000000000000000000000000000000000000000000000000000000000000000000000000000000000000000000000000000000000000000000000000000000000000000000000000000000000000000000000000000000000000000000000000000000000000000000000000000000000000000000000000000000000000000000000000000000000000000000000000000000000000000000000000000000000000000000000000000000000000000000000000000000000000000000000000000000000000000000000000000000000000000000000000000000000000000000000000000000000000000000000000000000000000000000000000000000000000000000000000000000000000000000000000000000000000000000000000000000000000000000000000000000000000000000000000000000000000000000000000000000000000000000000000000000000000000000000000000000000000000000000000000000000000000000000000000000000000000000000000000000000000000000000000000000000000000000000000000000000000000000000000000000000000000000000000000000000000000000000000000000000000000000000000000000000000000000000000000000000000000000000000000000000000000000000000000000000000000000000000000000000000000000000000000000000000000000000000000000000000000000000000000000000000000000000000000000000000000000000000000000000000000000000000000000000000000000000000000000
#036980:000000000000000000000000000000000000000000000000000000000000000000000000000000000000000000000000000000000000000000000000000000000000000000000000000000000000000000000000000000000000000000000000000000000000000000000000000000000000000000000000000000000000000000000000000000000000000000000000000000000000000000000000000000000000000000000000000000000000000000000000000000000000000000000000000000000000000000000000000000000000000000000000000000000000000000000000000000000000000000000000140000000000000000000000000000000000000000000000000000000000000000000000000000000000000000000000000000000000000000000000000000000000000000000000000000000000000000000000000000000000000000000000000000000000000000000000000000000000000000000000000000000000000000000000000000000000000000000000000000000000000000000000000000000000000000000000000000000000000000000000000000000000000000000000000000000000000000000000000000000000000000000000000000000000000000000000000000000000000000000000000000000000000000000000000000000000000000000000000000000000000000000000000000000000000000000000000000000000000000000000000000000000000000000000000000000000000000000000000000000000000000000000000000000000000000000000000000000000000000000000000000000000000000000000000000000000000000000000000000000000000000000000000000000000000000000000000000000000000000000000000000000000000000000000000000000000000000000000000000000000000000000000000000000000000000000000000000000000000000000000000000000000000000000000000000000000000000000000000000000000000000000000000000000000000000000000000000000000000000000000000000000000000000000000000000000000000000000000000000000000000000000000000000000000000000000000000000000000000000000000000000000000000000000000000000000000000000000000000000000000000000000000000000000000000000000000000000000000000000000000000000000000000000000000000000000000000000000000000000000000000000000000000000000000000000000000000000000000000000000000000000000000000000000000000000000000000000000000000000000000000000000000000000000000000000000000000000000000000000000000000000000000000000000000000000000000000000000000000000000000000000000000000000000000000000000000000000000000000000000000000000000000000000000000000000000000000000000000000000000000000000000000000000000000000000000000000000000000000000000000000000000000000000000000000000000000000000000000000000000000000000000000000000000000000000000000000000000000000000000000000000000000000000000000000000000000000000000000000000000000000000000000000000000000000000000000000000000000000000000000000000000000000000000000000000000000000000000000000000000000000000000000000000000000000000000000000000000000000000000000000000000000000000000000000000000000000000000000000000000000000000000000000000000000000000000000000000000000000000000000000000000000000000000000000000000000000000000000000000000000000000000000000000000000000000000000000000000000000000005454240000000000000000000000000000000000000000000000000000000000000000000000000000000000000000000000000000000000000000000000000000000000000000000000000000000000000000000000000000000000000000000000000000000000000000000000000000000000000000000000000000000000000000000000000000000000000000000000000000000000000000000000000000000000000000000000000000000000000000000000000000000000000000000000000000000000000000000000000000000000000000000000000000000000000000000000000000000000000000000000000000000000000000000000000000000000000000000000000000000000000000000000000000000000000000000000000000000000000000000000000000000000000000000000000000000000000000000000000000000000000000000000000000000000000000000000000000000000000000000000000000000000000000000000000000000000000000000000000000000000000000000000000000000000000000000000000000000000000000000000000000000000000000000000000000000000000000000000000000000000000000000000000000000000000000000000000000000000000000000000
#039940:000000000000000000000000000000000000000000000000000000000000000000000000000000000000000000000000000000000000000000000000000000000000000000000000000000000000000000000000000000000000000000000000000000000000000000000000000000000000000000000000000000000000000000000000000000000000000000000000000000000000000000000000000000000000000000000000000000000000000000000000000000000000000000000000000000000000000000000000000000000000000000000000000000000000000000000000000000000000000000000000140000000000000000000000000000000000000000000000000000000000000000000000000000000000000000000000000000000000000000000000000000000000000000000000000000000000000000000000000000000000000000000000000000000000000000000000000000000000000000000000000000000000000000000000000000000000000000000000000000000000000000000000000000000000000000000000000000000000000000000000000000000000000000000000000000000000000000000000000000000000000000000000000000000000000000000000000000000000000000000000000000000000000000000000000000000000000000000000000000000000000000000000000000000000000000000000000000000000000000000000000000000000000000000000000000000000000000000000000000000000000000000000000000000000000000000000000000000000000000000000000000000000000000000000000000000000000000000000000000000000000000000000000000000000000000000000000000000000000000000000000000000000000000000000000000000000000000000000000000000000000000000000000000000000000000000000000000000000000000000000000000000000000000000000000000000000000000000000000000000000000000000000000000000000000000000000000000000000000000000000000000000000000000000000000000000000000000000000000000000000000000000000000000000000000000000000000000000000000000000000000000000000000000000000000000000000000000000000000000000000000000000000000000000000000000000000000000000000000000000000000000000000000000000000000000000000000000000000000000000000000000000000000000000000000000000000000000000000000000000000000000000000000000000000000000000000000000000000000000000000000000000000000000000000000000000000000000000000000000000000000000000000000000000000000000000000000000000000000000000000000000000000000000000000000000000000000000000000000000000000000000000000000000000000000000000000000000000000000000000000000000000000000000000000000000000000000000000000000000000000000000000000000000000000000000000000000000000000000000000000000000000000000000000000000000000000000000000000000000000000000000000000000000000000000000000000000000000000000000000000000000000000000000000000000000000000000000000000000000000000000000000000000000000000000000000000000000000000000000000000000000000000000000000000000000000000000000000000000000000000000000000000000000000000000000000000000000000000000000000000000000000000000000000000000000000000000000000000000000000000000000000000000000000000000000000000000000000000000000000000000000000000000000000000000000000000000000000000000000005454240000000000000000000000000000000000000000000000000000000000000000000000000000000000000000000000000000000000000000000000000000000000000000000000000000000000000000000000000000000000000000000000000000000000000000000000000000000000000000000000000000000000000000000000000000000000000000000000000000000000000000000000000000000000000000000000000000000000000000000000000000000000000000000000000000000000000000000000000000000000000000000000000000000000000000000000000000000000000000000000000000000000000000000000000000000000000000000000000000000000000000000000000000000000000000000000000000000000000000000000000000000000000000000000000000000000000000000000000000000000000000000000000000000000000000000000000000000000000000000000000000000000000000000000000000000000000000000000000000000000000000000000000000000000000000000000000000000000000000000000000000000000000000000000000000000000000000000000000000000000000000000000000000000000000000000000000000000000000000000000
#0829b0:0013
#082990:000000000000000000000000000000000000000000000000000000000000000000000000000000000000000000000000000000000000000000000000000000000000000000000000000000000000000000000000000000000000000000000000000000000000000000000000000000000000000000000000000000000000000000000000000000000000000000000000000000000000000000000000000000000000000000000000000000000000000000000000000000000000000000000000000000000000000000000000000000000000000000000000000000000000000000000000000000000000000000000000000000000000000000000000000000000000000000000000000000000000000000000000000000000000000000000000000000000000000000000000000000000000000000000000000000000000000000000000000000000000000000000000000000000000000000000000000000000000000000000000000000000000000000000000000000000000000000000000000000000000000000000000000000000000000000000000000000000000000000000000000000000000000000000000000000000000000000000000000000000000000000000000000000000000000000000000000000000000000000000000000000000000000000000000000000000000000000000000000000000000000000000000000000000000000000000000000000000000000000000000000000000000000000000000000000000000000000000000000000000000000000000000000000000000000000000000000000000000000000000000000000000000000000000000000000000000000000000000000000000000000000000000000000000000000000000000000000000000000000000000000000000000000000000000000000000000000000000000000000000000000000000000000000000000000000000000000000000000000000000000000000000000000000000000000000000000000000000000000000000000000000000000000000000000000000000000000000000000000000000000000000000000000000000000000000000000000000000000000000000000000000000000000000000000000000000000000000000000000000000000000000000000000000000000000000000000000000000000000000000000000000000000000000000000000000000000000000000000000000000000000000000000000000000000000000000000000000000000000000000000000000000000000000000000000000000000000000000000000000000000000000000000000000000000000000000000000000000000000000000000000000000000000000000000000000000000000000000000000000000000000000000000000000000000000000000000000000000000000000000000000000000000000000000000000000000000000000000000000000000000000000000000000000000000000000000000000000000000000000000000000000000000000000000000000000000000000000000000000000000000000000000000000000000000000000000000000000000000000000000000000000000000000000000000000000000000000000000000000000000000000000000000000000000000000000000000000000000000000000000000000000000000000000000000000000000000000000000000000000000000000000000000000000000000000000000000000000000000000000000000000000000000000000000000000000000000000000000000000000000000000000000000000000000000000000000000000000000000000000000000000000000000000000000000000000000000000000000000000000000000000000000000000000000000000000000000000000000000000000000000000000000000000000000000000000000000000000000000000000005353230000000000000000000000000000000000000000000000000000000000000000000000000000000000000000000000000000000000000000000000000000000000000000000000000000000000000000000000000000000000000000000000000000000000000000000000000000000000000000000000000000000000000000000000000000000000000000000000000000000000000000000000000000000000000000000000000000000000000000000000000000000000000000000000000000000000000000000000000000000000000000000000000000000000000000000000000000000000000000000000000000000000000000000000000000000000000000000000000000000000000000000000000000000000000000000000000000000000000000000000000000000000000000000000000000000000000000000000000000000000000000000000000000000000000000000000000000000000000000000000000000000000000000000000000000000000000000000000000000000000000000000000000000000000000000000000000000000000000000000000000000000000000000000000000000000000000000000000000000000000000000000000000000000000000000000000000000000000000000000000
#083920:00130000
#083940:000000000000000000000000000000000000000000000000000000000000000000000000000000000000000000000000000000000000000000000000000000000000000000000000000000000000000000000000000000000000000000000000000000000000000000000000000000000000000000000000000000000000000000000000000000000000000000000000000000000000000000000000000000000000000000000000000000000000000000000000000000000000000000000000000000000000000000000000000000000000000000000000000000000000000000000000000000000000000000000000000000000000000000000000000000000000000000000000000000000000000000000000000000000000000000000000000000000000000000000000000000000000000000000000000000000000000000000000000000000000000000000000000000000000000000000000000000000000000000000000000000000000000000000000000000000000000000000000000000000000000000000000000000000000000000000000000000000000000000000000000000000000000000000000000000000000000000000000000000000000000000000000000000000000000000000000000000000000000000000000000000000000000000000000000000000000000000000000000000000000000000000000000000000000000000000000000000000000000000000000000000000000000000000000000000000000000000000000000000000000000000000000000000000000000000000000000000000000000000000000000000000000000000000000000000000000000000000000000000000000000000000000000000000000000000000000000000000000000000000000000000000000000000000000000000000000000000000000000000000000000000000000000000000000000000000000000000000000000000000000000000000000000000000000000000000000000000000000000000000000000000000000000000000000000000000000000000000000000000000000000000000000000000000000000000000000000000000000000000000000000000000000000000000000000000000000000000000000000000000000000000000000000000000000000000000000000000000000000000000000000000000000000000000000000000000000000000000000000000000000000000000000000000000000000000000000000000000000000000000000000000000000000000000000000000000000000000000000000000005353230000000000000000000000000000000000000000000000000000000000000000000000000000000000000000000000000000000000000000000000000000000000000000000000000000000000000000000000000000000000000000000000000000000000000000000000000000000000000000000000000000000000000000000000000000000000000000000000000000000000000000000000000000000000000000000000000000000000000000000000000000000000000000000000000000000000000000000000000000000000000000000000000000000000000000000000000000000000000000000000000000000000000000000000000000000000000000000000000000000000000000000000000000000000000000000000000000000000000000000000000000000000000000000000000000000000000000000000000000000000000000000000000000000000000000000000000000000000000000000000000000000000000000000000000000000000000000000000000000000000000000000000000000000000000000000000000000000000000000000000000000000000000000000000000000000000000000000000000000000000000000000000000000000000000000000000000000000000000000000000000000000000000000000000000000000000000000000000000000000000000000000000000000000000000000000000000000000000000000000000000000000000000000000000000000000000000000000000000000000000000000000000000000000000000000000000000000000000000000000000000000000000000000000000000000000000000000000000000000000000000000000000000000000000000000000000000000000000000000000000000000000000000000000000000000000000000000000000000000000000000000000000000000000000000000000000000000000000000000000000000000000000000000000000000000000000000000000000000000000000000000000000000000000000000000000000000000000000000000000000000000000000000000000000000000000000000000000000000000000000000000000000000000000000000000000000000000000000000000000000000000000000000000000000000000000000000000000000000000000000000000000000000000000000000000000000000000000000000000000000000000000000000000000000000000000000000000000000000000000000000000000000000000000000000000000000000000000000000000000000
#0849b0:00000013
#085970:000000000000000000000000000000000000000000000000000000000000000000000000000000000000000000000000000000000000000000000000000000000000000000000000000000000000000000000000000000000000000000000000000000000000000000000000000000000000000000000000000000000000000000000000000000000000000000000000000000000000000000000000000000000000000000000000000000000000000000000000000000000000000000000000000000000000000000000000000000000000000000000000000000000000000000000000000000000000000000000000000000000000000000000000000000000000000000000000000000000000000000000000000000000000000000000000000000000000000000000000000000000000000000000000000000000000000000000000000000000000000000000000000000000000000000000000000000000000000000000000000000000000000000000000000000000000000000000000000000000000000000000000000000000000000000000000000000000000000000000000000000000000000000000000000000000000000000000000000000000000000000000000000000000000000000000000000000000000000000005353230000000000000000000000000000000000000000000000000000000000000000000000000000000000000000000000000000000000000000000000000000000000000000000000000000000000000000000000000000000000000000000000000000000000000000000000000000000000000000000000000000000000000000000000000000000000000000000000000000000000000000000000000000000000000000000000000000000000000000000000000000000000000000000000000000000000000000000000000000000000000000000000000000000000000000000000000000000000000000000000000000000000000000000000000000000000000000000000000000000000000000000000000000000000000000000000000000000000000000000000000000000000000000000000000000000000000000000000000000000000000000000000000000000000000000000000000000000000000000000000000000000000000000000000000000000000000000000000000000000000000000000000000000000000000000000000000000000000000000000000000000000000000000000000000000000000000000000000000000000000000000000000000000000000000000000000000000000000000000000000000000000000000000000000000000000000000000000000000000000000000000000000000000000000000000000000000000000000000000000000000000000000000000000000000000000000000000000000000000000000000000000000000000000000000000000000000000000000000000000000000000000000000000000000000000000000000000000000000000000000000000000000000000000000000000000000000000000000000000000000000000000000000000000000000000000000000000000000000000000000000000000000000000000000000000000000000000000000000000000000000000000000000000000000000000000000000000000000000000000000000000000000000000000000000000000000000000000000000000000000000000000000000000000000000000000000000000000000000000000000000000000000000000000000000000000000000000000000000000000000000000000000000000000000000000000000000000000000000000000000000000000000000000000000000000000000000000000000000000000000000000000000000000000000000000000000000000000000000000000000000000000000000000000000000000000000000000000000000000000000000000000000000000000000000000000000000000000000000000000000000000000000000000000000000000000000000000000000000000000000000000000000000000000000000000000000000000000000000000000000000000000000000000000000000000000000000000000000000000000000000000000000000000000000000000000000000000000000000000000000000000000000000000000000000000000000000000000000000000000000000000000000000000000000000000000000000000000000000000000000000000000000000000000000000000000000000000000000000000000000000000000000000000000000000000000000000000000000000000000000000000000000000000000000000000000000000000000000000000000000000000000000000000000000000000000000000000000000000000000000000000000000000000000000000000000000000000000000000000000000000000000000000000000000000000000000000000000000000000000000000000000000000000000000000000000000000000000000000000000000000000000000000000000000000000000000000000000000000000000000000000000000000000000000000000000000000000000000000000000000
#087920:00000013
#088960:000000000000000000000000000000000000000000000000000000000000000000000000000000000000000000000000000000000000000000000000000000000000000000000000000000000000000000000000000000000000000000000000000000000000000000000000000000000000000000000000000000000000000000000000000000000000000000000000000000000000000000000000000000000000000000000000000000000000000000000000000000000000000000000000000000000000000000000000000000000000000000000000000000000000000000000000000000000000000000000000000000000000000000000000000000000000000000000000000000000000000000000000000000000000000000000000000000000000000000000000000000000000000000000000000000000000000000000000000000000000000000000000000000000000000000000000000000000000000000000000000000000000000000000000000000000000000000000000000000000000000000000000000000000000000000000000000000000000000000000000000000000000000000000000000000000000000000000000000000000000000000000000000000000000000000000000000000000000000000005353230000000000000000000000000000000000000000000000000000000000000000000000000000000000000000000000000000000000000000000000000000000000000000000000000000000000000000000000000000000000000000000000000000000000000000000000000000000000000000000000000000000000000000000000000000000000000000000000000000000000000000000000000000000000000000000000000000000000000000000000000000000000000000000000000000000000000000000000000000000000000000000000000000000000000000000000000000000000000000000000000000000000000000000000000000000000000000000000000000000000000000000000000000000000000000000000000000000000000000000000000000000000000000000000000000000000000000000000000000000000000000000000000000000000000000000000000000000000000000000000000000000000000000000000000000000000000000000000000000000000000000000000000000000000000000000000000000000000000000000000000000000000000000000000000000000000000000000000000000000000000000000000000000000000000000000000000000000000000000000000000000000000000000000000000000000000000000000000000000000000000000000000000000000000000000000000000000000000000000000000000000000000000000000000000000000000000000000000000000000000000000000000000000000000000000000000000000000000000000000000000000000000000000000000000000000000000000000000000000000000000000000000000000000000000000000000000000000000000000000000000000000000000000000000000000000000000000000000000000000000000000000000000000000000000000000000000000000000000000000000000000000000000000000000000000000000000000000000000000000000000000000000000000000000000000000000000000000000000000000000000000000000000000000000000000000000000000000000000000000000000000000000000000000000000000000000000000000000000000000000000000000000000000000000000000000000000000000000000000000000000000000000000000000000000000000000000000000000000000000000000000000000000000000000000000000000000000000000000000000000000000000000000000000000000000000000000000000000000000000000000000000000000000000000000000000000000000000000000000000000000000000000000000000000000000000000000000000000000000000000000000000000000000000000000000000000000000000000000000000000000000000000000000000000000000000000000000000000000000000000000000000000000000000000000000000000000000000000000000000000000000000000000000000000000000000000000000000000000000000000000000000000000000000000000000000000000000000000000000000000000000000000000000000000000000000000000000000000000000000000000000000000000000000000000000000000000000000000000000000000000000000000000000000000000000000000000000000000000000000000000000000000000000000000000000000000000000000000000000000000000000000000000000000000000000000000000000000000000000000000000000000000000000000000000000000000000000000000000000000000000000000000000000000000000000000000000000000000000000000000000000000000000000000000000000000000000000000000000000000000000000000000000000000000000000000000000000000000000000000000
