This file was generated by Ched 2.7.0.0.
#TITLE ""
#ARTIST ""
#DESIGNER ""
#DIFFICULTY 0
#PLAYLEVEL
#SONGID ""
#WAVE ""
#WAVEOFFSET 0
#JACKET ""
#REQUEST "ticks_per_beat 480"
#00002: 4
#BPM01: 220
#00008: 01
#TIL00: ""
#VOLUME: ""
#HISPEED 00
#MEASUREHS 00
#01317:0000001400000000
#01315:0000000000140000
#01312:13241313
#0131b:1313
#01316:0014000000000014
#0131a:00000024
#01419:0013001300000000
#01416:0000240000140014
#01414:0013001300000000
#0141a:14000024
#01412:0014
#01516:1400001400000014
#0151a:14001424
#01512:00241400
#0171b:12121200
#01712:1300005300005300
#01719:00000012
#03215:00130016
#03212:1316
#03218:0000001300000000
#0321b:0013
#0331b:2300001300001300
#03312:00005313
#03318:00000000000000000000000000000012
#03317:0014
#03316:1300000000000012
#03310:41
#04019:0000151500000000
#04012:000015151c000000
#0401a:14
#04014:00000014
#04018:00000014
#0411b:0000001313000013
#04116:0014
#04118:00130013
#04112:24140014
#0411a:24
#0431a:24140014
#04318:0000000000000013
#04316:24002413
#04312:0000000024000014
#04418:0013000000000000
#04415:0000000000000013
#0441b:00000013
#04416:00132400
#0441a:00140000
#04412:0014000023001300
#0451a:0014
#04512:1314
#04518:0000000000000014
#0451b:13
#04514:0000001400000000
#04516:00140014
#04510:41
#06118:0000000000000013
#06112:2414000000130000
#06116:0000001300000000
#0611a:0000001400140000
#06115:00000013
#06117:0013000000000000
#06312:1400000000000014
#0631a:1400001400000000
#06318:0014
#06316:0000000000140000
#06314:00000014
#00918:16
#00917:0000001400000014
#0091b:0013
#00915:0000000000140000
#00912:26241313
#0091a:00000024
#00910:41
#0101a:0014140000000014
#01015:13001313
#01012:0013000000140013
#01018:0013
#0101b:0000000000130000
#01614:00160013
#01619:00000013
#01612:1418
#0161a:14
#01815:00120000
#01817:1212
#01819:00000012
#01812:53
#02015:12000012
#02019:00120000
#02017:0012
#0201b:53
#02217:00000012
#02219:12
#02212:53
#02416:0000000014140000
#02413:00130013
#0241a:00130013
#02417:12
#0241b:53
#0261a:14
#02618:00140000
#02612:0000001313000000
#02616:0014
#02614:00000014
#02712:14000014
#02714:0000001200000000
#02717:0012
#0271c:12
#02812:14
#02814:00140000
#02816:0014
#0281b:0000001313000000
#02818:00000014
#03019:0000001200000000
#03015:0000001200000000
#0301a:14
#03016:00000014
#03412:13130000
#0341b:00130013
#03418:0014
#03415:0000001300001400
#03512:14000013
#03516:00140014
#03517:13
#0351b:00130000
#03515:0013
#03612:0014
#0361a:14001414
#03615:00130014
#03618:0000001300000000
#03916:13130000
#0391b:13
#03917:00000013
#03912:00141300
#0391a:00000014
#04216:14
#0421b:1313
#04218:0000001300000000
#04215:0013
#04212:00140014
#04217:0013000000000000
#04616:0000141414001414
#04612:14130014
#0461b:0013
#0461a:24
#04716:14000013
#04715:0000001400000000
#04719:0000000013000014
#04712:00130000
#04714:0013
#04717:0000130000140000
#0471b:00000013
#05715:0000130000130000
#0571b:0000131300000000
#05718:00001313
#05712:0000000013000014
#0571a:0000000000000014
#05710:41
#05818:0013000013000000
#05812:00000000130000001300000000000013
#05815:0000001300000000
#0581b:0000130000130000
#05816:00000000000000000000001300000000
#05819:00000013
#05817:0000000000000013
#05814:00000000000000000000000000130000
#06215:13
#0621a:1400000000141400
#0621b:00130000
#06217:0000001300000000
#06212:0000141400130000
#06216:00000013
#06416:1400141400141400
#06412:0000001400000000
#0641a:24000014
#0661a:00000012
#06617:0000120012000012
#06614:14
#06817:00121200
#06814:0000000000120000
#06816:00000012
#06818:1400000000000012
#07017:00121200
#07019:0000000000130013
#07016:00000014
#07014:1400000000130013
#07114:28141813
#07118:0000001400000000
#07119:00000013
#07116:0000000000000014
#07816:00141414
#07813:1300000000130000
#0781a:0000000000000013
#10718:1200003200000000
#10716:12
#10714:00000012
#0081b:0013000000000000
#00815:13
#00812:0013250025000000
#00819:00252500
#01118:16
#01116:0000001400000014
#01112:00241600
#0111a:00001424
#01212:1414000000002400
#0121a:1414000000002400
#01214:0000001400140000
#01216:0000000000000014
#01218:00241400
#01917:12000012
#0191b:1300005300005300
#02516:00140014
#02512:14
#0291a:1400001200001400
#02917:0012
#02912:12
#03116:14141414
#0311a:14
#03715:0014
#03717:13
#03712:2300001300001300
#0371b:00005313
#03716:00000000000000000000000000000012
#03718:0000000000000012
#0481b:13
#04812:16660000
#04816:000000000000000000000066000000000000000000000000000000000000000000000000140000000000000000000000
#04819:0024
#04813:0024
#04818:0000000000000066000000000000000000000000000000000000000000000000
#04814:000000000000000000000000000000000000000000000066000000000000000000000000000000000000000000000000000000000000000000000000000000000000000000000000000000000000000000000000000000000000000000000000
#05315:0000000000130013
#0531b:1313
#05312:13131300
#05316:0000141400000000
#05318:00000013
#05015:0000001300000000
#05018:0013
#05012:1313
#05016:1413000000001400
#0501b:00000013
#0501a:00140000
#05216:0000000024000014
#05212:00140013
#0521b:00002313
#05215:0013000000000000
#05217:00130000
#0521a:0014000000000000
#05416:0000000000001414
#05412:14141400
#0541a:14141414
#05417:0014000000000000
#05415:0000001400000000
#05516:1400141414000000
#05512:00140014
#0551a:00000014
#05513:0000000000000014
#05519:0000000000000014
#05116:24142400
#05112:24130014
#05115:0000000000000013
#05117:00000013
#0511a:0000000024000014
#05614:14
#05618:14
#05616:0024
#05612:002c0000
#05916:0013000000000013
#05917:0013
#0591a:1414000000001414
#05912:0000001414000000
#06012:1414000013000000
#06017:0013000000000000
#0601a:0000141400000000
#06016:0000001300000000
#06015:0000000000130000
#06018:00000013
#0601b:0000000000000013
#07215:1300000000000000000000000000000000530000000000000000000000000000
#07218:1300000000000000000000000000000000530000000000000000000000000000
#07214:00530000000000000000000000000000000000000000000000000000000000000053000000000000000000000000000000000000000000000000000000000000
#07213:0053000000000000000000000000000053000000000000000000000000000000
#07219:00530000000000000000000000000000000000000000000000000000000000000053000000000000000000000000000000000000000000000000000000000000
#0721a:0053000000000000000000000000000053000000000000000000000000000000
#0741a:00000013
#07413:13
#07417:00121200
#07416:0000000000000014
#07617:00121200
#07613:0000000000130000
#07616:00000012
#07618:0000000000000012
#0761a:13
#07316:140000000000000000000000000000000000000000000000000000000000000000000000000000000000000000000000000000000000000000000000000000000000000000000000000000000000000000000000000000000000000000000000000000000000000000000000000000000000000000000000000000000000000000000000000000000000000000000000000000000000000000000000000000000000000000000000000000000000000000000000000000000000000000000074007400000000000000000000000000000000000000000000000000000000000000000000000000000000000000000000000000000000000000000000000000000000000000000000000000000000000000000000000000000000000000000000000000000000000000000000000000000000000000000000000000000000000000000000000000000000000000000000000000000000000000000000000000000000000000000000000000000000000000000000000000000000000000000000
#0731a:13
#07313:00130013
#07315:0066
#0651a:1212
#06517:00120012
#06514:00000012
#0651f:11
#06516:24
#0671a:12000012
#06714:1212
#06717:00120012
#06914:1400000000001212
#0691a:1212
#06917:00120012
#08512:13241424
#08518:1316
#08516:0000001400000014
#0821a:14240014
#08212:1413
#08218:0013
#08215:0000001300000000
#08216:0014000000000000
#08418:0000000000000013
#0841b:0013000000001300
#08416:0014140023000000
#08412:00130024
#0841a:0024
#08616:0000241414001414
#08612:1413
#0861b:00130000
#0861a:00000024
#08618:26
#08716:14130000
#08717:0000001400000000
#08714:0013
#08713:0000000000000014
#08719:0013
#08715:0000000000140000
#08712:00000013
#0871a:00240024
#08916:0000001318000013
#08919:00130013
#08912:24241424
#0891a:24
#0911b:00000013
#09112:0000000024000013
#09116:2400140024002414
#0911a:2400141400000000
#09212:0013000024000000
#09216:0014140000000014
#0921b:00130000
#09217:0023
#0921a:00000024
#09316:1800001400140014
#09312:14130013
#0931b:0013
#0931a:00240024
#09012:1400240000001414
#0901a:14
#09018:0000001300000000
#09015:0013
#0901b:0013
#09016:0014000000001400
#09416:0000000000001414
#0941a:00240000
#09412:24002c24
#09414:0023000000000000
#09419:0000002300000000
#09516:1400141414000000
#09519:0000000000000014
#09513:0000000000000014
#0951a:00240024
#09512:00000024
#09618:1414
#09614:1414
#09616:0000000000002414
#09612:00240013
#0961a:00240000
#08316:2400001400142414
#0831a:0014
#08312:24240013
#0831b:0000000000000013
#08310:41
#09712:0000241400000000
#09717:00130000
#0971a:0014
#09718:0000000000140000
#09714:0000000000000014
#09716:14001324
#0971b:13
#09812:14665666
#0981a:14
#09818:00566656
#0231b:1300005300005300
#02313:12121200
#02315:00000012
#08812:1300000000000066000000000000000000000000000000001c00000000000000
#08818:16660000
#08813:0024
#08819:0024
#08814:000000000000000000000066000000000000000000000000000000000000000000000000000000000000000000000000
#08816:000000000000000000000000000000000000000000000066000000000000000000000000000000000000000000000000000000000000000000000000000000000000000000000000000000000000000000000000000000000000000000000000
#04912:2400001313000013
#04916:0014
#04915:00130013
#0491a:24140014
#08112:00000000000000000000000000000000000000000000000000000000000000000000000000000000000000000000000000000000000000000000000000000000000000000000000000000000000000000000000000000000000000000000000000000000000000000000000000000000000000000000000000000000000000000000000000000000000000000000000000000000000000000000000000000000000000000000000000000000000000000000000000000000000000000000000000000000000000000000000000000000000000000000000000000000000000000000000000000000000000000000000023000000000000000000000000000000000000000000000000000000000000000000000000000000000000000000000000000000000000000000000000000000000000000000000000000000000000000000000000000000000000000000000000000000000000000000000000000000000000000000000000000000000000000000000000000000000000000000000000000000000000000000000000000000000000000000000000000000000000000000000000000000000000000000000000000000000000000000000000000000000000000000000000000000000000000000000000000000000000000000008c000000000000000000000000000000000000000000000000000000000000000000000000000000000000000000000000000000000000000000000000000000000000000000000000000000000000000000000000000000000000000000000000000000000000000000000000000000000000000000000000000000000000000000000000000000000000000000000000000000000000000000000000000000000000000000000000000000000000000000000000000000000000000000000000000000000000000000000000000000000000000000000000000000000000000000000000000000000000000000000000000000000000000000000000000000000000000000000000000000000000000000000000000000000000000000000000000000000000000000000000000000000000000000000000000000000000000000000000000000000000000000000000000000000000000000000000000000000000000000000000000000000000000000000000000000000000000000000000000000000000000000000000000000000000000000000000000000000000000000000000000000000000000000000000000000000000000000000000000000000000000000000000000000000000000000000000000000000000000000000000180000000000000000000000000000000000000000000000000000000000000000000000000000000000000000000000000000000000000000000000000000000000000000000000000000000000000000000000000000000000000000000000000000000000000000000000000000000000000000000000000000000000000000000000000000000000000000000000000000000000000000000000000000000000000000000000000000000000000000000000000000000000000000000000000000000000000000000000000000000000000000000000000000000000000000000000000000000000000000000000000000000000000000000000000000000000000000000000000000000000000000000000000000000000000000000000000000000000000000000000000000000000000000000000000000000000000000000000000000000000000000000000000000000000000000000000000000000000000000000000000000000000000000000000000000000000000000000000000000000000000000000000000000000000000000000000000000000000000000000000000000000000000000000000000000000000000000000000000000000000000000000000000000000000000000000000000000000000000000000000000000000000000000000000000000000000000000000000000000000000000000000000000000000000000000000000000000000000000000000000000000000000000000000000000000000000000000000000000000000000000000000000000000000000000000000000000000000000000000000000000000000000000000000000000000000000000000000000000000000000000000000000000000000000000000000000000000000000000000000000000000000000000000000000000000000000000000000000000000000000000000000000000000000000000000000000000000000000000000000000000000000000000000000000000000000000000000000000000000000000000000000000000000000000000000000000000000000000000000000000000000000000000000000000000000000000000000000000000000000000000000000000000000000000000000000000000000000000000000000000000000000000000000000000000000000000000000000000000000000000000000000000000000000000000000000000000000000000000000000000000000000000000000000000000000000000000000000000000000000000000000000000000000000000000000000000000000000000000000000000
#08117:0000000000000013
#08114:00000013
#0811a:00001424
#08116:248400000000000000000000000000000000000000000000000000000000000000000000000000000000000000000000000000000000000000000000000000000000000000000000000000000000000000000000000000000000000000000000000000000000000000000000000000000000000000000000000000000000000000000000000000000000000000000000000000000000000000000000000000000000000000000000000000000000000000000000000000000000000000000000000000000000000000000000000000000000000000000000000000000000000000000000000000000000000000000000000000000000000000000000000000000000000000000000000000000000000000000000000000000000000000000000000000000000000000000000000000000000000000000000000000000000000000000000000000000000000000000000000000000000000000000000000000000000000000000000000000000000000000000000000000000000000000000000000000000000000000000000000000000000000000000000000000000000000000000000000000000000000000000000000000000000000000000000000000000000000000000000000000000000000000000000000000000000000000000000000000000000000000000000000000000000000000000000000000000000000000000000000000000000000000000000000000000000000000000000000000000000000000000000000000000000000000000000000000000000000000000000000000000000000000000000000000000000000000000000000000000000000000000000000000000000000000000000000000000000000000000000000000000000000000000000000000000000000000000000000000000000000000000000000000000000000000000000000000000000000000000000000000000000000000000000000000000000000000000000000000000000000000000000000000000000000000000000000000000000000000000000000000000000000000000000000000000000000000000000000000000000000000000000000000000000000000000000000000000000000000000000000000000000000000000000000000000000000000000000000000000000000000000000000000000000000000000000000000000000000000000000000000000000000000000000000000000000000000000000000000000000000000000000000000000000000000000000000000000000000000000000000000000000000000000000000000000000000000000000000000000000000000000000000000000000000000000000000000000000000000000000000000000000000000000000000000000000000000000000000000000000000000000000000000000000000000000000000000000000000000000000000000000000000000000000000000000000000000000000000000000000000000000000000000000000000000000000000000000000000000000000000000000000000000000000000000000000000000000000000000000000000000000000000000000000000000000000000000000000000000000000000000000000000000000000000000000000000000000000000000000000000000000000000000000000000000000000000000000000000000000000000000000000000000000000000000000000000000000000000000000000000000000000000000000000000000000000000000000000000000000000000000000000000000000000000000000000000000000000000000000000000000000000000000000000000000000000000000000000000000000000000000000000000000000000000000000000000000000000000000000000000000000000000000000000000000000000000000000000000000000000000000000000000000000000000000000000000000000000000000000000000000000000000000000000000000000000000000000000000000000000000000000000000000000000000000000000000000000000000000000000000000000000000000000000000000000000000000000000000000000000000000000000000000000000000000000000000000000000000000000000000000000000000000000000000000000000000000000000000000000000000000000000000000000000000000000000000000000000000000000000000000000000000000000000000000000000000000000000000000000000000000000000000000000000000000000000000000000000000000000000000000000000000000000000000000000000000000000000000000000000000000000000000000000000000000000000000000000000000000000000000000000000000000000000000000000000000000000000000000000000000000000000000000000000000000000000000000000000000000000000000000000000000000000000000000000000000000000000000000000000000000000000000000000000000000000000000000000000000000000000000000000000000000000000000000000000000000000000000000000000000000000000000000000000000000000000000000000000
#0811b:0023000000000000
#0811f:00210000
#0381b:13130000
#03812:00130013
#03814:0014
#03817:00000014
#03818:0000001300000000
#07516:140000000000000000000000000000000000000000000000000000000000000000000000000000000000000000000000000000000000000000000000000000000000000000000000000000000000000000000000000000000000000000000000000000000000000000000000000000000000000000000000000000000000000000000000000000000000000000000000000000000000000000000000000000000000000000000000000000000000000000000000000000000000000000000074007400000000000000000000000000000000000000000000000000000000000000000000000000000000000000000000000000000000000000000000000000000000000000000000000000000000000000000000000000000000000000000000000000000000000000000000000000000000000000000000000000000000000000000000000000000000000000000000000000000000000000000000000000000000000000000000000000000000000000000000000000000000000000000000
#07513:13
#0751a:00130013
#07515:0066
#07716:140000000000000000000000000000000000000000000000000000000000000000000000000000000000000000000000000000000000000000000000000000000000000000000000000000000000000000000000000000000000000000000000000000000000000000000000000000000000000000000000000000000000000000000000000000000000000000000000000000000000000000000000000000000000000000000000000000000000000000000000000000000000000000000074007400000000000000000000000000000000000000000000000000000000000000000000000000000000000000000000000000000000000000000000000000000000000000000000000000000000000000000000000000000000000000000000000000000000000000000000000000000000000000000000000000000000000000000000000000000000000000000000000000000000000000000000000000000000000000000000000000000000000000000000000000000000000000000000
#0771a:13
#07713:00130013
#07715:0066
#10817:12
#10818:00525252
#10816:0000005200520052
#00116:2400001400000000
#00115:00000013
#00118:00000013
#00216:1400001400000000
#00218:00000013
#00316:0000001400000000
#00315:00000013
#00318:00000013
#00416:1400001400000000
#00418:00000023
#00516:0000001400000000
#00515:23000013
#00518:00000013
#00616:1400001400000000
#00618:00000013
#00615:00000013
#00716:14
#10315:0000001400000000
#10317:0000000000140000
#10312:13001324
#10316:0014000000000014
#1031b:13001313
#1031a:00240000
#10414:0013001300000000
#10416:0000240000140014
#10419:0013001300000000
#10412:14000024
#1041a:0014
#10516:1400001400000014
#10512:14001424
#1051a:00241400
#09915:0000001400000014
#09912:66131324
#09917:0000000000140000
#0991b:00001313
#0991a:00240000
#09918:56
#10012:0014140000130014
#10018:13001313
#1001b:0013000000000013
#10015:0013
#1001a:0000000000140000
#10112:16001424
#10116:0000001400000014
#10118:0016
#1011a:00240000
#1021a:1414000000002400
#10212:1414000000002400
#10218:0000001400140000
#10216:0000000000000014
#10214:00241400
#1061a:14
#10612:14000026
#10616:00161800
#10618:00000026
#02117:12000012
#02112:1300005300005300
#02110:41
#07912:2c
#04152:14
#0415a:14
#04156:0014
#00958:66
#00952:36
#0105a:00140000
#01055:53150053
#01058:0063
#0105b:0000000000230000
#01052:0023000000000023
#01852:13
#01857:12
#0205b:13
#0245b:13
#02457:12
#03252:1316
#0325b:13
#03956:00230000
#0395b:63
#03957:00000023
#03952:00145300
#0395a:00000014
#04052:001c
#04054:00000054
#04058:00000054
#0425b:53
#04252:00000054
#04257:0023000000000000
#04256:14
#0435a:14640000
#04356:1414
#04352:0014
#04656:00000054
#0465a:14
#05752:1c00000000000014
#0575a:0000000000000014
#06456:6400001400001400
#06452:0000001400000000
#0645a:00000014
#07154:1818
#1075a:00000012
#10758:52
#10754:00000012
#01158:66
#01152:0056
#0135b:53
#01356:0024000000000024
#01352:00000063
#0155a:64
#01552:0054
#0165a:64
#01654:00260000
#02652:14
#0265a:14
#0275c:52
#02757:0022
#02752:14
#0285c:12
#02852:14
#0305a:14
#03052:12
#02957:0022
#02952:62
#0295a:14
#03156:64546454
#0315a:14
#03356:53
#03557:53
#0355b:00230000
#03555:0063
#03552:00000023
#03757:63
#04456:00631400
#0445a:00640000
#04452:0013
#04552:0014
#04852:56360000
#05056:1423000000006400
#05052:63
#05456:00000064
#05452:1414
#0545a:00140000
#05152:14
#05156:14541400
#0515a:0014
#05556:00540000
#05552:14
#0555a:0014
#07356:540000000000000000000000000000000000000000000000000000000000000000000000000000000000000000000000000000000000000000000000000000000000000000000000000000000000000000000000000000000000000000000000000000000000000000000000000000000000000000000000000000000000000000000000000000000000000000000000000000000000000000000000000000000000000000000000000000000000000000000000000000000000000000000000005400000000000000000000000000000000000000000000000000000000000000000000000000000000000000000000000000000000000000000000000000000000000000000000000000000000000000000000000000000000000000000000000000000000000000000000000000000000000000000000000000000000000000000000000000000000000000000000000000000000000000000000000000000000000000000000000000000000000000000000000000000000000000000000
#07353:00230000
#07453:13
#0745a:13
#0655a:5252
#06557:00220022
#06654:14
#0665a:42
#06858:14
#06854:32
#07054:14
#0705a:42
#08057:12
#07952:5c
#08156:646400000000000000000000000000000000000000000000000000000000000000000000000000000000000000000000000000000000000000000000000000000000000000000000000000000000000000000000000000000000000000000000000000000000000000000000000000000000000000000000000000000000000000000000000000000000000000000000000000000000000000000000000000000000000000000000000000000000000000000000000000000000000000000000000000000000000000000000000000000000000000000000000000000000000000000000000000000000000000000000000000000000000000000000000000000000000000000000000000000000000000000000000000000000000000000000000000000000000000000000000000000000000000000000000000000000000000000000000000000000000000000000000000000000000000000000000000000000000000000000000000000000000000000000000000000000000000000000000000000000000000000000000000000000000000000000000000000000000000000000000000000000000000000000000000000000000000000000000000000000000000000000000000000000000000000000000000000000000000000000000000000000000000000000000000000000000000000000000000000000000000000000000000000000000000000000000000000000000000000000000000000000000000000000000000000000000000000000000000000000000000000000000000000000000000000000000000000000000000000000000000000000000000000000000000000000000000000000000000000000000000000000000000000000000000000000000000000000000000000000000000000000000000000000000000000000000000000000000000000000000000000000000000000000000000000000000000000000000000000000000000000000000000000000000000000000000000000000000000000000000000000000000000000000000000000000000000000000000000000000000000000000000000000000000000000000000000000000000000000000000000000000000000000000000000000000000000000000000000000000000000000000000000000000000000000000000000000000000000000000000000000000000000000000000000000000000000000000000000000000000000000000000000000000000000000000000000000000000000000000000000000000000000000000000000000000000000000000000000000000000000000000000000000000000000000000000000000000000000000000000000000000000000000000000000000000000000000000000000000000000000000000000000000000000000000000000000000000000000000000000000000000000000000000000000000000000000000000000000000000000000000000000000000000000000000000000000000000000000000000000000000000000000000000000000000000000000000000000000000000000000000000000000000000000000000000000000000000000000000000000000000000000000000000000000000000000000000000000000000000000000000000000000000000000000000000000000000000000000000000000000000000000000000000000000000000000000000000000000000000000000000000000000000000000000000000000000000000000000000000000000000000000000000000000000000000000000000000000000000000000000000000000000000000000000000000000000000000000000000000000000000000000000000000000000000000000000000000000000000000000000000000000000000000000000000000000000000000000000000000000000000000000000000000000000000000000000000000000000000000000000000000000000000000000000000000000000000000000000000000000000000000000000000000000000000000000000000000000000000000000000000000000000000000000000000000000000000000000000000000000000000000000000000000000000000000000000000000000000000000000000000000000000000000000000000000000000000000000000000000000000000000000000000000000000000000000000000000000000000000000000000000000000000000000000000000000000000000000000000000000000000000000000000000000000000000000000000000000000000000000000000000000000000000000000000000000000000000000000000000000000000000000000000000000000000000000000000000000000000000000000000000000000000000000000000000000000000000000000000000000000000000000000000000000000000000000000000000000000000000000000000000000000000000000000000000000000000000000000000000000000000000000000000000000000000000000000000000000000000000000000000000000000000000000000000000000000000000000000000000000000000000000000000000000000000000000000000000000000000000
#0815b:0023000000000000
#08152:00231c0000000000
#0815a:0044
#08558:0016
#0825a:44000064
#08252:64
#08256:0024000000000000
#08656:00000064
#08658:16
#0905a:54
#09056:0024000000005400
#09052:3400000000000054
#09456:00000054
#09452:001c
#09256:00640000
#0925b:00630000
#09252:0014
#09257:0013
#09556:00640000
#0955a:14
#09552:0014
#08352:14
#08356:14
#0915a:1400006400000000
#09156:14641400
#09152:0014
#09958:16
#09952:16
#08952:1434
#0895a:14
#09352:34
#08858:66460000
#08859:0014
#08853:0014
#04956:0014
#04952:14
#0495a:14
#05257:00530000
#05252:00540000
#0525b:0013
#05256:0014
#0595a:0014000000000000
#05952:0014
#0625a:14000014
#06252:0000001400000000
#06152:0014000000000000
#0615a:0000001400000000
#08456:00541300
#08452:00530000
#0845a:0014
#06754:6262
#06757:00220022
#0695a:5252
#06957:00220022
#07556:640000000000000000000000000000000000000000000000000000000000000000000000000000000000000000000000000000000000000000000000000000000000000000000000000000000000000000000000000000000000000000000000000000000000000000000000000000000000000000000000000000000000000000000000000000000000000000000000000000000000000000000000000000000000000000000000000000000000000000000000000000000000000000000000006400000000000000000000000000000000000000000000000000000000000000000000000000000000000000000000000000000000000000000000000000000000000000000000000000000000000000000000000000000000000000000000000000000000000000000000000000000000000000000000000000000000000000000000000000000000000000000000000000000000000000000000000000000000000000000000000000000000000000000000000000000000000000000000
#0755a:00230000
#0765a:13
#07653:13
#07756:540000000000000000000000000000000000000000000000000000000000000000000000000000000000000000000000000000000000000000000000000000000000000000000000000000000000000000000000000000000000000000000000000000000000000000000000000000000000000000000000000000000000000000000000000000000000000000000000000000000000000000000000000000000000000000000000000000000000000000000000000000000000000000000000005400000000000000000000000000000000000000000000000000000000000000000000000000000000000000000000000000000000000000000000000000000000000000000000000000000000000000000000000000000000000000000000000000000000000000000000000000000000000000000000000000000000000000000000000000000000000000000000000000000000000000000000000000000000000000000000000000000000000000000000000000000000000000000000
#07753:00230000
#07853:13
#0785a:13
#10857:12
#0015a:0000004400000000
#00252:0000003400000000
#0035a:0000004400000000
#00452:0000003400000000
#0055a:0000004400000000
#00555:33
#00652:0000003400000000
#10052:0000140000230000
#10058:63000063
#1005b:0023000000000023
#10055:0053
#10056:00150000
#10152:56
#10158:0066
#10352:63
#10356:0024000000000024
#1035b:00000053
#10552:54
#1055a:0064
#10652:54000036
#10656:00260000
#10658:00000046
#05654:14
#05658:14
#09658:14
#09654:14
#02252:13
#0013a0:1454545454545454545454542400000000000000000000000000000000000000
#001390:00540054005400540054005400540054005400540054005400000000000000000000000000000000000000000000000000000000000000000000000000000000
#002320:1454545454545454545454542400000000000000000000000000000000000000
#002330:00540054005400540054005400540054005400540054005400000000000000000000000000000000000000000000000000000000000000000000000000000000
#002350:0000000000000000000000000000000000000000000000001353535353535353
#002360:00000000000000000000000000000000000000000000000000000000000000000000000000000000000000000000000000530053005300530053005300530053
#003350:23
#0033a1:1454545454545454545454542400000000000000000000000000000000000000
#003391:00540054005400540054005400540054005400540054005400000000000000000000000000000000000000000000000000000000000000000000000000000000
#004321:1454545454545454545454542400000000000000000000000000000000000000
#004331:00540054005400540054005400540054005400540054005400000000000000000000000000000000000000000000000000000000000000000000000000000000
#004351:0000000000000000000000000000000000000000000000001353535353535353
#004361:00000000000000000000000000000000000000000000000000000000000000000000000000000000000000000000000000530053005300530053005300530053
#005351:23
#0053a0:1454545454545454545454542400000000000000000000000000000000000000
#005390:00540054005400540054005400540054005400540054005400000000000000000000000000000000000000000000000000000000000000000000000000000000
#006320:1454545454545454545454542400000000000000000000000000000000000000
#006330:00540054005400540054005400540054005400540054005400000000000000000000000000000000000000000000000000000000000000000000000000000000
#0073a0:1454545454545454545454545454545424000000000000000000000000000000
#007390:00540054005400540054005400540054005400540054005400540054005400540000000000000000000000000000000000000000000000000000000000000000
#007351:0000000000000000000000000000000013535353230000000000000000000000
#007341:00000000000000000000000000000000000000000000000000000000000000000053005300530053000000000000000000000000000000000000000000000000
#007380:0000000000000000000000000000000000000000135353532300000000000000
#007390:00000000000000000000000000000000000000000000000000000000000000000000000000000000005300530053005300000000000000000000000000000000
#007351:0000000000000000000000000000000000000000000000001353535323000000
#007341:00000000000000000000000000000000000000000000000000000000000000000000000000000000000000000000000000530053005300530000000000000000
#007380:0000000000000000000000000000000000000000000000000000000013535353
#007390:00000000000000000000000000000000000000000000000000000000000000000000000000000000000000000000000000000000000000000053005300530053
#008380:23
#009380:16
#0093c0:00220000
#010350:13250000
#010320:0053000000000000
#010380:00001323
#0103b0:0000000000530000
#010350:000000000000000000000000000000000000000000000000000000000000000000000000000000000000000000000000000000000000000000000000000000000000000000000000000000000000000000000000000000000000000000000000000000000000000000000000000000000000000000000000000000000000000000000000000000000000000000000000000000000000000000000000000000000000000000000000000000000000000000000000000000000000000000000000000000000000000000000000000000000000000000000000000000000000000000000000000000000000000000000000000000000000000000000000000000000000000000000000000000000000000000000000000000000000000000000000000000000000000000000000000000000000000000000000000000000000000000000000000000000000000000000000000000000000000000000000000000000000000000000000000000000000000000000000000000000000000000000000000000000000000000000000000000000000000000000000000000000000000000000000000000000000000000000000000000000000000000000000000000000000000000000000000000000000000000000000000000000000000000000000000000000000000000000000000000000000000000000000000000000000000000000000000000000000000000000000000000000000000000000000000000000000000000000000000000000000000000000000000000000000000000000000000000000000000000000000000000000000000000000000000000000000000000000000000000000000000000000000000000000000000000000000000000000000000000000000000000000000000000000000000000000000000000000000000000000000000000000000000000000000000000000000000000000000000000000000000000000000000000000000000000000000000000000000000000000000000000000000000000000000000000000000000000000000000000000000000000000000000000000000000000000000000000000000000000000000000000000000000000000000000000000000000000000000000000000000000000000000000000000000000000000000000000000000000000000000000000000000000000000000000000000000000000000000000000000000000000000000000000000000000000000000000000000000000000000000000000000000000000000000000000000000000000000000000000000000000000000000000000000000000000000000000000000000000000000000000000000000000000000000000000000000000000000000000000000000000000000000000000000000000000000000000000000000000000000000000000000000000000000000000000000000000000000000000000000000000000000000000000000000000000000000000000000000000000000000000000000000000000000000000000000000000000000000000000000000000000000000000000000000000000000000000000000000000000000000000000000000000000000000000000000000000000000000000000000000000000000000000000000000000000000000000000000000000000000000000000000000000000000000000000000000000000000000000000000000000000000000000000000000000000000000000000000000000000000000000000000000000000000000000000000000000000000000000000000000000000000000000000000000000000000000000000000000000000000000000000000000000000000000000000000000000000000000000000000000000000000000000000000000000000000000000000000000000000000000000000000000000000000000000000000000000000000000000000000000000000000000000000000056000000000000000000000000000000000000000000000000000000000000000000000000000000000000000000000000000000000000000000000000000000000000000000000000000000000000000000000000000000000000000000000000000000000000000000000000000000000000000000000000000000000000000000000000000000000000000000000000000000000000000000000000000000000000000000000000000000000000000000000000000000000000000000000000000000000000000000000000000000000000000000000000000000000000000000000000000000000000000000000000000000000000000000000000000000000000000000000000000000000000000000000000000000000000000000000000000000000000000000000000000000000000000000000000000000000000000000000000000000000000000000000000000000000000000000000000000000000000000000000000000000000000000000000000000000000000000000000000000000000000000000000000000000000000000000000000000000000000000000000000000000000000000000000000000000000000000000000000000000000000000000000000000000000000000000000000000000000000000000000000
#010351:000000000000000000000000000000000000000000000000000000000000000000000000000000000000000000000000000000000000000000000000000000000000000000000000000000000000000000000000000000000000000000000000000000000000000000000000000000000000000000000000000000000000000000000000000000000000000000000000000000000000000000000000000000000000000000000000000000000000000000000000000000000000000000000000000000000000000000000000000000000000000000000000000000000000000000000000000000000000000000000000000000000000000000000000000000000000000000000000000000000000000000000000000000000000000000000000000000000000000000000000000000000000000000000000000000000000000000000000000000000000000000000000000000000000000000000000000000000000000000000000000000000000000000000000000000000000000000000000000000000000000000000000000000000000000000000000000000000000000000000000000000000000000000000000000000000000000000000000000000000000000000000000000000000000000000000000000000000000000000000000000000000000000000000000000000000000000000000000000000000000000000000000000000000000000000000000000000000000000000000000000000000000000000000000000000000000000000000000000000000000000000000000000000000000000000000000000000000000000000000000000000000000000000000000000000000000000000000000000000000000000000000000000000000000000000000000000000000000000000000000000000000000000000000000000000000000000000000000000000000000000000000000000000000000000000000000000000000000000000000000000000000000000000000000000000000000000000000000000000000000000000000000000000000000000000000000000000000000000000000000000000000000000000000000000000000000000000000000000000000000000000000000000000000000000000000000000000000000000000000000000000000000000000000000000000000000000000000000000000000000000000000000000000000000000000000000000000000000000000000000000000000000000000000000000000000000000000000000000000000000000000000000000000000000000000000000000000000000000000000000000000000000000000000000000000000000000000000000000000000000000000000000000000000000000000000000000000000000000000000000000000000000000000000000000000000000000000000000000000000000000000000000000000000000000000000000000000000000000000000000000000000000000000000000000000000000000000000000000000000000000000000000000000000000000000000000000000000000000000000000000000000000000000000000000000000000000000000000000000000000000000000000000000000000000000000000000000000000000000000000000000000000000000000000000000000000000000000000000000000000000000000000000000000000000000000000000000000000000000000000000000000000000000000000000000000000000000000000000000000000000000000000000000000000000000000000000000000000000000000000000000000000000000000000000000000000000000000000000000000000000000000000000000000000000000000000000000000000000000000000000000000000000000000000000000000000000000000000000000000000000000000000000000000000000000000000000000000000000000000000130000000000000000000000000000000000000000000000000000000000000000000000000000000000000000000000000000000000000000000000000000000000000000000000000000000000000000000000000000000000000000000000000000000000000000000000000000000000000000000000000000000000000000000000000000000000000000000000000000000000000000000000000000000000000000000000000000000000000000000000000000000000000000000000000000000000000000000000000000000000000000000000000000000000000000000000000000000000000000000000000000000000000000000000000000000000000000000000000000000000000000000000000000000000000000000000000000000000000000000000000000000000000000000000000000000000000000000000000000000000000000000000000000000000000000000000000000000000000000000000000000000000000000000000000000000000000000000000000000000000000000000000000000000000000000000000000000000000000000000000000000000000000000000000000000000000000000000000000000000000000000000000000000000000000000000000000000000000000000000055
#010321:0000000000000053
#011351:23
#011380:16
#0113c0:00220000
#011320:00001622
#0133b0:13230000
#013360:0054000000000000
#013320:00000013
#013360:0000000000000054
#014320:23
#0143a0:0000000014240000
#014320:0000000000001424
#0153a0:14
#015360:00240000
#015320:0014
#015360:00000024
#0163a0:1424
#016340:00560000
#0253a0:1424
#025321:0014
#026321:24
#0273c1:12
#027371:0052
#0283c1:22
#029321:12
#029371:0052
#030321:22
#031361:14
#031321:00230000
#031360:00140000
#0313b0:0023
#031361:0014
#031321:00000023
#031360:00000014
#0323b0:23
#035370:13
#0353b0:00530000
#035380:0023
#035351:0013
#035321:00000053
#036361:23
#0393b1:13
#039361:00330000
#0393a1:0024
#039320:0013
#039370:00000033
#040320:24
#040340:00000014
#041320:24
#040381:00000014
#0413a1:24
#0423b1:13230000
#042371:0053000000000000
#042361:00000014
#043361:24
#042320:00000014
#0433a0:24
#043360:00142400
#0433a1:00140000
#043321:0024
#044361:00130000
#044321:0023
#0443a0:00140000
#044360:0024
#046360:00000014
#0463a0:0000000000000034
#0473a0:24
#048320:16
#048380:0000000000000026000000000000000000000000000000000000000000000000
#050320:13230000
#050360:0053000000000000
#050360:00000014
#050320:0000000000000054
#051320:24
#050361:0000000000000014
#051361:24
#051361:00140000
#0513a1:0000005424000000
#051360:0000001424000000
#052370:00130000
#0523b0:0023
#052321:00140000
#052361:0024
#054361:00000014
#054321:0000000000000034
#055321:24
#055361:00140000
#0553a1:0000003424000000
#056361:0014
#057321:2c
#064361:14
#064321:00240000
#0653a1:1232
#065371:00520052
#0663a1:22
#067341:1232
#067371:00520052
#068341:22
#0693a1:1232
#069371:00520052
#0703a1:22
#072331:0013000000000000000000000000000023000000000000000000000000000000
#0723a0:0013000000000000000000000000000023000000000000000000000000000000
#073360:140000000000000000000000000000000000000000000000000000000000000000000000000000000000000000000000000000000000000000000000000000000000000000000000000000000000000000000000000000000000000000000000000000000000000000000000000000000000000000000000000000000000000000000000000000000000000000000000000000000000000000000000000000000000000000000000000000000000000000000000000000000000000000000024000000000000000000000000000000000000000000000000000000000000000000000000000000000000000000000000000000000000000000000000000000000000000000000000000000000000000000000000000000000000000000000000000000000000000000000000000000000000000000000000000000000000000000000000000000000000000000000000000000000000000000000000000000000000000000000000000000000000000000000000000000000000000000000000
#073330:00530000
#073360:000000000000000000000000000000000000000000000000000000000000000000000000000000000000000000000000000000000000000000000000000000000000000000000000000000000000000000000000000000000000000000000000000000000000000000000000000000000000000000000000000000000000000000000000000000000000000000000000000000000000000000000000000000000000000000000000000000000000000000000000000000000000000000000000001400000000000000000000000000000000000000000000000000000000000000000000000000000000000000000000000000000000000000000000000000000000000000000000000000000000000000000000000000000000000000000000000000000000000000000000000000000000000000000000000000000000000000000000000000000000000000000000000000000000000000000000000000000000000000000000000000000000000000000000000000000000000000000000
#0733a0:00000053
#0743a0:23
#075360:140000000000000000000000000000000000000000000000000000000000000000000000000000000000000000000000000000000000000000000000000000000000000000000000000000000000000000000000000000000000000000000000000000000000000000000000000000000000000000000000000000000000000000000000000000000000000000000000000000000000000000000000000000000000000000000000000000000000000000000000000000000000000000000024000000000000000000000000000000000000000000000000000000000000000000000000000000000000000000000000000000000000000000000000000000000000000000000000000000000000000000000000000000000000000000000000000000000000000000000000000000000000000000000000000000000000000000000000000000000000000000000000000000000000000000000000000000000000000000000000000000000000000000000000000000000000000000000000
#0753a0:00530000
#075360:000000000000000000000000000000000000000000000000000000000000000000000000000000000000000000000000000000000000000000000000000000000000000000000000000000000000000000000000000000000000000000000000000000000000000000000000000000000000000000000000000000000000000000000000000000000000000000000000000000000000000000000000000000000000000000000000000000000000000000000000000000000000000000000000001400000000000000000000000000000000000000000000000000000000000000000000000000000000000000000000000000000000000000000000000000000000000000000000000000000000000000000000000000000000000000000000000000000000000000000000000000000000000000000000000000000000000000000000000000000000000000000000000000000000000000000000000000000000000000000000000000000000000000000000000000000000000000000000
#075330:00000053
#076330:23
#077360:140000000000000000000000000000000000000000000000000000000000000000000000000000000000000000000000000000000000000000000000000000000000000000000000000000000000000000000000000000000000000000000000000000000000000000000000000000000000000000000000000000000000000000000000000000000000000000000000000000000000000000000000000000000000000000000000000000000000000000000000000000000000000000000024000000000000000000000000000000000000000000000000000000000000000000000000000000000000000000000000000000000000000000000000000000000000000000000000000000000000000000000000000000000000000000000000000000000000000000000000000000000000000000000000000000000000000000000000000000000000000000000000000000000000000000000000000000000000000000000000000000000000000000000000000000000000000000000000
#077330:00530000
#077360:000000000000000000000000000000000000000000000000000000000000000000000000000000000000000000000000000000000000000000000000000000000000000000000000000000000000000000000000000000000000000000000000000000000000000000000000000000000000000000000000000000000000000000000000000000000000000000000000000000000000000000000000000000000000000000000000000000000000000000000000000000000000000000000000001400000000000000000000000000000000000000000000000000000000000000000000000000000000000000000000000000000000000000000000000000000000000000000000000000000000000000000000000000000000000000000000000000000000000000000000000000000000000000000000000000000000000000000000000000000000000000000000000000000000000000000000000000000000000000000000000000000000000000000000000000000000000000000000
#0773a0:00000053
#0783a0:23
#079320:1c
#080370:22
#081360:14
#0813b0:0053000000000000
#081320:002c0000
#081361:001400000000000000000000000000000000000000000000000000000000000000000000000000000000000000000000000000000000000000000000000000000000000000000000000000000000000000000000000000000000000000000000000000000000000000000000000000000000000000000000000000000000000000000000000000000000000000000000000000000000000000000000000000000000000000000000000000000000000000000000000000000000000000000000000000000000000000000000000000000000000000000000000000000000000000000000000000000000000000000000000000000000000000000000000000000000000000000000000000000000000000000000000000000000000000000000000000000000000000000000000000000000000000000000000000000000000000000000000000000000000000000000000000000000000000000000000000000000000000000000000000000000000000000000000000000000000000000000000000000000000000000000000000000000000000000000000000000000000000000000000000000000000000000000000000000000000000000000000000000000000000000000000000000000000000000000000000000000000000000000000000000000000000000000000000000000000000000000000000000000000000000000000000000000000000000000000000000000000000000000000000000000000000000000000000000000000000000000000000000000000000000000000000000000000000000000000000000000000000000000000000000000000000000000000000000000000000000000000000000000000000000000000000000000000000000000000000000000000000000000000000000000000000000000000000000000000000000000000000000000000000000000000000000000000000000000000000000000000000000000000000000000000000000000000000000000000000000000000000000000000000000000000000000000000000000000000000000000000000000000000000000000000000000000000000000000000000000000000000000000000000000000000000000000000000000000000000000000000000000000000000000000000000000000000000000000000000000000000000000000000000000000000000000000000000000000000000000000000000000000000000000000000000000000000000000000000000000000000000000000000000000000000000000000000000000000000000000000000000000000000000000000000000000000000000000000000000000000000000000000000000000000000000000000000000000000000000000000000000000000000000000000000000000000000000000000000000000000000000000000000000000000000000000000000000000000000000000000000000000000000000000000000000000000000000000000000000000000000000000000000000000000000000000000000000000000000000000000000000000000000000000000000000000000000000000000000000000000000000000000000000000000000000000000000000000000000000000000000000000000000000000000000000000000000000000000000000000000000000000000000000000000000000000000000000000000000000000000000000000000000000000000000000000000000000000000000000000000000000000000000000000000000000000000000000000000000000000000000000000000000000000000000000000000000000000000000000000000000000000000000000000000000000000000000000000000000000000000000000000000000000000000000000000000000000000000000000000000000000000000000000000000000000000000000000000000000000000000000000000000000000000000000000000000000000000000000000000000000000000000000000000000000000000000000000000000000000000000000000000000000000000000000000000000000000000000000000000000000000000000000000000000000000000000000000000000000000000000000000000000000000000000000000000000000000000000000000000000000000000000000000000000000000000000000000000000000000000000000000000000000000000000000000000000000000000000000000000000000000000000000000000000000000000000000000000000000000000000000000000000000000000000000000000000000000000000000000000000000000000000000000000000000000000000000000000000000000000000000000000000000000000000000000000000000000000000000000000000000000000000000000000000000000000000000000000000000000000000000000000000000000000000000000000000000000000000000000000000000000000000000000000000000000000000000000000000000000000000000000000000000000000000000000000000000000000000000000000000000000000000000000000000000000000000000000000000000000000000000000000000
#081321:00000000000000000000000000000000000000000000000000000000000000000000000000000000000000000000000000000000000000000000000000000000000000000000000000000000000000000000000000000000000000000000000000000000000000000000000000000000000000000000000000000000000000000000000000000000000000000000000000000000000000000000000000000000000000000000000000000000000000000000000000000000000000000000000000000000000000000000000000000000000000000000000000000000000000000000000000000000000000000000000053000000000000000000000000000000000000000000000000000000000000000000000000000000000000000000000000000000000000000000000000000000000000000000000000000000000000000000000000000000000000000000000000000000000000000000000000000000000000000000000000000000000000000000000000000000000000000000000000000000000000000000000000000000000000000000000000000000000000000000000000000000000000000000000000000000000000000000000000000000000000000000000000000000000000000000000000000000000000000000002c000000000000000000000000000000000000000000000000000000000000000000000000000000000000000000000000000000000000000000000000000000000000000000000000000000000000000000000000000000000000000000000000000000000000000000000000000000000000000000000000000000000000000000000000000000000000000000000000000000000000000000000000000000000000000000000000000000000000000000000000000000000000000000000000000000000000000000000000000000000000000000000000000000000000000000000000000000000000000000000000000000000000000000000000000000000000000000000000000000000000000000000000000000000000000000000000000000000000000000000000000000000000000000000000000000000000000000000000000000000000000000000000000000000000000000000000000000000000000000000000000000000000000000000000000000000000000000000000000000000000000000000000000000000000000000000000000000000000000000000000000000000000000000000000000000000000000000000000000000000000000000000000000000000000000000000000000000000000000000000000000000000000000000000000000000000000000000000000000000000000000000000000000000000000000000000000000000000000000000000000000000000000000000000000000000000000000000000000000000000000000000000000000000000000000000000000000000000000000000000000000000000000000000000000000000000000000000000000000000000000000000000000000000000000000000000000000000000000000000000000000000000000000000000000000000000000000000000000000000000000000000000000000000000000000000000000000000000000000000000000000000000000000000000000000000000000000000000000000000000000000000000000000000000000000000000000000000000000000000000000000000000000000000000000000000000000000000000000000000000000000000000000000000000000000000000000000000000000000000000000000000000000000000000000000000000000000000000000000000000000000000000000000000000000000000000000000000000000000000000000000000000000000000000000000000000000000000000000000000000000000000000000000000000000000000000000000000000000000000000000000000000000000000000000000000000000000000000000000000000000000000000000000000000000000000000000000000000000000000000000000000000000000000000000000000000000000000000000000000000000000000000000000000000000000000000000000000000000000000000000000000000000000000000000000000000000000000000000000000000000000000000000000000000000000000000000000000000000000000000000000000000000000000000000000000000000000000000000000000000000000000000000000000000000000000000000000000000000000000000000000000000000000000000000000000000000000000000000000000000000000000000000000000000000000000000000000000000000000000000000000000000000000000000000000000000000000000000000000000000000000000000000000000000000000000000000000000000000000000000000000000000000000000000000000000000000000000000000000000000000000000000000000000000000000000000000000000000000000000000000000000000000000000000000000000000000000000000000000000000000000000000000000000000000000000000000000000000000000000000000
#082320:14240000
#082360:0054000000000000
#082360:00000014
#083360:24
#0823a1:00000014
#083321:24
#084361:00140000
#0843a1:0024
#084320:00130000
#084360:0023
#086360:00000014
#086320:0000000000000034
#087320:24
#088380:16
#088320:0000000000000026000000000000000000000000000000000000000000000000
#0903a0:14240000
#090360:0054000000000000
#090360:00000014
#0913a0:24
#090321:0000000000000014
#091361:24
#091361:00140000
#091321:0024
#0913a0:0000001400000000
#091360:0024
#092360:00140000
#092320:0024
#0923b1:00130000
#092371:0023
#0943a1:14
#094371:00542400000000000000000000000000
#094321:00140000
#094351:00000000005424000000000000000000
#094361:00000014
#0943a1:0000000000000034
#0953a1:24
#095361:00140000
#095321:0000003424000000
#098321:00162600
#098380:00001626
#098321:00000016
#099321:26
#100381:13
#1003b1:0053000000000000
#100361:00250000
#100351:000000000000000000000000000000000000000000000000000000000000000000000000000000000000000000000000000000000000000000000000000000000000000000000000000000000000000000000000000000000000000000000000000000000000000000000000000000000000000000000000000000000000000000000000000000000000000000000000000000000000000000000000000000000000000000000000000000000000000000000000000000000000000000000000000000000000000000000000000000000000000000000000000000000000000000000000000000000000000000000000000000000000000000000000000000000000000000000000000000000000000000000000000000000000000000000000000000000000000000000000000000000000000000000000000000000000000000000000000000000000000000000000000000000000000000000000000000000000000000000000000000000000000000000000000000000000000000000000000000000000000000000000000000000000000000000000000000000000000000000000000000000000000000000000000000000000000000000000000000000000000000000000000000000000000000000000000000000000000000000000000000000000000000000000000000000000000000000000000000000000000000000000000000000000000000000000000000000000000000000000000000000000000000000000000000000000000000000000000000000000000000000000000000000000000000000000000000000000000000000000000000000000000000000000000000000000000000000000000000000000000000000000000000000000000000000000000000000000000000000000000000000000000000000000000000000000000000000000000000000000000000000000000000000000000000000000000000000000000000000000000000000000000000000000000000000000000000000000000000000000000000000000000000000000000000000000000000000000000000000000000000000000000000000000000000000000000000000000000000000000000000000000000000000000000000000000000000000000000000000000000000000000000000000000000000000000000000000000000000000000000000000000000000000000000000000000000000000000000000000000000000000000000000000000000000000000000000000000000000000000000000000000000000000000000000000000000000000000000000000000130000000000000000000000000000000000000000000000000000000000000000000000000000000000000000000000000000000000000000000000000000000000000000000000000000000000000000000000000000000000000000000000000000000000000000000000000000000000000000000000000000000000000000000000000000000000000000000000000000000000000000000000000000000000000000000000000000000000000000000000000000000000000000000000000000000000000000000000000000000000000000000000000000000000000000000000000000000000000000000000000000000000000000000000000000000000000000000000000000000000000000000000000000000000000000000000000000000000000000000000000000000000000000000000000000000000000000000000000000000000000000000000000000000000000000000000000000000000000000000000000000000000000000000000000000000000000000000000000000000000000000000000000000000000000000000000000000000000000000000000000000000000000000000000000000000000000000000000000000000000000000000000000000000000000000000000000000000000000000000056230000000000000000000000000000000000000000000000000000000000000000000000000000000000000000000000000000000000000000000000000000000000000000000000000000000000000000000000000000000000000000000000000000000000000000000000000000000000000000000000000000000000000000000000000000000000000000000000000000000000000000000000000000000000000000000000000000000000000000000000000000000000000000000000000000000000000000000000000000000000000000000000000000000000000000000000000000000000000000000000000000000000000000000000000000000000000000000000000000000000000000000000000000000000000000000000000000000000000000000000000000000000000000000000000000000000000000000000000000000000000000000000000000000000000000000000000000000000000000000000000000000000000000000000000000000000000000000000000000000000000000000000000000000000000000000000000000000000000000000000000000000000000000000000000000000000000000000000000000000000000000000000000000000000000000000000000000000000000000000000
#100321:0000000000530000
#100380:00000013
#1003b0:0000000000000053
#100360:000000000000000000000000000000000000000000000000000000000000000000000000000000000000000000000000000000000000000000000000000000000000000000000000000000000000000000000000000000000000000000000000000000000000000000000000000000000000000000000000000000000000000000000000000000000000000000000000000000000000000000000000000000000000000000000000000000000000000000000000000000000000000000000000000000000000000000000000000000000000000000000000000000000000000000000000000000000000000000000000000000000000000000000000000000000000000000000000000000000000000000000000000000000000000000000000000000000000000000000000000000000000000000000000000000000000000000000000000000000000000000000000000000000000000000000000000000000000000000000000000000000000000000000000000000000000000000000000000000000000000000000000000000000000000000000000000000000000000000000000000000000000000000000000000000000000000000000000000000000000000000000000000000000000000000000000000000000000000000000000000000000000000000000000000000000000000000000000000000000000000000000000000000000000000000000000000000000000000000000000000000000000000000000000000000000000000000000000000000000000000000000000000000000000000000000000000000000000000000000000000000000000000000000000000000000000000000000000000000000000000000000000000000000000000000000000000000000000000000000000000000000000000000000000000000000000000000000000000000000000000000000000000000000000000000000000000000000000000000000000000000000000000000000000000000000000000000000000000000000000000000000000000000000000000000000000000000000000000000000000000000000000000000000000000000000000000000000000000000000000000000000000000000000000000000000000000000000000000000000000000000000000000000000000000000000000000000000000000000000000000000000000000000000000000000000000000000000000000000000000000000000000000000000000000000000000000000000000000000000000000000000000000000000000000000000000000000000000000000000000000000000000000000000000000000000000000000000000000000000000000000000000000000000000000000000000000000000000000000000000000000000000000000000000000000000000000000000000000000000000000000000000000000000000000000000000000000000000000000000000000000000000000000000000000000000000000000000000000000000000000000000000000000000000000000000000000000000000000000000000000000000000000000000000000000000000000000000000000000000000000000000000000000000000000000000000000000000000000000000000000000000000000000000000000000000000000000000000000000000000000000000000000000000000000000000000000000000000000000000000000000000000000000000000000000000000000000000000000000000000000000000000000000000000000000000000000000000000000000000000000000000000000000000000000000000000000000000000000000000000000000000000000000000000000000000000000000000000000000000000000000000000000000000000000000000000000000000000000000000000000000000000000000000000000000000000000000000000000000000000000000000000000000000000000000000000000000000000000000000000000000000000000000000000000000000000000000000000000000000000000000000000000000000000000000000000000000000000000000000000000000000000000000000000000000000000000000000000000000000000000000000000000000000000000000000000000000000000000000000000000000000000000000000000000000000000000000000000000000000000000000000000000000000000000000000000000000000000000000000000000000000000000000000000000000000000000000000000000000000000000000000000000000000000000000000000000000000000000000000000000000000000000000000000000000000000000000000000000000000000000000000000000000000000000000000000000000000000000000000000000000000000000000000000000000000000000000000000000000000000000000000000000000000000000000000000000000000000000000000000000000000000000000000000000000000000000000000000000000000000000000000000000000000000000000000000000000000000000000000000000000000000000000000000000000000000000000000000000000000055
#101380:23
#101321:16220000
#101381:0016
#1013c1:00000022
#103321:13230000
#103361:0054000000000000
#1033b1:00000013
#103361:0000000000000054
#1043b1:23
#104321:0000000014240000
#1043a1:0000000000001424
#105321:14
#105361:00240000
#1053a1:0014
#105361:00000024
#106321:1424
#106361:00560000
#107381:1200003200000000
#1073a1:00000022
#017920:13
#018920:23
#0199b0:13
#0209b0:23
#021920:13
#022920:23
#0239b0:13
#0249b0:23
#033960:13
#033920:000000000000000000000000000000000000000000000000000000000000000000000000000000000000000000000000000000000000000000000000000000000000000000000000000000000000000000000000000000000000000000000000000000000000000000000000000000000000000000000000000000000000000000000000000000000000000000000000000000000000000000000000000000000000000000000000000000000000000000000000000000000000000000000000000000000000000000000000000000000000000000000000000000000000000000000000000000000000000000000000000000000000000000000000000000000000000000000000000000000000000000000000000000000000000000000000000000000000000000000000000000000000000000000000000000000000000000000000000000000000000000000000000000000000000000000000000000000000000000000000000000000000000000000000000000000000000000000000000000000000000000000000000000000000000000000000000000000000000000000000000000000000000000000000000000000000000000000000000000000000000000000000000000000000000000000000000000000000000000000000000000000000000000000000000000000000000000000000000000000000000000000000000000000000000000000000000000000000000000000000000000000000000000000000000000000000000000000000000000000000000000000000000000000000000000000000000000000000000000000000000000000000000000000000000000000000000000000000000000000000000000000000000000000000000000000000000000000000000000000000000000000000000000000000000000000000000000000000000000000000000000000000000000000000000000000000000000000000000000000000000000000000000000000000000000000000000000000000000000000000000000000000000000000000000000000000000000000000000000000000000000000000000000000000000000000000000000000000000000000000000000000000000000000000000000000000000000000000000000000000000000000000000000000000000000000000000000000000000000000000000000000000000000000000000000000000000000000000000000000000000000000000000000000000000000000000000000000000000000000000000000000000000000000000000000000000000000000000000000005353230000000000000000000000000000000000000000000000000000000000000000000000000000000000000000000000000000000000000000000000000000000000000000000000000000000000000000000000000000000000000000000000000000000000000000000000000000000000000000000000000000000000000000000000000000000000000000000000000000000000000000000000000000000000000000000000000000000000000000000000000000000000000000000000000000000000000000000000000000000000000000000000000000000000000000000000000000000000000000000000000000000000000000000000000000000000000000000000000000000000000000000000000000000000000000000000000000000000000000000000000000000000000000000000000000000000000000000000000000000000000000000000000000000000000000000000000000000000000000000000000000000000000000000000000000000000000000000000000000000000000000000000000000000000000000000000000000000000000000000000000000000000000000000000000000000000000000000000000000000000000000000000000000000000000000000000000000000000000000000000000000000000000000000000000000000000000000000000000000000000000000000000000000000000000000000000000000000000000000000000000000000000000000000000000000000000000000000000000000000000000000000000000000000000000000000000000000000000000000000000000000000000000000000000000000000000000000000000000000000000000000000000000000000000000000000000000000000000000000000000000000000000000000000000000000000000000000000000000000000000000000000000000000000000000000000000000000000000000000000000000000000000000000000000000000000000000000000000000000000000000000000000000000000000000000000000000000000000000000000000000000000000000000000000000000000000000000000000000000000000000000000000000000000000000000000000000000000000000000000000000000000000000000000000000000000000000000000000000000000000000000000000000000000000000000000000000000000000000000000000000000000000000000000000000000000000000000000000000000000000000000000000000000000000000000000000000000000000000000000000
#037970:13
#0379b0:000000000000000000000000000000000000000000000000000000000000000000000000000000000000000000000000000000000000000000000000000000000000000000000000000000000000000000000000000000000000000000000000000000000000000000000000000000000000000000000000000000000000000000000000000000000000000000000000000000000000000000000000000000000000000000000000000000000000000000000000000000000000000000000000000000000000000000000000000000000000000000000000000000000000000000000000000000000000000000000000000000000000000000000000000000000000000000000000000000000000000000000000000000000000000000000000000000000000000000000000000000000000000000000000000000000000000000000000000000000000000000000000000000000000000000000000000000000000000000000000000000000000000000000000000000000000000000000000000000000000000000000000000000000000000000000000000000000000000000000000000000000000000000000000000000000000000000000000000000000000000000000000000000000000000000000000000000000000000000000000000000000000000000000000000000000000000000000000000000000000000000000000000000000000000000000000000000000000000000000000000000000000000000000000000000000000000000000000000000000000000000000000000000000000000000000000000000000000000000000000000000000000000000000000000000000000000000000000000000000000000000000000000000000000000000000000000000000000000000000000000000000000000000000000000000000000000000000000000000000000000000000000000000000000000000000000000000000000000000000000000000000000000000000000000000000000000000000000000000000000000000000000000000000000000000000000000000000000000000000000000000000000000000000000000000000000000000000000000000000000000000000000000000000000000000000000000000000000000000000000000000000000000000000000000000000000000000000000000000000000000000000000000000000000000000000000000000000000000000000000000000000000000000000000000000000000000000000000000000000000000000000000000000000000000000000000000000000000000000005353230000000000000000000000000000000000000000000000000000000000000000000000000000000000000000000000000000000000000000000000000000000000000000000000000000000000000000000000000000000000000000000000000000000000000000000000000000000000000000000000000000000000000000000000000000000000000000000000000000000000000000000000000000000000000000000000000000000000000000000000000000000000000000000000000000000000000000000000000000000000000000000000000000000000000000000000000000000000000000000000000000000000000000000000000000000000000000000000000000000000000000000000000000000000000000000000000000000000000000000000000000000000000000000000000000000000000000000000000000000000000000000000000000000000000000000000000000000000000000000000000000000000000000000000000000000000000000000000000000000000000000000000000000000000000000000000000000000000000000000000000000000000000000000000000000000000000000000000000000000000000000000000000000000000000000000000000000000000000000000000000000000000000000000000000000000000000000000000000000000000000000000000000000000000000000000000000000000000000000000000000000000000000000000000000000000000000000000000000000000000000000000000000000000000000000000000000000000000000000000000000000000000000000000000000000000000000000000000000000000000000000000000000000000000000000000000000000000000000000000000000000000000000000000000000000000000000000000000000000000000000000000000000000000000000000000000000000000000000000000000000000000000000000000000000000000000000000000000000000000000000000000000000000000000000000000000000000000000000000000000000000000000000000000000000000000000000000000000000000000000000000000000000000000000000000000000000000000000000000000000000000000000000000000000000000000000000000000000000000000000000000000000000000000000000000000000000000000000000000000000000000000000000000000000000000000000000000000000000000000000000000000000000000000000000000000000000000000000000000000000
#048980:0000000000000016000000000000000000000000000000000000000000000000
#048920:00260000
#072950:13
#072930:0023000000000000000000000000000000000000000000000000000000000000
#072981:13
#0729a1:0023000000000000000000000000000000000000000000000000000000000000
#072931:0013
#072951:0000000000000000000000000000000000230000000000000000000000000000
#0729a0:0013
#072980:0000000000000000000000000000000000230000000000000000000000000000
#088920:0000000000000016000000000000000000000000000000000000000000000000
#088980:00260000
#098980:00162600
#098921:00001626
#098980:00000016
#099980:26
#108980:0000122200000000
#108961:0000001222000000
#108980:0000000012220000
#108961:0000000000122200
#108980:0000000000001222
#108961:0000000000000012
#109961:22
