This file was generated by Ched 2.7.0.0.
#TITLE ""
#ARTIST ""
#DESIGNER ""
#DIFFICULTY 0
#PLAYLEVEL
#SONGID ""
#WAVE ""
#WAVEOFFSET 0
#JACKET ""
#REQUEST "ticks_per_beat 480"
#00002: 4
#BPM01: 204
#00008: 01
#TIL00: ""
#VOLUME: ""
#HISPEED 00
#MEASUREHS 00
#00118:1414
#00114:00140014
#0021a:14
#00214:0014
#00318:1414
#00314:00140000
#00412:14
#00418:0014
#00514:1414
#00518:00140000
#0061a:14
#00614:0014
#00718:1414
#00714:00140000
#00812:14
#00818:0014
#00914:1414
#00918:00140000
#0101a:14
#01014:0014
#01010:41
#01118:14
#01112:0014
#0121a:14
#01214:0014
#01318:14
#01312:0014
#0181a:1414
#01814:00140000
#01912:1414
#01918:00140000
#0201a:1414
#02014:00140000
#02112:1414
#02118:00140014
#02212:14
#0221a:0014
#02210:41
#02314:1414
#02318:00140000
#0241a:14
#02412:0014
#0241f:11
#02518:1414
#02514:00140014
#02618:14
#02612:0014
#02718:14000014
#02712:0014
#02812:14
#0281a:0024
#03418:00140000
#03414:0014
#0341a:00000014
#03412:24
#0341f:21
#03512:14
#03518:0014
#03510:41
#03818:00140000
#03814:0014
#0381a:00000014
#03812:14
#03912:14
#03918:0014
#04014:1414
#04018:00140014
#04112:1414
#0411a:00140000
#04214:00140000
#04218:0014
#04212:00000014
#0421a:24
#0431a:14
#04314:0014
#04614:00140000
#04618:0014
#04612:00000014
#0461a:14
#0471a:14
#04714:0014
#04818:1414
#04814:00140014
#0491a:14
#04912:0014
#0501a:14
#05014:0014
#05118:1414
#05114:00140000
#05212:14
#05218:0014
#05314:1414
#05318:00140000
#05310:41
#0541a:14
#05414:0014
#05518:1414
#05514:00140000
#05612:14
#05618:0014
#05714:1414
#05718:00140014
#05818:00140000
#05814:0014
#0581a:00000014
#05812:24
#06212:14
#06218:00140000
#06214:0014
#0621a:00000014
#06414:1414
#06418:00140014
#06512:1414
#0651a:00140000
#06614:00140000
#06618:0014
#06612:00000014
#0661a:24
#06610:41
#0701a:14
#07014:00140000
#07018:0014
#07012:00000014
#07218:1414
#07214:00140014
#0731a:14
#07312:0014
#07419:15
#07517:15
#07619:15
#07716:15
#07814:0014
#07918:14
#07912:0014
#0801a:14
#08014:0014
#08118:14
#08112:0014
#0821a:1414
#08214:00140000
#08210:41
#08312:1414
#08318:00140000
#08418:1414
#08412:00140000
#08514:1414
#0851a:00140000
#0861a:1414
#08614:00140000
#08712:1414
#08718:00140000
#08818:1414
#08812:00140000
#08914:1414
#0891a:00140000
#0901a:14
#09012:0014
#09118:1414
#09114:00140000
#09212:14
#0921a:0014
#09314:1414
#09318:00140000
#0941a:14
#09412:0014
#09518:1414
#09514:00140000
#09612:14
#0961a:0014
#09714:1424
#09718:00140024
#02914:24000024
#0291a:0024
#0301a:24
#03012:0024
#03118:2424
#03114:00240000
#03213:2424
#03219:2424
#03318:2424
#03314:00240000
#09814:24
#0371a:00343400
#03614:00343400
#04512:00343400
#04418:00343400
#06012:00343400
#06118:00343400
#0681a:00343400
#06914:00343400
#02658:14
#07459:55
#07557:55
#07659:55
#07756:25
#08554:0014
#08954:0014
#03452:14
#0425a:14
#05852:14
#0665a:14
#0143a0:14
#014380:0024
#015320:14
#015340:0024
#016380:14
#0163a0:0024
#017340:14
#017320:0024
#036320:14
#036340:00343424
#037380:14
#0373a0:00343424
#0443a0:14
#044380:00343424
#045340:14
#045320:00343424
#059320:14240000
#059380:00001424
#060340:14
#060320:00343424
#0613a0:14
#061380:00343424
#063320:14240000
#063380:00001424
#0673a0:14240000
#067340:00001424
#068380:14
#0683a0:00343424
#069320:14
#069340:00343424
#0713a0:14240000
#071340:00001424
#074390:15
#075370:35
#076390:35
#077360:55
#078390:25
