This file was generated by Ched 2.7.0.0.
#TITLE ""
#ARTIST ""
#DESIGNER ""
#DIFFICULTY 0
#PLAYLEVEL
#SONGID ""
#WAVE ""
#WAVEOFFSET 0
#JACKET ""
#REQUEST "ticks_per_beat 480"
#00002: 4
#BPM01: 130
#00008: 01
#TIL00: ""
#VOLUME: ""
#HISPEED 00
#MEASUREHS 00
#0091a:14
#0101a:14
#01112:14
#01212:14
#01318:14
#01310:41
#01414:14
#0151a:14
#01612:14
#01918:0016
#01912:26
#02012:16
#02018:0016
#03414:14
#0351a:14
#03612:14
#00518:14
#00510:41
#00612:14
#0071a:14
#00814:14
#02312:16
#02318:0016
#02412:16
#02418:0016
#03918:0016
#03912:26
#0391f:21
#04012:16
#04018:0016
#04010:41
#04312:16
#04318:0016
#04412:16
#04418:0016
#04712:2616
#04818:1616
#04912:2616
#05018:1616
#05118:0016
#05112:26
#05110:41
#05212:16
#05218:0016
#05512:0016
#05518:26
#05618:16
#05612:0016
#05912:16
#0291f:11
#02914:24
#03218:24
#02718:0026
#02712:26
#02818:0026
#02812:26
#02810:41
#03114:24
#03018:24
#02110:41
#05952:56
#0013a0:14
#0023a0:24
#003340:14
#004340:24
#017380:14
#018380:24
#021320:1626
#022380:1626
#025320:1626
#026380:1626
#032380:14
#033380:24
#037380:14
#038380:24
#041320:1626
#042380:1626
#045320:1626
#046380:1626
#053320:16
#054320:26
#057380:16
#058380:26
#059320:16
#061350:26
