This file was generated by Ched 2.7.0.0.
#TITLE ""
#ARTIST ""
#DESIGNER ""
#DIFFICULTY 0
#PLAYLEVEL
#SONGID ""
#WAVE ""
#WAVEOFFSET 0
#JACKET ""
#REQUEST "ticks_per_beat 480"
#00002: 4
#BPM01: 130
#00008: 01
#TIL00: ""
#VOLUME: ""
#HISPEED 00
#MEASUREHS 00
#01017:13000000005300530000000000000000
#01019:0013000000000000
#0101b:00000000130000000013000000000000
#01015:0000000000130000
#01018:00000000000000000000001300000000
#01012:00000000000000130000000000000000
#01014:0013000000000000
#01016:00130000
#0591a:14
#00518:00001300000000130000130000000000
#00515:00000013000013000000000000130000
#0051b:23130013
#00512:00000000000000001300001300000000
#00510:41
#00612:00130000000000001300000013000000
#0061b:00001300130000000000001300000000
#00615:00000013000000000000130000530000
#00618:13000000005300000013000000000000
#00617:0053
#00915:0013000013000013
#00918:00000013000000000013000000130000
#00912:00000000001300000000001300000000
#0091b:13000000000013000000001300000000
#01216:1300000000000024
#01214:0013000053000000
#01219:0013000000000000
#01212:00130014
#01217:00131300
#01215:00000000005300000000000000000000
#01118:0013000013000013
#01115:13000013000000000013000000130000
#0111b:13000000001300000000001300000000
#01112:00000000000013000000001300000000
#01312:0013000013130000
#01315:00000000001300000000000000130013
#0131b:0000001300001300
#01318:0000000000000013
#01310:41
#0151b:0013000013130000
#01518:00000000001300000000000000130013
#01512:0000001300001300
#01515:0000000000000013
#01718:1300000000000013
#0171b:0000001300001300
#01712:24242424
#0181b:13
#01818:0000001300000000
#01812:25252525
#0211b:0013000000000000
#02118:00000000001300002600000000000000
#02112:0000001300000026
#02116:0000000000260000
#02114:00000026
#02110:41
#02212:0013000023000000
#02215:00000000001300000000000000000000
#0221b:0000001300001300
#02216:00000013
#02214:0000000000000013
#02219:0000000000000013
#02312:13000000001300000000000013000000
#02317:1300002300001300
#02316:0013000000000000
#0231b:00000013000000000000000000000000
#02319:0000000000000013
#02314:0000000000000013
#0241b:13000000001300000000000013000000
#02416:1300002300001300
#02417:0013000000000000
#02412:00000013000000000000000000000000
#02414:0000000000000013
#02419:0000000000000013
#0251b:0013000023000000
#02518:00000000001300000000130000001300
#02512:0000001300002300
#02515:0000000000130013
#02612:0013000023000000
#02615:00000000001300000000130000001300
#0261b:0000001300230000
#02618:00000013
#02818:0014
#0281b:23
#02812:24
#02813:00240000
#02814:0024
#02810:41
#0331b:23000000130000130000001300000000
#03315:00000013000000001300000013000000
#03318:00001300000000000013000000130000
#03312:00130000000013000000130000000013
#0351b:00130000001300130000001300000000
#03515:0013001300130000
#03518:00000013000000000013000000130000
#03512:13131313
#03516:00000000000000000000000000000013
#03412:00000000001300000000000013000000
#03417:00000000130000000000000053130000
#0341b:1313
#03416:00130000000000000000000000000000
#03419:0013001300530000
#03414:00000013000000130000000000000000
#0341a:00000000000000000053000000000000
#03418:00000000000000000000005300000000
#0371b:00000013
#03718:0000000000000013
#03716:00240024
#03712:0024
#0371a:24
#03812:13261326
#03815:0013000000130000
#03818:2600001326000000
#0381b:00130013
#03915:00000013000000000000000000000000
#03918:0013000000000000
#03912:24000000001300000000000013000000
#0391b:0000001300000000
#03919:0000000000000013
#03914:0000000000000013
#03917:00000000000000000013000000000000
#0391a:24
#0391f:21
#04018:00000013000000000000000000000000
#04015:0013000000000000
#0401b:13000000001300000000000013000000
#04014:0000000000000013
#04016:13000000000000000013000000000000
#04019:0000000000000013
#04012:0000001300000000
#04010:41
#0411b:0013000023000000
#04118:00000000001300000000000023000000
#04112:1300001300000023
#04117:13
#04115:00000013000000000000230000000000
#04215:0013000000000000
#04212:00000000001300002300000000000000
#0421b:1300001300001300
#04216:00000013
#04214:0000000000000013
#04219:0000000000000013
#04218:00000013000000000000000000000000
#04312:13000000001300001300000013000000
#0431b:13000013000023000000000000000000
#04316:0013000000000000
#04317:00000013
#04319:0000000000000013
#04314:0000000000000013
#04318:0013
#0441b:13000000001300001300000013000000
#04412:13000013000023000000000000000000
#04417:0013000000000000
#04416:00000013
#04414:0000000000000013
#04419:0000000000000013
#04415:0013
#0451b:0013000023000000
#04518:00000000001300000000000000002600
#04517:13
#04515:00000013000000000000000000000000
#04512:1300001300000013
#04514:0000000000130000
#04513:00000013
#0451a:0000000000240000
#04519:00000025
#04612:0013000023242526
#04615:13000000001300000000000000000000
#0461b:1300001300000013
#04618:00000013000000000000000000000000
#04619:0000000000130000
#0461a:00000013
#04814:0014
#0481a:24
#04819:00240000
#04818:0024
#04812:23
#05017:0013000000000000
#05019:0000001300000000
#0501b:2300000000130000
#05012:23252724
#05016:0000000000000024
#05318:00130013000000000013000000000000
#05315:00001300000013000000130000530000
#05312:13131313
#0531b:00000000001300130000001300000013
#05316:00000000000000000000000000000053
#05415:00130013000000000013000000000000
#05418:0013001300130000
#0541b:13131300
#05412:00000000001300130000001300000000
#0541a:00000024
#05416:0000000000000024
#05715:00130013000000000013000000000000
#05718:00001300000013000000130000530000
#0571b:13131313
#05712:00000000001300130000001300000013
#05717:00000000000000000000000000000053
#05818:00130013000000000013000000000000
#05815:00001300000013000000130000530000
#05812:13131313
#0581b:00000000001300130000001300000000
#0581a:00000000000000000000000000000014
#05816:00000000000000000000000000000053
#0141b:1300001300000000
#01412:00000000000000000000131300000000
#01418:00000013000000000000000000001300
#01415:0013000000000000
#01612:1300001300000000
#0161b:00000000000000000000131300000000
#01615:00000013000000000000000000001300
#01618:0013000000000000
#03615:00130000001300000013000000130000
#03618:0013130000130013
#0361b:13001313
#03612:00000013000000000000001300000013
#04717:00000000000023001300002300000000
#04717:0023
#04716:23000023000000000000000000002300
#0471b:23
#04712:0023
#00118:13
#0011b:00130000
#00115:0013
#00112:00000013
#00218:13
#0021b:00130000
#00215:0013
#00212:00000013
#00318:14
#0031a:00140000
#00316:00140000
#00314:0014
#00414:14
#00412:00140024
#00416:00140000
#00418:0014
#00812:00001300130000000000001300000013
#0081b:00130000000000001300000013001300
#00815:13000000005300000013000000130000
#00818:00000013000000000000130000000000
#00816:0053
#0071b:13000000000000001300001300000000
#00715:00001300000000130000130000000000
#00718:00000013000013000000000000130000
#00712:00130013
#00716:53
#02014:00000013000000000000000000001300
#02019:0013000000000013
#02016:13000013
#0201b:13
#02012:00000000001300000000000000000000
#02017:0000001300000000
#01914:0013000000000013
#01919:00000013000000000000000000001300
#01917:00000013
#0191b:00000000001300000000000000000000
#01916:0000001300000000
#0191a:24
#01912:24
#05117:0013001300000000
#05112:13000013001300000000000013000000
#05119:0000000000000013
#05114:0000000000000013
#0511b:00000000000000000013000000000000
#0511a:24
#05110:41
#05216:1313001300000000
#0521b:13000013001300000000000013000000
#05212:00000000000000000013000000001300
#05217:0000000000000013
#05612:13000013000000000000000000000013
#05618:0013000000000013
#05617:00000000000000000013000000000000
#05616:00000013
#0561b:1300001300000000
#05615:00000000001300000000000000000000
#05519:0000000000000013
#05516:00000000000000000013000000000000
#05514:0000000000000013
#05517:00000013
#05512:2400001300000000
#05518:00000000001300000000000000000000
#05515:0013000000000000
#0551b:13000013000000000000000000000000
#0291f:11
#02912:24
#0291a:24
#02917:0000000000000023
#02712:23
#02717:23000023000000000000000000002300
#0271b:0023
#02716:00000000000023002300002300000000
#03017:23
#03012:24
#03016:0000000000000023
#03116:23
#0311a:24
#03212:0000002c
#03217:00323200
#0491b:23
#04912:0023
#04914:00000025000000000000000000000000
#04917:00000000000000000000002500000000
#06117:52
#0595a:54
#00555:00000000000000000000000000630000
#0055b:13
#0095b:0000005300000000
#00955:0000000000000053
#01152:0000006300000000
#01158:0000000000000063
#01358:0000000000130000
#0135b:0000005300000000
#01552:0000006300000000
#01555:0000000000130000
#01758:53
#0175b:0000006300000000
#0185b:63
#01858:0000005300000000
#01852:35353535
#02152:0000005300000000
#0225b:0000006300000000
#02252:0000000000130000
#02257:0000000000130000
#0235b:0000000000130000
#02356:0000000000130000
#02357:0000005300000000
#02452:0000000000130000
#02457:0000000000130000
#02456:0000006300000000
#02552:0000005300006300
#0255b:0053
#02558:0000000000530000
#02555:0000000000000063
#0265b:0000006300530000
#02655:0000000000630000
#02652:0063
#02658:00000053
#02752:00000013000000000000000000000000
#02757:00000053000000000000000000000000
#02756:00000000000000000000006300000000
#0275b:00000000000000000000001300000000
#02858:0054
#0285b:53
#02854:0054
#02852:00000034
#0285a:00000044
#03052:34
#0315a:44
#03252:0000001c
#03358:00000000000000000000000000530000
#0335b:00530000
#03558:00000000000000000000000000530000
#03457:00000000000000000000000000530000
#03858:4646
#03852:00360036
#0395b:0000005300000000
#03957:00000000000000000023000000000000
#04152:5300005300000000
#04155:00000053000000000000000000000000
#0425b:6300006300000000
#04257:0000000000130000
#04252:0000000000130000
#04258:00000053000000000000000000000000
#0465b:6300006300000000
#04658:00000063000000000000000000000000
#04854:0064
#04858:0064
#04852:53000034
#0485a:00000044
#0435b:0000006300130000
#04355:0000000000130000
#04358:0053
#04352:0063
#04052:0000006300000000
#04056:00000000000000000023000000000000
#04455:0063
#0445b:0053
#04452:0000005300130000
#04458:0000000000130000
#04555:00000053000000000000000000000000
#04552:5300005300000000
#0475b:00000013000000000000000000000000
#04752:00000000000000000000001300000000
#04756:00000063000000000000000000000000
#04757:00000000000000000000006300000000
#05052:33353714
#01052:0000000000000013
#01452:00000000000000000000005300000000
#01458:00000013000000000000000000000000
#0165b:00000000000000000000006300000000
#01655:00000013000000000000000000000000
#0295a:44
#02952:34
#04952:0000003500000047
#04957:0000003700000000
#04959:0000000000000045
#03655:00000000005300000000000000000000
#01257:0063
#01252:00000014
#0125a:00000014
#00158:63
#0015b:00630000
#00155:0063
#00152:00000063
#00258:63
#0025b:00630000
#00255:0063
#00252:00000063
#00358:54
#0035a:00540000
#00356:00640000
#00354:0064
#00454:64
#00452:00640000
#00456:00540014
#00458:0054
#00758:00000000000000000000000000530000
#01956:0000005300000000
#02057:0000006300000000
#05157:0000005300000000
#0515b:00000000000000000023000000000000
#05256:0000006300000000
#05252:00000000000000000023000000000000
#05657:00000000000000000023000000000000
#0565b:0000006300000000
#05556:00000000000000000023000000000000
#05552:0000005300000000
#001380:1323
#0013b0:00530000
#001351:0013
#001321:00000053
#002351:23
#002380:1323
#0023b0:00530000
#002351:0013
#002321:00000053
#003351:23
#003380:1424
#0033a0:00540000
#003361:00140024
#003341:0054
#0033a0:00000014
#0043a0:24
#004341:1424
#004321:00540000
#004360:00140024
#004380:0054
#004321:00000014
#005321:24
#005351:00000000000000000000000000130000
#006321:23
#007381:00000000000000000000000000130000
#0083b1:23
#0093b1:0000001300000000
#009381:0023
#009351:0000000000000013
#010321:23
#010321:0000000000001323
#011321:0000001300000000
#011351:0023
#011381:0000000000000013
#0123b1:23
#012371:0013
#0123a1:000000000000000000000000000000343434240000000000
#013381:1323000000000000
#013381:00000013002300000000000000000000
#0133b1:0000001300000000
#013381:0000000033230000
#014351:0000001323000000
#0143b0:0000000013230000
#014320:00000000000000000000001300000000
#014350:0000000000000023
#015350:1323000000000000
#015350:00000013002300000000000000000000
#015320:0000001300000000
#015350:0000000033230000
#016380:0000001323000000
#016321:0000000013230000
#0163b1:00000000000000000000001300000000
#016381:0000000000000023
#017381:13
#0173b1:00230000
#0173b1:0000001300000000
#017381:0000000000230000
#0183b1:13
#018381:00230000
#018381:0000001300000000
#018391:00000025
#019361:0000001300000000
#019321:00000023
#020371:0000001300000000
#0203b1:00000023
#021321:1323000000000000
#021351:00000013002300000000000000000000
#021321:0000001300000000
#021351:0023
#0223b1:1323000000000000
#022381:00000013002300000000000000000000
#0223b1:0000001300000000
#022371:0000000033230000
#022320:0000000013230000
#023370:0000001300000000
#0233b0:0000000033230000
#023361:0000000013230000
#024361:0000001300000000
#024321:0000000033230000
#024370:0000000013230000
#025320:1323000000000000
#025350:00000013002300000000000000000000
#025320:0000001300000000
#025350:0023
#0253b1:00001323
#025381:0000000000330000
#025320:00000013
#025350:0000000000000033
#026320:23
#0263b1:1323000000000000
#026381:00000013002300000000000000000000
#0263b1:0000001300000000
#026381:0023
#026320:00001323
#026350:0000000000330000
#0263b1:0000000000130023
#026381:00000033
#027321:13000023000000000000000000000000
#027370:00000013000000000000000000000000
#0273b0:0000002300000000
#0273b0:00000000000000001300002300000000
#027361:00000000000000000000001300000000
#027321:0000000000000023
#0283b1:13
#028381:0034
#0283a1:00000024
#028340:0014
#028320:00000024
#032370:12323200
#032320:0000002c
#0333b0:00130000
#033380:0000002300000000
#033380:00000000000000000000000000130000
#0333b0:00000000000000000000000000000023
#034370:00000000000000000000000000130000
#0353b0:23
#035380:00000000000000000000000000130000
#0353b0:00000000000000000000000000000023
#036350:00000000001300000000000000000000
#036320:0023
#0393b0:0000001300002300
#039370:00000000000000000053000000000000
#040320:0000001300002300
#040360:00000000000000000053000000000000
#041320:13
#041350:0023000000000000
#041350:00000013000000000000000000000000
#041320:00000000002300000000000000000000
#041320:0000001300000000
#041350:0023
#0413b1:0000000013230000
#041350:0000000000132300
#041381:0000000000001323
#041320:0000000000000013
#042320:23
#0423b1:13
#042381:0023000000000000
#042381:00000013000000000000000000000000
#0423b1:00000000002300000000000000000000
#0423b1:0000001300000000
#042371:0000000033230000
#042320:0000000013230000
#0433b0:0000001300230000
#043380:0033
#043321:0013
#043351:0000000000230000
#044321:0000001300230000
#044351:0033
#0443b0:0013
#044380:0000000000230000
#045320:13
#045350:0023000000000000
#045350:00000013000000000000000000000000
#045320:00000000002300000000000000000000
#045320:0000001300000000
#045350:0023
#0463b0:13
#046380:0023000000000000
#046380:00000013000000000000000000000000
#0463b0:00000000002300000000000000000000
#0463b0:0000001300000000
#046380:0023
#0473b0:13000023000000000000000000000000
#047361:00000013000000000000000000000000
#047321:0000002300000000
#047321:00000000000000001300002300000000
#047370:00000000000000000000001300000000
#0473b0:0000000000000023
#048320:13000024
#048340:0034
#048381:0014
#0483a1:00000024
#0493b1:13
#049391:00000035000000000000000000000000
#049371:0000002700000000
#049340:00000015000000000000000000000000
#049320:0000002500000000
#049320:00000000000000001300003500002700
#049371:00000000000000000000001500000000
#049391:0000000000000025
#051371:0000001300002300
#0513b1:00000000000000000053000000000000
#052361:0000001300002300
#052321:00000000000000000053000000000000
#055321:0000001300002300
#055361:00000000000000000053000000000000
#0563b1:0000001300002300
#056371:00000000000000000053000000000000
#0593a1:14
#061371:22
#0069b0:00130000
#006980:00000000005300000000000000000000
#006970:0023
#006920:00000013
#006950:00000000000000000000000000530000
#007960:23
#008920:00130000
#008950:00000000005300000000000000000000
#008960:0023
#0109b0:00130000
#010970:00000000005300230000000000000000
#012920:00130000
#012950:00000000005300000000000000000000
#012940:0023
#0349b0:0013
#034970:00000023
#053920:00000013
#053950:00000000000000000000000000530000
#053960:00000000000000000000000000000023
#0579b0:00000013
#057980:00000000000000000000000000530000
#057970:00000000000000000000000000000023
#058920:00000013
#058950:00000000000000000000000000530000
#058960:00000000000000000000000000000023
