This file was generated by Ched 2.7.0.0.
#TITLE ""
#ARTIST ""
#DESIGNER ""
#DIFFICULTY 0
#PLAYLEVEL
#SONGID ""
#WAVE ""
#WAVEOFFSET 0
#JACKET ""
#REQUEST "ticks_per_beat 480"
#00002: 4
#BPM01: 130
#00008: 01
#TIL00: ""
#VOLUME: ""
#HISPEED 00
#MEASUREHS 00
#00518:0013001300000000
#00515:00130000
#00512:2313
#0051b:0000000000130000
#00514:00000014
#00510:41
#00117:14
#0011a:0014
#00217:14
#00618:1300000000130000
#00615:0013000013000000
#0061a:00140000
#00612:00000014
#00715:0013001300000000
#00718:00130014
#0071b:1313
#00712:0000000000130000
#00815:1300000000130000
#00818:0013000013000000
#00812:00140000
#0081a:00000014
#00912:14141414
#00918:00130013
#0121a:14000000003300000000000000000000
#01215:0013000000000000
#0121b:00130000
#01218:0013
#01315:1300130000130000
#01318:0013000013000000
#01312:0000000000000013
#0131b:0000001300000000
#01310:41
#01415:00001300000013000000003300000000
#0141b:0013
#01412:0000000000130000
#01418:13130000
#01518:1300130000130000
#01515:0013000013000000
#0151b:0000000000000013
#01512:0000001300000000
#01714:14
#01718:00140000
#01712:00001414
#0171a:00001414
#01812:14000024
#01814:0000341400000000
#0181a:14000024
#01818:0000341400000000
#01915:00001300001300000000000000000000
#01918:00000013000000000000000000000000
#0191b:0000001300000000
#0191a:24
#02018:00001300001300000000000000000000
#02015:00000013000000000000000000000000
#02012:1400001300000000
#02112:0013000023000000
#02118:00000013000000000000000023000000
#02115:00000000001300000000230000000000
#0211a:14
#0211b:0000001300000023
#02110:41
#0221b:0013000023000000
#02215:00000013000000000000000013000000
#02218:00000000001300000000000000001300
#02212:1400001300000000
#0231b:0013000000000000
#02315:00000013000000000000230000001300
#02318:00000000001300002300000013000000
#02312:1400001300000000
#0251b:0013000023000000
#02515:00000013000000000000000000000000
#02518:00000000001300000000000000006300
#02512:1400001300000000
#0251a:0000000000630000
#02519:00000063
#02618:0013000023000000
#02615:00000013000000000000000000000000
#0261b:00000000001300000000000000006300
#02612:1400001300000000
#02619:0000000000630000
#0261a:00000063
#0241a:14
#02415:00000000001300002300000013000000
#02418:00000013000000000000230000001300
#02412:0013000000000000
#0241b:0000001300000000
#0321a:14
#03212:14
#03214:00343424
#03218:00343424
#03315:0013000000130000
#03318:00130014
#03312:0000001300000000
#0331b:2313
#03418:0013000000130000
#03415:00130000
#0341b:0000001300000000
#03412:1313
#03414:00000014
#03512:0013000000130000
#03518:00130014
#03515:0000001300000000
#0351b:1313
#0361b:0013000000000000
#03615:13
#03612:0000140000130000
#03618:0013
#0361a:00000014
#0381a:14000024
#03818:0000341400000000
#03812:14000024
#03814:0000341400000000
#03918:00001300001300000000000013000000
#03915:00000013000000000000000000001300
#03912:2400001300000000
#0391f:21
#04015:00001300001300000000000013000000
#04018:00000013000000000000000000001300
#0401b:0000001300000000
#0401a:14
#04010:41
#0411b:0013000023000000
#04115:00000013000000000000000023000000
#04118:00000000001300000000000000000000
#04112:1400001300000000
#04212:0013000023000000
#04218:00000013000000000000000013000000
#04215:00000000001300000000000000001300
#0421a:14
#0421b:0000001300000000
#04312:0013000000000000
#04318:00000013000000002300000013000000
#04315:00000000001300000000230000001300
#0431a:14
#0431b:0000001300000000
#04512:0013000023000000
#04518:00000013000000000000000023000000
#04515:00000000001300000000000000000000
#0451a:14
#0451b:0000001300000000
#0461b:0013000023000000
#04615:00000013000000000000000023000000
#04618:00000000001300000000000000000000
#04612:1400001300000000
#0441b:0013000000000000
#04415:00000013000000002300000013000000
#04418:00000000001300000000230000001300
#04412:1400001300000000
#05112:0013000000000000
#05118:00000013000013000000000013000000
#05115:00000000001300000000000000001300
#0511b:23
#05110:41
#05212:13
#0521b:0013000000000000
#05215:00000013000013000000000000000000
#05218:00000000001300000000000000000000
#05318:1300000000130000
#05315:0013000000000000
#0531b:00131300
#05312:0000001300000000
#05314:00000014
#0541b:1300001300000000
#05415:0013000000130000
#05418:00130014
#05412:0013
#05512:13
#0551b:0013000000000000
#05515:00000013000013000000000000001300
#05518:00000000001300000000000013000000
#0561b:13
#05612:0013000000000000
#05618:00000013000013000000000000000000
#05615:00000000001300000000000000000000
#05715:13
#05718:0013000000000000
#05712:00131400
#0571b:0000001300000000
#05716:0000000000140000
#0571a:00000014
#05812:1300001300001400
#05818:0013000000000000
#05815:00130000
#0581a:0014
#05816:0000000000140000
#05918:14
#00315:14
#00312:0014
#00415:14
#0041a:00000024
#0111a:14141414
#01115:00130013
#01012:14000013
#01018:0013000000000000
#01015:00130000
#01014:00000000003300000000000000000000
#01618:00001300000013000000003300000000
#01612:0013
#0161b:0000000000130000
#01615:13130000
#0291f:11
#02912:24
#0291a:24
#02918:0000000000000024
#02712:23
#0271b:0023
#02715:00000033000000000000000000000000
#02718:00000000000000000000003300000000
#02812:2424
#0281a:2424
#02813:00240000
#02819:00240000
#02810:41
#03018:24
#03014:0000000000000024
#03114:24
#0471b:23
#04712:0023
#04718:00000033000000000000000000000000
#04715:00000000000000000000003300000000
#0481a:2424
#04812:2424
#04819:00240000
#04813:00240000
#04918:0023
#04915:23
#0491b:00000000000000000000003300000000
#04912:00000033000000000000000000000000
#05012:24
#05016:00240000
#0501a:0024
#05015:00000023
#05018:0000000000000023
#03712:24
#03714:00240000
#03716:0024
#03718:00000024
#0611b:53
#00157:54
#0015a:0054
#00257:54
#0045a:00000014
#00455:64
#00554:00000014
#0065a:00140000
#00652:00000014
#00758:00000014
#00852:00140000
#0085a:00000014
#0125b:00630013
#01258:0063
#01452:0000000000530000
#01852:54000014
#01854:0000005400000000
#0185a:64000014
#01858:0000006400000000
#0195b:0000005300000000
#02052:0000006300000000
#02858:00000014
#0285a:0054
#02852:0064
#02854:00000014
#0275b:0053
#02752:53
#0325a:64
#03252:54
#03258:00000014
#03254:00000014
#03358:00000014
#03454:00000014
#03558:00000014
#03652:00140000
#0365a:00000014
#0385a:64000014
#03858:0000006400000000
#03852:54000014
#03854:0000005400000000
#03952:0000006300000000
#0405b:0000005300000000
#0475b:63
#04752:0063
#0485a:0064
#04858:00000014
#04852:0054
#04854:00000014
#04958:0053
#04955:53
#04952:0000001400000000
#0495a:0000000000000014
#05052:14
#05056:00140000
#0505a:0014
#05158:0000005300000000
#05255:0000006300000000
#05354:00000014
#05458:00000014
#05555:0000006300000000
#05658:0000005300000000
#0575a:00000014
#05958:54
#00355:64
#00352:0064
#04252:0000000000130000
#04552:0063
#04558:00000053
#0465b:0053
#04655:00000053
#01055:00630000
#01052:00000063
#0225b:0000000000130000
#05852:00000014
#0295a:14
#02952:14
#03058:14
#03154:14
#0165b:0000000000630000
#001370:14
#0013a0:0034
#002370:34
#0023a0:0024
#003350:14
#003320:0034
#004350:34
#004320:0024
#010350:0000130000000023
#010340:00000000003300000000000000000000
#010320:00000000000000330033333333000000
#0123b0:00130023
#0123a0:00000000003300000000000000000000
#012380:0033
#014320:0000000000130000
#014350:00000000000000000000003300002300
#0163b0:0000000000130000
#016380:00000000000000000000003300002300
#018320:14000024
#018340:0000343400000000
#0183a1:14000024
#018381:0000343400000000
#0193b1:0000001300000000
#019381:00000023
#020321:0000001300000000
#020351:00000023
#0223b1:0000000013230000
#027321:13
#027351:00000033000023000000000000000000
#0273b1:0013
#027381:00000000000000000000003300002300
#0283a1:0014
#028381:00000024
#028320:0014
#028340:00000024
#0323a0:14
#032380:00343424
#032321:14
#032341:00343424
#0383a1:14000024
#038381:0000343400000000
#038320:14000024
#038340:0000343400000000
#039320:0000001300000000
#039350:0000000000230000
#0403b0:0000001300000000
#040380:0000000000230000
#0413b0:0000000013230000
#041350:0000000000001323
#042320:0000000013230000
#045320:0013
#045350:0000000000230000
#045380:00000013
#0453b0:0000000000000023
#0463b0:0013
#046380:0000000000230000
#046350:00000013
#046320:0000000000000023
#0473b0:13
#047380:00000033000023000000000000000000
#047320:0013
#047350:00000000000000000000003300002300
#0483a0:0014
#048380:00000024
#048321:0014
#048341:00000024
#049351:13
#049321:00000033000024000000000000000000
#049381:0013
#0493b1:00000000000000000000003300000000
#0493a1:0000000000000024
#051381:0000001300000000
#0513b1:0000000000230000
#052351:0000001300000000
#052321:00000023
#055351:0000001300000000
#055321:0000000000230000
#056381:0000001300000000
#0563b1:00000023
#059381:14
#0613b1:23
#0259b0:0013
#025980:0000000000000023
#026980:0013
#0269b0:0000000000000023
