This file was generated by Ched 2.7.0.0.
#TITLE ""
#ARTIST ""
#DESIGNER ""
#DIFFICULTY 0
#PLAYLEVEL
#SONGID ""
#WAVE ""
#WAVEOFFSET 0
#JACKET ""
#REQUEST "ticks_per_beat 480"
#00002: 4
#BPM01: 130
#00008: 01
#TIL00: ""
#VOLUME: ""
#HISPEED 00
#MEASUREHS 00
#01412:1413140014001400
#0141b:13000000000013130000000000000000
#01417:00000013000000000000131300000000
#01416:0000000000000013
#01915:0013001300130000
#01916:00000015001500000000000000001400
#01919:0015
#0191a:24
#01912:24242424
#00512:00000000130000000000130000000013
#00515:0000001313001300
#0051b:00000000000000130000000000000000
#00518:00000000001300000000001200000000
#00514:0013000000000000
#00517:00000012000000000000000000000000
#0051a:24000000000000000000000000140000
#00510:41
#00612:1314
#00617:00130000000000005300000000000000
#00614:0013000000140000
#00619:00000013000000000000000000000000
#00616:00000000130000000014000014000000
#0061b:00000000001300000000000000000000
#00618:00000000000000000000001400000000
#0061a:00000000000000000000000000140000
#05319:00130013000000000000000000000000
#05316:00001600000000000000000000130000
#0531a:00000000001300130000000000000000
#05317:0000001600000000
#0531b:00000000000000000013001300000000
#05318:0000000000160000
#05312:25000000260000002700000028000013
#01015:00000000000000000013001300000000
#01018:0000000000130000
#01012:0000131c
#0101a:14141400
#01217:0013000000000000
#01216:130000000000000000000000000000120012000000000000
#0121b:13135300
#01215:00135300
#01218:000000000000000000000000000000530000000000000000000000000000000012000000220000000000000000000000
#01214:0000000000000022
#0121a:0000000000000022
#01318:00000000001300000000000000130013
#01316:0013000000140000
#01315:0000001300000013
#0131b:00000013000000001300000013000000
#01317:13
#01312:14141414
#01310:41
#01715:0000000000131300
#01716:0000000013000013
#01713:0013000000000000
#01714:0000001300000000
#01718:13
#01717:00130000
#01712:23232323
#0171b:0053005300530053
#02115:0013001300230023
#0211b:13002323
#02118:00000013001300000000000000000000
#02119:0000000000230023
#02112:24242424
#02110:41
#02212:1300000023000013
#02216:00000000001400001400000013000000
#02217:0000000000000013
#0221a:2400241400002400
#02218:0013000000000000
#02215:00000013000000000000000000000000
#02312:2400241624002400
#02316:1513000016000000
#02318:00000000001300000000160000000000
#02315:0000000000130016
#02317:00000013
#02319:00000015000000000000000000000000
#02815:00001300000000130000130000000000
#02818:00000013000013000000001300000000
#02812:2c00002c00002c00002c2c2c
#02813:000000000000000000000000000000000000000000000000000000000000000000000000002a002a002a002a002a002a
#02814:000000000000000000000000000000000000002800280028
#02810:41
#03218:12000000130000001400000026000016
#03212:0000000000002616
#03216:00323200
#03418:00130000160000130013000000000000
#0341b:0013000000130000
#03415:00000013001300000000001319000000
#03412:16000000000013001900000000130000
#03618:00130013000000000013000000001300
#03615:00001300000000000000130000130000
#03612:00000000140000001400001300000013
#0361b:00000000001300000000000000000000
#0361a:14000014
#03518:00130013000000000000130000000000
#03515:00001300000000000013001300000000
#0351a:14140014
#03512:00141414
#04316:15001400000000001600180000140000
#04312:2400241624002418
#0431a:00000014001400000000000000000000
#04313:0000000000130000
#04516:00001300001400000000000026000000
#04517:13000000000013000013000000000000
#04512:2400241326000026
#04519:00000000000000000000001300000000
#0451b:00000000000000000000000000130000
#0451a:00000014000000000000000000000000
#04514:0000000000260000
#04818:00001300000000130000130000000000
#04815:00000013000013000000001300000000
#04812:2c2c2c1c
#04816:0000000000000014
#04912:00140000000000001c00160026001600
#04918:00001600260016000000001400000000
#04914:00000014000000000000000000000000
#04916:00000000001400000000000000140000
#0491a:00000000000000000014000000000000
#05118:0013001600000013
#05115:00000016001300000000000000000013
#0511b:00000000000000000000000000130000
#05112:2400000024132400
#05116:00000000000000000000001300000000
#0511a:24240000
#05110:41
#05218:16000000001300000000000000000013
#05215:00001316000000000000000000001300
#05212:24000000240016000000000000130000
#0521b:0000000000130000
#05217:00000000000000000000001300000000
#0521a:00002424
#05414:00131613000000000000000000000000
#05413:00000000001316130000000000000000
#05412:00000000000000000013161300000000
#05419:25
#05418:00260000
#05417:0027
#05416:0000000000002824
#05819:00140000250000140014000000000000
#05816:0014001400142800
#05813:00000014001400000000001400000000
#05812:24000000000000002600000000130000
#0581b:00000000000000000000000000000013
#0411b:00000000001300000000000000000000
#04118:16000016000000000000000014000000
#04115:0013000000220000
#04117:0000000000140022
#04119:0000000000000014
#04116:0000001514000000
#04112:24242424
#0501a:0012000000120000
#05016:000000001200000000000012000000001200000000240000
#05018:000000000012000000001200000000000012000000000000
#05014:0000001200000000
#05012:2c2c2c2c
#05714:00140000000000140014000000000000
#05716:0014001400140000
#05718:00000014001400002600001400000000
#0571b:00000000000000000000000000130000
#0571a:24
#05712:00250028
#00414:0000000000000000000000000000000000000000000000000000000000000012
#0041a:00140000
#00416:00145400
#00412:00000026
#00712:13000000000000130000000000000000
#0071b:00131313
#00718:0000001300130000
#00716:54000000000000000012001200140000
#00717:00000012000000000000000000000013
#00715:00000000001300000000000000000000
#00719:0013000000000000
#00817:13
#00812:00130000000000005314000000000013
#00819:0013000000000000
#00814:00000013000000000000001400000000
#0081b:00130013
#00816:00000000001300001400000000000000
#00818:00000000000000000000140000130000
#00815:0000000000000013
#00914:0013000000130000
#00917:00000013000013000000001300001300
#00912:0000131300001313
#0091a:14141414
#01817:1313000000002700
#01816:0000131300000000
#01819:0000250013130000
#01814:00000013
#01812:2527
#03816:1313000000000000
#03817:0000131327000000
#03814:0000000013130000
#03819:25000013000000000000000013000000
#03812:00000000250000130000000027000000
#0381b:00000000000000000000001300000000
#01612:13000000000013130000000000000000
#01616:00000013000000000000131300000000
#01617:0000000000000013
#0161b:0013000000000000
#0161a:14141414
#01515:00000000001300000000000000130013
#01516:1300000000140000
#01518:0000001300000013
#01512:00000013000000001300000013000000
#01517:0013000000000000
#0151a:14141414
#02016:0000000000000014
#02018:0013001300130000
#02015:00000015001500000000000000000000
#02012:2415
#0201a:24242424
#02418:0000001600130000
#02414:0016
#02412:00000015000000000000160000000000
#02415:15000000001300000000000000001600
#02416:00000013
#02417:0013000000000000
#0241a:24242424
#02517:1300000000250000
#02515:0013001300002500
#02518:00000014001400000000000000000000
#02512:24000000240000130000000013000000
#02514:0000000000130000
#02516:0000000000000013
#02519:0000000025000025
#02616:13000025
#02618:0013001300000000
#02614:00000014001400000000250000000000
#0261b:00000000000000130000000013000000
#02619:0000000000130000
#02617:0000000000000013
#0261a:24240000
#02612:0000000025000025
#03916:0013000016000014
#03918:00000016000000000000000000000000
#0391b:00000000001300000000130000000000
#03915:0000001600160000
#0391a:24
#03912:24242424
#0391f:21
#04016:0000000000000014
#04017:0013000000000000
#04012:24000016001300000000130000000000
#04015:0000001600160000
#04014:0016
#0401a:24242424
#04010:41
#04216:0000000000000014
#04212:16000016001300000000150000001300
#04218:0013000000000000
#04215:0000001515000000
#04217:0000000000130000
#0421a:24242424
#04416:00001400000000000000000000141800
#04418:0000001600000000
#04414:0016
#04412:00000014001400000000180000000000
#04415:15
#0441a:2400240024132400
#04617:0013000000000000
#04616:13000000001413000013260000000000
#0461b:0000001300000000
#04614:00000000000000000000001326000000
#04612:00000014000000000000000000130000
#04618:0000000026000026
#0461a:24240000
#05515:00001316000000000000000000001300
#05518:00000000001300000000000000000013
#05512:24000000240016000000000000130000
#0551b:0000000000130000
#05517:00000000000000000000001300000000
#0551a:24002424
#05612:1600000024132400
#05618:0013001600000013
#05615:00000016001300000000000000000013
#0561b:00000000000000000000000000130000
#05616:00000000000000000000001300000000
#0561a:24240000
#00114:00130053
#00117:00135300
#00219:00130053
#00216:00135300
#00312:00140054
#00316:00145400
#01119:0013000000130000
#01116:00000013000013000000001300001300
#0111b:0000131300001313
#01112:14141414
#03716:0000130000140000
#03715:1300000000000014
#03718:0014000000001300
#03717:0000001413000000
#0371b:23232323
#03712:0053005300530053
#03312:26000000001300001900000000130000
#03318:00001300160000130000130000000013
#0331b:00130000000000000013000000000000
#03315:00000013000013000000001319000000
#02716:1400001314000000
#02714:0000001400000000000000000000000000000014000000000000000000000000
#02718:0000001400000000000000000000000000000014000000000000000000000000
#02712:2400000000000013
#02719:0000002500000000
#0271a:0024
#02715:0000000000000025
#04716:1414
#04718:0000001400000000000000001600000000000014000000000000000026000000
#04714:0000001400000000000000000000000000000014000000000000000000000000
#04712:0000002624000016
#0471a:24
#0291f:11
#02916:0000000000000024
#03012:26
#03018:26
#03016:0000000000000024
#03112:26
#03118:26
#06117:52
#0145b:53
#01457:00000000000000000000005300000000
#01452:00140014
#03252:00000016
#05356:00000000000000000000000000530000
#05352:35363738
#00452:00000056
#00454:0000000000000000000000000000000000000000000000000000000000000022
#0045a:00640014
#00456:00640000
#01056:0000000000000014
#01052:0000005c
#01257:0053000000000000
#01256:63
#0125b:00531300
#01357:53
#01352:00140014
#0215b:53
#02152:00140014
#01956:00000045000000000000000000000000
#01959:00005515
#01952:00140014
#01955:0000000000230000
#02356:6546
#02358:0000000000460000
#02352:00140014
#02852:4c00003c00004c00002c2c2c
#02853:000000000000000000000000000000000000000000000000000000000000000000000000005a005a005a005a005a005a
#02854:000000000000000000000000000000000000002800280028
#02952:1c
#03052:16
#03058:16
#04356:6500000046480000
#04352:00140014
#04557:6300006300000000
#04556:00000036
#04552:00140000
#04852:3c4c3c5c
#04856:0000000000000024
#05052:4c3c4c3c
#05155:00000036000000000000000000000000
#05158:0000005600000000
#0515a:00140000
#05152:00000014
#05258:46
#05255:00000046000000000000000000000000
#05252:0000146600000000
#0525a:00000014
#05459:45
#05458:00460000
#05457:0047
#05456:00000048
#0575a:44
#05752:00350038
#05758:0046
#0575b:00000000000000000000000000530000
#05852:34000000000000003600000000530000
#05859:00450000
#05856:00000048
#03452:00000000000000000000000000530000
#03458:00160000
#03455:00000019
#0065b:00000000006300000000000000000000
#0065a:00000000000000000000000000640000
#00856:00000000005300000000000000000000
#0225a:0000145400001400
#02256:0064
#02252:6363
#03152:16
#03158:16
#0365b:00000000006300000000000000000000
#03652:00140000
#0365a:00000014
#01652:63
#01656:00000000000000000000006300000000
#0165a:00140014
#01556:63
#0155a:00140014
#02454:0036
#02452:0000000000360000
#02455:55
#0245a:00140014
#02557:63
#02552:00000000140000230000000000000000
#02555:0000005300004500
#02656:53000035
#0265a:00140000
#02658:0000006300000000
#0265b:00000000000000230000000000000000
#0355a:00540014
#03552:00140064
#03958:00000046000000000000000000000000
#03956:00005616
#0395b:0000000000230000
#03952:00140014
#04158:00000046000000000000000000000000
#04152:00140014
#04252:00000036000000000000350000000000
#0425a:00140014
#04255:0035
#04454:0036
#04452:0000000000380000
#04455:55
#0445a:00140014
#04656:5300005300000000
#04654:00000046
#0465a:00140000
#05555:00000046000000000000000000000000
#05552:0000146600000000
#0555a:00000014
#05652:36000014
#05655:00000036000000000000000000000000
#05658:0000005600000000
#0565a:00140000
#04958:00160000
#04952:4c001c16
#02055:00000035000000000000000000000000
#02052:00006515
#02058:0000000000230000
#0205a:00140014
#04052:00000036000000000000230000000000
#04054:00006616
#0405a:00140014
#0055a:14000000000000000000000000240000
#00756:00000000000000000000000000540000
#00157:00530000
#00154:00530000
#00259:00630000
#00256:00630000
#00352:00540000
#00356:00540000
#03352:00000000000000000000000000630000
#03358:00160000
#03355:00000019
#02756:54000014000000006400001400000000
#02752:54000000000000000000001400000000
#02754:0000002400000000000000000000000000000024000000000000000000000000
#02758:0000002400000000000000000000000000000024000000000000000000000000
#0275a:00000014000000006400000000000000
#04756:64000014000000005400001400000000
#04758:0000002400000000000000000000000000000024000000000000000000000000
#04754:0000002400000000000000000000000000000024000000000000000000000000
#0475a:64000000000000000000001400000000
#04752:00000014000000005400000000000000
#01852:3537
#01859:00450000
#01857:00000047
#03859:45
#03852:00350037
#03857:0047
#001340:13530000
#001370:0023
#001371:00130000
#001341:00005323
#002391:13530000
#002361:0023
#002360:00130000
#002390:00005323
#003320:14540000
#003360:0024
#003361:00140000
#003321:00005424
#0043a1:14540000
#004361:0024
#004360:00140000
#0043a0:00005424
#004321:00000016
#004341:0000000000000000000000000000000000000000000000000052000000000052
#005321:26
#0053a1:00000000000000000000000000140000
#006361:24
#007361:00000000000000000000000000140000
#008321:24
#010321:13
#010361:0024000000000000
#010321:00130000
#010361:0000002400000000
#010321:0000001c
#010361:0000000000000024
#012361:13
#012321:0023000000000000
#012370:0013000000000000
#0123b0:00330000
#012350:0023
#013370:13
#0133b0:0023000000000000
#0143b0:13
#014370:0023000000000000
#014370:00000000000000000000001300000000
#0143b0:0000000000000023
#015360:13
#015320:0023000000000000
#016320:13
#016360:0023000000000000
#016360:00000000000000000000001300000000
#016320:0000000000000023
#019390:00001525
#019350:0000000000530000
#020320:00001525
#020380:0000000000530000
#0213b0:13
#021380:0023000000000000
#022320:13
#022350:0023000000000000
#0223a0:0000001400000000
#022360:0034
#022320:0000000000240000
#022321:0013
#022371:0000000000230000
#023361:15
#0233b1:0023000000000000
#024351:15
#024321:0023000000000000
#025371:13
#0253b1:0023000000000000
#025351:0000001323000000
#025321:00000000000000530000000000000000
#026361:13
#026321:0023000000000000
#026381:0000001323000000
#0263b1:00000000000000530000000000000000
#027321:14
#027381:0000005400000000000000000000000000000000000000000000000000000000
#027361:00000024000000000000000000000000
#027360:14
#027340:0000005400000000000000000000000000000000000000000000000000000000
#0273a0:00000024000000000000000000000000
#0273a0:0014
#027340:0000000000000000000000000000000000000054000000000000000000000000
#027360:00000000000000000000002400000000
#027361:0014
#027381:0000000000000000000000000000000000000054000000000000000000000000
#027321:00000000000000000000002400000000
#028321:0000000000000000001c5c5c
#028331:000000000000000000000000000000000000000000000000000000000000000000000000005a005a005a005a005a005a
#028341:000000000000000000000000000000000000005800580058
#029321:2c
#032361:12323200
#032321:00000026
#032380:0000000000001626
#033320:00000000000000000000000000130000
#033350:00000000000000000000000000000023
#034320:00000000000000000000000000130000
#035360:24
#0353a0:00140000
#035360:0024
#035320:00000014
#036360:24
#0363b0:00000000001300000000000000000000
#036360:0024
#039360:00001626
#0393b0:0000000000530000
#040340:00001626
#040320:0000000000530000
#043360:15
#0433b0:0023000000000000
#044350:15
#044320:0023000000000000
#045370:13
#0453b0:0023000000000000
#045370:0000001300000000
#0453b0:0023
#046360:13
#046320:0023000000000000
#046360:0000001300000000
#046320:0023
#0473a0:14
#047340:0000005400000000000000000000000000000000000000000000000000000000
#047360:00000024000000000000000000000000
#047361:14
#047381:0000005400000000000000000000000000000000000000000000000000000000
#047321:00000024000000000000000000000000
#047321:0014
#047381:0000000000000000000000000000000000000054000000000000000000000000
#047361:00000000000000000000002400000000
#047360:0014
#047340:0000000000000000000000000000000000000054000000000000000000000000
#0473a0:00000000000000000000002400000000
#048320:0000001c
#048360:0000000000000054
#049320:2c
#051380:0000001600000000
#051360:0000000000230000
#052320:0000001600000000
#052370:0000000000230000
#053360:00000000000000000000000000130000
#0533b0:00000000000000000000000000000023
#055320:0000001600000000
#055370:0000000000230000
#056380:0000001600000000
#056360:0000000000230000
#0573b0:00000000000000000000000000130000
#058360:24
#058320:00000000000000000000000000130000
#058350:00000000000000000000000000000026
#059350:16
#061370:22
#0069b0:00000000001300000000000000000000
#006970:0023
#0069a0:00000000000000000000000000140000
#007960:24
#008960:00000000001300000000000000000000
#008920:0023
#012950:00130000
#012980:00000000005300000000000000000000
#0129b0:0023
#017980:13
#0179b0:0023000000000000
#017970:00130000
#0179b0:0000002300000000
#017960:0013
#0179b0:0000000000230000
#017950:00000013
#0179b0:0000000000000023
#037950:13
#037920:0023000000000000
#037960:00130000
#037920:0000002300000000
#037970:0013
#037920:0000000000230000
#037980:00000013
#037920:0000000000000023
