This file was generated by Ched 2.7.0.0.
#TITLE ""
#ARTIST ""
#DESIGNER ""
#DIFFICULTY 0
#PLAYLEVEL
#SONGID ""
#WAVE ""
#WAVEOFFSET 0
#JACKET ""
#REQUEST "ticks_per_beat 480"
#00002: 4
#BPM01: 130
#00008: 01
#TIL00: ""
#VOLUME: ""
#HISPEED 00
#MEASUREHS 00
#0091a:1414
#01014:1414
#01118:1414
#01318:1414
#01314:00140000
#01310:41
#01414:1414
#0141a:00140000
#01518:1414
#01514:00140000
#0351a:1414
#03514:00140000
#03612:1414
#03618:00140000
#00118:14
#00314:14
#00514:0014
#0051a:24
#00510:41
#00618:14
#00612:0014
#0071a:14
#00714:0014
#00818:14
#00812:0014
#01612:1414
#01618:00140000
#01918:00140000
#01912:2414
#0201a:1414
#02014:00140000
#02114:1414
#02118:00140014
#02110:41
#02314:00140000
#0231a:1414
#02412:1414
#02418:00140000
#02518:1414
#02514:00140014
#03918:00140000
#03912:0014
#03914:24
#0391f:21
#04018:14
#04014:00140000
#0401a:0014
#04010:41
#04114:14
#04118:00140000
#04112:0014
#0411a:00000014
#04314:00140000
#0431a:0014
#04318:14
#04414:14
#04418:00140000
#04412:0014
#04518:14
#04514:00140000
#0451a:0014
#04512:00000014
#05318:14
#0531a:0014
#05418:14
#05118:14
#05114:00140000
#0511a:0014
#05110:41
#05212:14
#0521a:00140000
#05214:0014
#05714:14
#05712:0014
#05814:14
#05514:14
#05518:00140000
#05512:0014
#0561a:14
#05612:00140000
#05618:0014
#03314:00140000
#0331a:2414
#03412:1414
#03418:00140000
#05918:14
#0291f:11
#02918:26
#0271a:2424
#02712:2424
#02818:2424
#02814:00240024
#02810:41
#03012:26
#03118:26
#03212:26
#0471a:2424
#04712:2424
#04818:2424
#04814:00240024
#04918:26
#04912:0026
#0501a:2424
#05012:00240024
#00158:54
#00354:64
#02958:16
#03052:16
#03158:16
#03252:16
#04958:16
#04952:0016
#05358:54
#0535a:0054
#05458:54
#05754:64
#05752:0064
#05854:64
#04252:0014
#0465a:0014
#05958:54
#001380:14
#0023a0:0024
#003340:14
#004320:0024
#012320:1424
#017380:14
#0173a0:0034
#018380:34
#0183a0:0024
#022320:14
#022340:0024
#0263a0:14
#026380:0024
#0373a0:14
#037380:0034
#0383a0:34
#038380:0024
#042340:14
#042320:0024
#046380:14
#0463a0:0024
#053380:14
#0533a0:0034
#054380:34
#0543a0:0024
#057340:14
#057320:0034
#058340:34
#058320:0024
#059380:14
#0613b0:23
