This file was generated by Ched 2.7.0.0.
#TITLE ""
#ARTIST ""
#DESIGNER ""
#DIFFICULTY 0
#PLAYLEVEL
#SONGID ""
#WAVE ""
#WAVEOFFSET 0
#JACKET ""
#REQUEST "ticks_per_beat 480"
#00002: 4
#BPM01: 160
#BPM02: 130
#00008: 01
#08208: 0002
#TIL00: ""
#VOLUME: ""
#HISPEED 00
#MEASUREHS 00
#00818:14
#0141a:14
#01410:41
#01514:14
#0161a:14
#01714:14
#01818:14
#01912:14
#02018:14
#02212:14
#02210:41
#02318:14
#02412:14
#02518:14
#02614:14
#0271a:14
#03018:14
#0301f:11
#03114:14
#07714:14
#08118:14
#07212:14
#0721a:14
#0711a:14
#07112:14
#00019:14
#00113:14
#00219:14
#00313:14
#00912:14
#02112:14
#04418:0016
#04512:16
#04518:0016
#04818:16
#04812:0016
#04918:16
#04912:0016
#05112:16
#05118:0016
#05318:16
#05312:0016
#05418:16
#05412:0016
#05410:41
#06412:14
#06614:14
#06812:14
#06518:14
#0671a:14
#07818:14
#08214:14
#04612:2626
#04712:26
#0391f:0000000000000021
#04010:00000041
#06210:41
#07310:41
#0043a0:14
#0053a0:24
#006340:14
#007340:24
#010380:14
#011380:24
#012320:14
#013320:24
#028320:14
#029320:24
#0323a0:14
#033380:34
#0343a0:34
#035380:24
#036320:14
#037340:34
#038320:34
#039340:34
#039320:0000000000000026
#040380:0000000016000036
#041370:0036000000360000
#041380:0000003600000026
#042320:0000001600000036
#043330:0036000000360000
#043320:0000003600000026
#047320:1626
#050380:1626
#052320:1626
#055380:1626
#056340:14
#057320:24
#058380:14
#0593a0:24
#060320:14
#061340:24
#0623a0:14
#063380:24
#069380:14
#0703a0:24
#073340:14
#074320:24
#075380:14
#0763a0:24
#079340:14
#080320:24
#0833a0:14
#086380:24
