This file was generated by Ched 2.7.0.0.
#TITLE ""
#ARTIST ""
#DESIGNER ""
#DIFFICULTY 0
#PLAYLEVEL
#SONGID ""
#WAVE ""
#WAVEOFFSET 0
#JACKET ""
#REQUEST "ticks_per_beat 480"
#00002: 4
#BPM01: 182
#00008: 01
#TIL00: ""
#VOLUME: ""
#HISPEED 00
#MEASUREHS 00
#00618:0013000000001300
#00615:1300131300000013
#0061b:0000130000130000
#0071b:13
#00712:1300000000130000
#00718:0000131313000013
#00715:00000000001300130000000013000000
#00710:41
#00412:1313
#0041b:0013000000000000
#00418:00130000
#00415:0000001300000000
#00419:00000014
#00413:00000014
#0011b:13000000000000000000530053005353
#00118:0000005300000000
#00115:53
#00212:13000000000000000000530053005353
#0021b:53
#00215:0000005300000000
#00318:1300000000535300
#00312:53
#0031b:0000005300000000
#00517:0013000000000000
#00515:0000001300001300
#0051b:00531300
#00518:0000000000130000
#00512:2400000000000013
#00519:00000053000000000000000000000000
#00815:13000013
#00812:0013001300130000
#0081b:00130000
#00818:0000001300000013
#01018:0013000000001300
#01015:0000130000130013
#0101b:0000001300000000
#01012:0000001300000000
#0111b:13
#01112:1300001300000014
#0111a:0000001300001400
#01114:0000000000130000
#01115:00130000
#00916:0013000000000000
#00918:0000001300001300
#00912:0000530013000013
#00915:0000000000130000
#0091b:0000000000000013
#0091a:24
#00914:00000053000000000000000000000000
#0121b:0000000000130000
#01218:00000013
#01215:0000000000000013
#01216:00140000
#0201b:00000013000000000000130000000000
#02015:00000013
#02018:0000000000000013
#02012:00000013000000000000000000000000
#0211b:13
#02117:0000001300130013
#02115:0013
#02112:26240024
#02515:0013000013000013
#02518:2600130000130000
#02519:0000000000000015
#02512:00240024
#02615:0013000000001300
#02618:0000001300130000
#02612:0000001500000013
#0261a:00240024
#02718:13230000
#02715:0023000000000000
#02710:41
#02415:0000000000130013
#02412:00000013000000000000000000000000
#02418:1313
#0241a:00240024
#02818:0013001300130000
#02815:00131300
#02812:00000013
#0281b:00000013
#02918:13
#0291b:0013
#02915:1363
#0291f:11
#03015:13
#03012:0013
#03017:0063
#03118:13
#0311b:0013
#03116:0063
#03618:00000013
#03615:0000000000000013
#0371a:14
#03718:00131300
#03712:1300001400000000
#03715:0013000000000000
#0371b:0000001300000000
#03918:00130000
#03916:1300000000130000
#03919:00000013
#03917:0000000000000013
#03912:0000001300000013
#03914:00000013
#0391a:2400001400000000
#0391f:21
#03910:0041
#04015:0000001300000013
#04018:00001313
#0401b:0000000000130000
#04215:00000013000000000000000000001300
#04218:00000013000000000000000000000000
#04212:0024
#0421a:0024
#04318:13130013
#04315:0000001300130000
#0431b:0000002300000013
#04312:2300000000000023
#04418:0013000000001300
#04415:0000130000000013
#04412:0000001300000000
#0441b:0000001300130000
#04512:13
#04518:0013000000002323
#04515:0000230000000013
#0451b:13
#04615:0000000000000013
#04715:00130000
#04712:2300002300130000
#04718:1300001300000000
#04714:00000013
#0471b:0000000000000013
#04716:0000000000000013
#04818:0000000000130013
#04815:0013
#04812:00130000000013000000000013000000
#0481b:00000013
#04817:00130000000000000000000000000000
#05418:0013001300001300
#05415:0000130000130013
#0551b:13
#05515:00130013
#05512:13
#05517:0000002400240024
#05615:0000130000130013
#05618:00000013
#05617:0024002400000000
#05712:13
#0571b:13
#05718:00130013
#05714:0000002500250025
#05818:00130000
#05812:0000000000131300
#0581b:0000000000131300
#05814:0025002500000000
#0591b:13
#05912:13
#05915:00130013
#05917:0000002600260026
#05910:41
#06015:00130000
#06012:0000000000000013
#0601b:0000000000000013
#06017:0026002600000000
#06918:0000130000000013
#06915:0000000000131300
#06715:00001333000000000000130000000013
#06718:00001333260000000000001300001300
#06712:13260000
#0671b:13
#06719:0014
#06713:00000014
#06815:00001300000000130013000000001300
#06818:00000013000013001300130000000013
#06819:14
#06813:00140000
#06812:00000024
#0681a:00000024
#04115:00130000
#04117:1300000000130000
#04112:1400001400001313
#0411b:0000001300000013
#04918:00130000
#04915:1300001300000000
#04912:0000000000000013
#0491b:2300002300000000
#04917:0000000000002323
#05015:00000000000000000000001400000000
#05016:00130000000000001400000000000000
#0501b:00130000000000000000000000000000
#05014:0000000000000014
#0501a:0024
#05019:00000000000000000000002400000000
#05018:0000000000000024
#06115:1300000000130000
#06118:0013000000130000
#06112:00140000
#0611a:00140000
#01315:0000000000130013
#01318:00000000331333000000000013000000
#0131b:13
#01412:0000000000130000
#01415:00000013
#01418:0000000000000013
#01518:0000000000130013
#01515:00000000331333000000000013000000
#01512:13
#01615:0000000000000013
#01610:41
#01715:0000001300000000
#0171b:00000013000000000000000000000000
#01712:0000000000130000
#01718:2300000000000023
#01713:00000033
#0171a:00330000
#0181b:0013000000000000
#01815:0000001300000000
#01812:00000000000000000013000000000000
#01818:0000000000000013
#0181a:00330000
#01915:0000130000000013
#01918:0000000000000013
#02315:0013000000130013
#02318:1313
#02312:0000001300000000
#0231a:00240024
#02218:0000001300000000
#0221b:0000000000130013
#02215:1313
#02212:00240024
#03215:1300001300000013
#03218:0013
#0321b:0000000000130000
#03212:00000013
#03315:0000000013000013
#03318:13000013
#0331b:00130000
#03418:0013001300000000
#03415:0000130013000013
#05114:24000000000000000000001400000000
#05115:0014
#05113:0000000000000014
#0511b:23
#05119:0024
#05118:00000000000000000000002400000000
#05117:0000000000000024
#05110:41
#05214:0014
#05213:24000000000000000000001400000000
#05212:0000000000000014
#05218:0024
#05216:0000000000000024
#05217:00000000000000000000002400000000
#0521a:24
#0531b:0013
#05315:0000000000130000
#05318:00000013
#05312:2400000000000013
#05319:25
#06415:0013000000002300
#06418:1300231300000013
#06412:0000130000130000
#06512:1300000000130000
#0651b:13
#06515:00000000001300130000000023000000
#06518:0000231313000013
#0631b:0013
#06318:0000230000130000
#06312:0000530013000013
#06315:0000001300002300
#06316:0013000000000000
#0631a:24
#06314:00000053000000000000000000000000
#0661b:1300001300000000
#06615:0013001300002300
#06618:0000230000130013
#06612:1300000000130000
#07012:0024000015150000
#07016:0000000000000012
#07019:0000000015150000
#07018:0000000000000012
#0701a:00240000
#03815:23
#03818:23
#03812:00240000
#0381a:00240000
#03816:00000064
#03518:26
#03512:0026000000000000
#00015:00000000000000000000000053005353
#07112:00005654520000000000000000000000
#07118:0056000000000000
#0711a:00000054000000000000000000000000
#0711c:00520000
#00552:14
#0015b:53
#00158:0000005300000000
#00252:63
#00255:0000006300000000
#00358:63
#0035b:0000006300000000
#00655:0000005300000000
#0115a:0000005300000000
#0115b:63
#01152:0000000000000064
#0215b:53
#02152:16
#02157:0000000000000053
#0275a:0000000000000014
#02758:00530000
#02755:0063000000000000
#02752:0000000000000014
#0295b:0023
#02958:53
#02955:13
#03055:63
#03052:0023
#03158:53
#0315b:0023
#0375a:14
#03752:0000001400000000
#03956:6300000000230000
#03957:0000000000000023
#03952:0000005300000023
#03954:00000053
#0395a:1400001400000000
#04452:0000001300000000
#0445b:0000001300000000
#04555:0000000000000053
#04558:0000000000000053
#04652:0014
#0465a:0014
#05952:13
#0595b:13
#06958:0000000000000053
#06955:00000063
#01256:00240000
#03858:13
#0385a:00140000
#03855:13
#02558:16530000
#02559:0000000000000045
#04157:5300000000230000
#04152:1400001400000063
#0415b:0000006300000053
#04255:00000023000000000000000000000000
#04258:00000023000000000000000000000000
#04252:0034
#0425a:0044
#04758:5300005300000000
#0475b:0000000000000063
#04756:0000000000000063
#04955:6300006300000000
#04952:0000000000000053
#04957:0000000000000053
#0515b:13
#05359:15
#05352:0000000000000053
#04857:00230000000000000000000000000000
#04852:00230000000000000000000000000000
#05657:0000001400000000
#06152:00540000
#06155:0000000000230000
#0615a:00640000
#06158:0000000000230000
#06252:13
#0625b:13
#05854:0000001500000000
#06057:0000001600000000
#05552:13
#0555b:13
#01358:00000000002300000000000000000000
#0135b:53
#01355:0000000000000063
#01552:63
#01555:00000000002300000000000000000000
#01558:0000000000000053
#0165b:0013
#01758:6300000000000063
#01755:0000006300000000
#01752:0000000000230000
#0175b:00000023000000000000000000000000
#01855:0000006300000000
#01852:00000000000000000023000000000000
#0185b:0023000000000000
#01958:0000000000000063
#01955:0000000000000063
#0205b:00000023000000000000000000000000
#02052:00000023000000000000000000000000
#02355:0000000000000053
#02452:00000023000000000000000000000000
#03255:13
#03258:13
#03558:46
#03552:0036000000000000
#03455:0053
#03458:0000005300000000
#03355:0000000000000053
#03358:53
#0335b:00230000
#05056:00230000000000000000000000000000
#0505b:00230000000000000000000000000000
#0525a:14
#00952:0000000000000013
#0095a:14
#0105b:0000001300000000
#06458:0000006300000000
#0635a:14
#06552:13
#0655b:13
#06752:53360000
#06755:0023000000000000
#06758:0023460000000000
#0675b:63
#07056:0000000000000022
#07052:0014000000550000
#0705a:00140000
#07058:0000000000000022
#07059:0000000000650000
#02652:0000003500000000
#05458:0000005300000000
#006350:0000001300000000
#006320:0000000000230000
#0113b0:13
#011380:00230000
#0113a0:0000001300000000
#011370:0000000000230000
#011320:0000000000000014
#012360:00540000
#012320:0000000000240000
#0133b0:1300000000230000
#013380:00000000335333000000000000000000
#013350:0000000000000013
#014320:0000002300000000
#014381:0000001300230000
#015321:1300000000230000
#015351:00000000335333000000000000000000
#015381:0000000000000013
#0163b1:0023
#017381:1300002300000000
#0173b1:00000053000000000000000000000000
#0173a1:00330000
#017350:0000001300000023
#017320:0000000000330000
#017330:00000033
#017381:0000000000000013
#0183b1:0033000000000000
#0183a1:00330000
#018381:0000002300000000
#018350:0000001300002300
#018320:00000000000000000053000000000000
#019380:1300000000003333
#0203b0:00000053000000000000000000000000
#020380:0023
#019351:0000001300003333
#020321:00000053000000000000000000000000
#020351:0023
#0213b1:13
#021371:00230000
#021371:0000000000000013
#0223b1:00230000
#023351:0000000000001333
#024321:00000053000000000000000000000000
#024351:0023
#025381:00130000
#0253b1:0023
#027351:0013000000000000
#027321:0000000000000024
#027380:00130000
#0273a0:0000000000000024
#029380:13
#0293b0:0053
#030380:23
#030351:13
#030321:0053
#031351:23
#031380:13
#0313b0:0053
#032380:23
#033380:1323
#0333b0:00530000
#033350:0000000000000013
#034320:0023000000000000
#034380:0000001300000000
#0343b0:00000023
#034351:0013
#034321:00000023
#037351:0000000000130000
#038351:23
#037380:00000013
#038380:23
#038320:00140000
#038360:00000024
#039360:13
#039320:00230000
#039320:0000001300000053
#039360:0000000000530000
#039340:00000053
#040360:00230000
#039371:0000000000000013
#0403b1:00230000
#041371:13
#0413b1:00230000
#0413b1:0000001300000033
#041371:0000000000530000
#042381:00000053000000000000000000000000
#0423a1:0024
#041320:0000000000000013
#042350:00000053000000000000000000000000
#042320:0024
#043320:13230000
#0433b0:0000001300230000
#043320:0000000000000013
#044320:0023000000000000
#045350:0000130000000033
#046320:0024
#045381:0000000000000013
#0463a1:0024
#047381:13
#0473b1:00230000
#047381:0000001300000000
#0473b1:0000000000530033
#048371:00530000000000000000000000000000
#0483b1:00230000
#047360:0000000000000013
#048320:00530000000000000000000000000000
#048360:00230000
#049350:13
#049320:00230000
#049350:0000001300000000
#049320:0000000000530033
#050360:00530000000000000000000000000000
#050320:00230000
#049371:0000000000000013
#0503b1:00530000000000000000000000000000
#050371:00230000
#051341:14240000
#052331:14240000
#053321:1424
#053321:0000000000000013
#054351:0023000000000000
#054381:0000001300000000
#0543b1:0000000000230000
#061321:00140000
#061351:0000000000530000
#062321:23
#0613a0:00140000
#061380:0000000000530000
#0623b0:23
#064380:0000001300000000
#0643b0:0000000000230000
#067320:13260000
#067350:00003333000000000000000000000000
#0673b1:13
#067381:00003333260000000000000000000000
#069351:13535353535323000000000000000000
#069341:0053005300530053005300530000000000000000000000000000000000000000
#069380:00000000000013535353535323000000
#069390:0000000000000000000000000053005300530053005300530000000000000000
#069351:00000013
#069321:0000000000000054
#070321:0024000000000000
#069380:0000000000000013
#0703a0:54240000
#070320:0000000000150000
#070360:0000000000000052
#071320:0026000000000000
#070391:0000000000150000
#070381:0000000000000052
#071381:0026000000000000
#000950:000000000000000000000000000000000000000000000000000000000000000000000000000000000000000000000000000000000000000000000000000000000000000000000000000000000000000000000000000000000000000000000000000000000000000000000000000000000000000000000000000000000000000000000000000000000000000000000000000000000000000000000000000000000000000000000000000000000000000000000000000000000000000000000000000000000000000000000000000000000000000000000000000000000000000000000000000000000000000000000000000000000000000000000000000000000000000000000000000000000000000000000000000000000000000000000000000000000000000000000000000000000000000000000000000000000000000000000000000000000000000000000000000000000000000000000000000000000000000000000000000000000000000000000000000000000000000000000000000000000000000000000000000000000000000000000000000000000000000000000000000000000000000000000000000000000000000000000000000000000000000000000000000000000000000000000000000000000000000000000000000000000000000000000000000000000000000000000000000000000000000000000000000000000000000000000000000000000000000000000000000000000000000000000000000000000000000000000000000000000000000000000000000000000000000000000000000000000000000000000000000000000000000000000000000000000000000000000000000000000000000000000000000000000000000000000000000000000000000000000000000000000000000000000000000000000000000000000000000000000000000000000000000000000000000000000000000000000000000000000000000000000000000000000000000000000000000000000000000000000000000000000000000000000000000000000000000000000000000000000000000000000000000000000000000000000000000000000000000000000000000000000000000000000000000000000000000000000000000000000000000000000000000000000000000000000000000000000000000000000000000000000000000000000000000000000000000000000000000000000000000000000000000000000000000000000000000000000000000000000000000000000000000000000000000000000000000000000000000000000000000000000000000000000000000000000000000000000000000000000000000000000000000000000000000000000000000000000000000000000000000000000000000000000000000000000000000000000000000000000000000000000000000000000000000000000000000000000000000000000000000000000000000000000000000000000000000000000000000000000000000000000000000000000000000000000000000000000000000000000000000000000000000000000000000000000000000000000000000000000000000000000000000000000000000000000000000000000000000000000000000000000000000000000000000000000000000000000000000000000000000000000000000000000000000000000000000000000000000000000000000000000000000000000000000000000000000000000000000000000000000000000000000000000000000000000000000000000000000000000000000000000000000000000000000000000000000000000000000000000000000000000000000000000000000000000000000000000000000000000000000000000000000000000000000000000000000000000000000000000000000000000000000000000000000000000000000000000000000000000000130000000000000000000000000000000000000000000000000000000000000000000000000000000000000000000000000000000000000000000000000000000000000000000000000000000000000000000000000000000000000000000000000000000000000000000000000000000000000000000000000000000000000000000000000000000000000000000000000000000000000000000000000000000000000000000000000000000000000000000000000000000000000000000000000000000000000000000000000000000000000000000000000000000000000000000000000000000000000000000000000000000000000000000000000000000000000000000000000000000000000000000000000000000000000000000000000000000000000000000000000000000000000000000000000000000000000000000000000000000000000000000000000000000000000000000000000000000000000000000000000000000000000000000000000000000000000000000000000000000000000000000000000000000000000000000000000000000000000000000000000000000000000000000000000000000000000000000000000000000000000000000000000000000000000000000000000000000000000000535353
#001950:23
#0019b1:130000000000000000000000000000000000000000000000000000000000000000000000000000000000000000000000000000000000000000000000000000000000000000000000000000000000000000000000000000000000000000000000000000000000000000000000000000000000000000000000000000000000000000000000000000000000000000000000000000000000000000000000000000000000000000000000000000000000000000000000000000000000000000000000000000000000000000000000000000000000000000000000000000000000000000000000000000000000000000000000000000000000000000000000000000000000000000000000000000000000000000000000000000000000000000000000000000000000000000000000000000000000000000000000000000000000000000000000000000000000000000000000000000000000000000000000000000000000000000000000000000000000000000000000000000000000000000000000000000000000000000000000000000000000000000000000000000000000000000000000000000000000000000000000000000000000000000000000000000000000000000000000000000000000000000000000000000000000000000000000000000000000000000000000000000000000000000000000000000000000000000000000000000000000000000000000000000000000000000000000000000000000000000000000000000000000000000000000000000000000000000000000000000000000000000000000000000000000000000000000000000000000000000000000000000000000000000000000000000000000000000000000000000000000000000000000000000000000000000000000000000000000000000000000000000000000000000000000000000000000000000000000000000000000000000000000000000000000000000000000000000000000000000000000000000000000000000000000000000000000000000000000000000000000000000000000000000000000000000000000000000000000000000000000000000000000000000000000000000000000000000000000000000000000000000000000000000000000000000000000000000000000000000000000000000000000000000000000000000000000000000000000000000000000000000000000000000000000000000000000000000000000000000000000000000000000000000000000000000000000000000000000000000000000000000000000000000000000000000000000000000000000000000000000000000000000000000000000000000000000000000000000000000000000000000000000000000000000000000000000000000000000000000000000000000000000000000000000000000000000000000000000000000000000000000000000000000000000000000000000000000000000000000000000000000000000000000000000000000000000000000000000000000000000000000000000000000000000000000000000000000000000000000000000000000000000000000000000000000000000000000000000000000000000000000000000000000000000000000000000530000000000000000000000000000000000000000000000000000000000000000000000000000000000000000000000000000000000000000000000000000000000000000000000000000000000000000000000000000000000000000000000000000000000000000000000000000000000000000000000000000000000000000000000000000000000000000000000000000000000000000000000000000000000000000000000000000000000000000000000000000000000000000000000000000000000000000000000000000000000000000000000000000000000000000000000000000000000000000000000000000000000000000000000000000000000000000000000000000000000000000000000000000000000000000000000000000000000000000000000000000000000000000000000000000000000000000000000000000000000000000000000000000000000000000000000000000000000000000000000000000000000000000000000000000000000000000000000000000000000000000000000000000000000000000000000000000000000000000000000000000000000000000000000000000000000000000000000000000000000000000000000000000000000000000000000000000000000000000000000000000000000000000000000000000000000000000000000000000000000000000000000000000000000000000000000000000000000000000000000000000000000000000000000000000000000000000000000000000000000000000000000000000000000000000000000000000000000000000000000000000000000000000000000000000000000000000000000000000000000000000000000000000000000000000000000000000000000000000000000000000000000000000000000000000000000000000000000000000000000000000000000000000000000000000000000000000000000000000005353
#001981:0000005300000000
#0029b1:23
#002920:130000000000000000000000000000000000000000000000000000000000000000000000000000000000000000000000000000000000000000000000000000000000000000000000000000000000000000000000000000000000000000000000000000000000000000000000000000000000000000000000000000000000000000000000000000000000000000000000000000000000000000000000000000000000000000000000000000000000000000000000000000000000000000000000000000000000000000000000000000000000000000000000000000000000000000000000000000000000000000000000000000000000000000000000000000000000000000000000000000000000000000000000000000000000000000000000000000000000000000000000000000000000000000000000000000000000000000000000000000000000000000000000000000000000000000000000000000000000000000000000000000000000000000000000000000000000000000000000000000000000000000000000000000000000000000000000000000000000000000000000000000000000000000000000000000000000000000000000000000000000000000000000000000000000000000000000000000000000000000000000000000000000000000000000000000000000000000000000000000000000000000000000000000000000000000000000000000000000000000000000000000000000000000000000000000000000000000000000000000000000000000000000000000000000000000000000000000000000000000000000000000000000000000000000000000000000000000000000000000000000000000000000000000000000000000000000000000000000000000000000000000000000000000000000000000000000000000000000000000000000000000000000000000000000000000000000000000000000000000000000000000000000000000000000000000000000000000000000000000000000000000000000000000000000000000000000000000000000000000000000000000000000000000000000000000000000000000000000000000000000000000000000000000000000000000000000000000000000000000000000000000000000000000000000000000000000000000000000000000000000000000000000000000000000000000000000000000000000000000000000000000000000000000000000000000000000000000000000000000000000000000000000000000000000000000000000000000000000000000000000000000000000000000000000000000000000000000000000000000000000000000000000000000000000000000000000000000000000000000000000000000000000000000000000000000000000000000000000000000000000000000000000000000000000000000000000000000000000000000000000000000000000000000000000000000000000000000000000000000000000000000000000000000000000000000000000000000000000000000000000000000000000000000000000000000000000000000000000000000000000000000000000000000000000000000000000000000000000000000000000530000000000000000000000000000000000000000000000000000000000000000000000000000000000000000000000000000000000000000000000000000000000000000000000000000000000000000000000000000000000000000000000000000000000000000000000000000000000000000000000000000000000000000000000000000000000000000000000000000000000000000000000000000000000000000000000000000000000000000000000000000000000000000000000000000000000000000000000000000000000000000000000000000000000000000000000000000000000000000000000000000000000000000000000000000000000000000000000000000000000000000000000000000000000000000000000000000000000000000000000000000000000000000000000000000000000000000000000000000000000000000000000000000000000000000000000000000000000000000000000000000000000000000000000000000000000000000000000000000000000000000000000000000000000000000000000000000000000000000000000000000000000000000000000000000000000000000000000000000000000000000000000000000000000000000000000000000000000000000000000000000000000000000000000000000000000000000000000000000000000000000000000000000000000000000000000000000000000000000000000000000000000000000000000000000000000000000000000000000000000000000000000000000000000000000000000000000000000000000000000000000000000000000000000000000000000000000000000000000000000000000000000000000000000000000000000000000000000000000000000000000000000000000000000000000000000000000000000000000000000000000000000000000000000000000000000000000000000000000005353
#002950:0000005300000000
#003920:23
#003981:130000000000000000000000000000000000000000000000000000000000000000000000000000000000000000000000000000000000000000000000000000000000000000000000000000000000000000000000000000000000000000000000000000000000000000000000000000000000000000000000000000000000000000000000000000000000000000000000000000000000000000000000000000000000000000000000000000000000000000000000000000000000000000000000000000000000000000000000000000000000000000000000000000000000000000000000000000000000000000000000000000000000000000000000000000000000000000000000000000000000000000000000000000000000000000000000000000000000000000000000000000000000000000000000000000000000000000000000000000000000000000000000000000000000000000000000000000000000000000000000000000000000000000000000000000000000000000000000000000000000000000000000000000000000000000000000000000000000000000000000000000000000000000000000000000000000000000000000000000000000000000000000000000000000000000000000000000000000000000000000000000000000000000000000000000000000000000000000000000000000000000000000000000000000000000000000000000000000000000000000000000000000000000000000000000000000000000000000000000000000000000000000000000000000000000000000000000000000000000000000000000000000000000000000000000000000000000000000000000000000000000000000000000000000000000000000000000000000000000000000000000000000000000000000000000000000000000000000000000000000000000000000000000000000000000000000000000000000000000000000000000000000000000000000000000000000000000000000000000000000000000000000000000000000000000000000000000000000000000000000000000000000000000000000000000000000000000000000000000000000000000000000000000000000000000000000000000000000000000000000000000000000000000000000000000000000000000000000000000000000000000000000000000000000000000000000000000000000000000000000000000000000000000000000000000000000000000000000000000000000000000000000000000000000000000000000000000000000000000000000000000000000000000000000000000000000000000000000000000000000000000000000000000000000000000000000000000000000000000000000000000000000000000000000000000000000000000000000000000000000000000000000000000000000000000000000000000000000000000000000000000000000000000000000000000000000000000000000000000000000000000000000000000000000000000000000000000000000000000000000000000000000000000000000000000000000000000000000000000000000000000000000000000000000000000000000000000000000000000000000530000000000000000000000000000000000000000000000000000000000000000000000000000000000000000000000000000000000000000000000000000000000000000000000000000000000000000000000000000000000000000000000000000000000000000000000000000000000000000000000000000000000000000000000000000000000000000000000000000000000000000000000000000000000000000000000000000000000000000000000000000000000000000000000000000000000000000000000000000000000000000000000000000000000000000000000000000000000000000005353230000000000000000000000000000000000000000000000000000000000000000000000000000000000000000000000000000000000000000000000000000000000000000000000000000000000000000000000000000000000000000000000000000000000000000000000000000000000000000000000000000000000000000000000000000000000000000000000000000000000000000000000000000000000000000000000000000000000000000000000000000000000000000000000000000000000000000000000000000000000000000000000000000000000000000000000000000000000000000000000000000000000000000000000000000000000000000000000000000000000000000000000000000000000000000000000000000000000000000000000000000000000000000000000000000000000000000000000000000000000000000000000000000000000000000000000000000000000000000000000000000000000000000000000000000000000000000000000000000000000000000000000000000000000000000000000000000000000000000000000000000000000000000000000000000000000000000000000000000000000000000000000000000000000000000000000000000000000000000000000
#0039b1:0000005300000000
#005971:0013000000000000
#0059b1:000000000000000000000000000000000000000000000000000000000000000000000000000000000000000000000000000000000000000000000000000000000000000000000000000000000000000000000000000000000000000000000000000000000000000000000000000000000000000000000000000000000000000000000000000000000000000000000000000000000000000000000000000000000000000000000000000000000000000000000000000000000000000000000000000000000000000000000000000000000000000000000000000000000000000000000000000000000000000000000000000000000000000000000000000000000000000000000000000000000000000000000000000000000000000000000000000000000000000000000000000000000000000000000000000000000000000000000000000000000000000000000000000000000000000000000000000000000000000000000000000000000000000000000000000000000000000000000000000000000000000000000000000000000000000000000000000000000000000000000000000000000000000000000000000000000000000000000000000000000000000000000000000000000000000000000000000000000000000000005353230000000000000000000000000000000000000000000000000000000000000000000000000000000000000000000000000000000000000000000000000000000000000000000000000000000000000000000000000000000000000000000000000000000000000000000000000000000000000000000000000000000000000000000000000000000000000000000000000000000000000000000000000000000000000000000000000000000000000000000000000000000000000000000000000000000000000000000000000000000000000000000000000000000000000000000000000000000000000000000000000000000000000000000000000000000000000000000000000000000000000000000000000000000000000000000000000000000000000000000000000000000000000000000000000000000000000000000000000000000000000000000000000000000000000000000000000000000000000000000000000000000000000000000000000000000000000000000000000000000000000000000000000000000000000000000000000000000000000000000000000000000000000000000000000000000000000000000000000000000000000000000000000000000000000000000000000000000000000000000000000000000000000000000000000000000000000000000000000000000000000000000000000000000000000000000000000000000000000000000000000000000000000000000000000000000000000000000000000000000000000000000000000000000000000000000000000000000000000000000000000000000000000000000000000000000000000000000000000000000000000000000000000000000000000000000000000000000000000000000000000000000000000000000000000000000000000000000000000000000000000000000000000000000000000000000000000000000000000000000000000000000000000000000000000000000000000000000000000000000000000000000000000000000000000000000000000000000000000000000000000000000000000000000000000000000000000000000000000000000000000000000000000000000000000000000000000000000000000000000000000000000000000000000000000000000000000000000000000000000000000000000000000000000000000000000000000000000000000000000000000000000000000000000000000000000000000000000000000000000000000000000000000000000000000000000000000000000000000000000000000000000000000000000000000000000000000000000000000000000000000000000000000000000000000000000000000000000000000000000000000000000000000000000000000000000000000000000000000000000000000000000000000000000000000000000000000000000000000000000000000000000000000000000000000000000000000000000000000000000000000000000000000000000000000000000000000000000000000000000000000000000000000000000000000000000000000000000000000000000000000000000000000000000000000000000000000000000000000000000000000000000000000000000000000000000000000000000000000000000000000000000000000000000000000000000000000000000000000000000000000000000000000000000000000000000000000000000000000000000000000000000000000000000000000000000000000000000000000000000000000000000000000000000000000000000000000000000000000000000000000000000000000000000000000000000000000000000000000000000000000000000000000000000000000000000000000000000000000000000000000000000000000000000000000000000000000000000000000000000000
#009961:0013000000000000
#009921:000000000000000000000000000000000000000000000000000000000000000000000000000000000000000000000000000000000000000000000000000000000000000000000000000000000000000000000000000000000000000000000000000000000000000000000000000000000000000000000000000000000000000000000000000000000000000000000000000000000000000000000000000000000000000000000000000000000000000000000000000000000000000000000000000000000000000000000000000000000000000000000000000000000000000000000000000000000000000000000000000000000000000000000000000000000000000000000000000000000000000000000000000000000000000000000000000000000000000000000000000000000000000000000000000000000000000000000000000000000000000000000000000000000000000000000000000000000000000000000000000000000000000000000000000000000000000000000000000000000000000000000000000000000000000000000000000000000000000000000000000000000000000000000000000000000000000000000000000000000000000000000000000000000000000000000000000000000000000000005353230000000000000000000000000000000000000000000000000000000000000000000000000000000000000000000000000000000000000000000000000000000000000000000000000000000000000000000000000000000000000000000000000000000000000000000000000000000000000000000000000000000000000000000000000000000000000000000000000000000000000000000000000000000000000000000000000000000000000000000000000000000000000000000000000000000000000000000000000000000000000000000000000000000000000000000000000000000000000000000000000000000000000000000000000000000000000000000000000000000000000000000000000000000000000000000000000000000000000000000000000000000000000000000000000000000000000000000000000000000000000000000000000000000000000000000000000000000000000000000000000000000000000000000000000000000000000000000000000000000000000000000000000000000000000000000000000000000000000000000000000000000000000000000000000000000000000000000000000000000000000000000000000000000000000000000000000000000000000000000000000000000000000000000000000000000000000000000000000000000000000000000000000000000000000000000000000000000000000000000000000000000000000000000000000000000000000000000000000000000000000000000000000000000000000000000000000000000000000000000000000000000000000000000000000000000000000000000000000000000000000000000000000000000000000000000000000000000000000000000000000000000000000000000000000000000000000000000000000000000000000000000000000000000000000000000000000000000000000000000000000000000000000000000000000000000000000000000000000000000000000000000000000000000000000000000000000000000000000000000000000000000000000000000000000000000000000000000000000000000000000000000000000000000000000000000000000000000000000000000000000000000000000000000000000000000000000000000000000000000000000000000000000000000000000000000000000000000000000000000000000000000000000000000000000000000000000000000000000000000000000000000000000000000000000000000000000000000000000000000000000000000000000000000000000000000000000000000000000000000000000000000000000000000000000000000000000000000000000000000000000000000000000000000000000000000000000000000000000000000000000000000000000000000000000000000000000000000000000000000000000000000000000000000000000000000000000000000000000000000000000000000000000000000000000000000000000000000000000000000000000000000000000000000000000000000000000000000000000000000000000000000000000000000000000000000000000000000000000000000000000000000000000000000000000000000000000000000000000000000000000000000000000000000000000000000000000000000000000000000000000000000000000000000000000000000000000000000000000000000000000000000000000000000000000000000000000000000000000000000000000000000000000000000000000000000000000000000000000000000000000000000000000000000000000000000000000000000000000000000000000000000000000000000000000000000000000000000000000000000000000000000000000000000000000000000000000000000000000000000000
#063961:0013000000000000
#063921:00230000
#071921:000000000000000000000000000000000000000000000000000000000000000000000000000000000000000000000000000000000000000000000000000000000000000000000000000000000000000000000000000000000000000000000000000000000000000000000000000000000000000000000000000000000000000000000000000000000000000000000000000000000000000000000000000000000000000000000000000000000000000000000000000000000000000000000000000000000000000000000000000000000000000000000000000000000000000000000000000000000000000000000000160000000000000000000000000000000000000000000000000000000000000000000000000000000000000000000000000000000000000000000000000000000000000000000000000000000000000000000000000000000000000000000000000000000000000000000000000000000000000000000000000000000000000000000000000000000000000000000000000000000000000000000000000000000000000000000000000000000000000000000000000000000000000000000000000000000000000000000000000000000000000000000000000000000000000000000000000000000000000000525252220000000000000000000000000000000000000000000000000000000000000000000000000000000000000000000000000000000000000000000000000000000000000000000000000000000000000000000000000000000000000000000000000000000000000000000000000000000000000000000000000000000000000000000000000000000000000000000000000000000000000000000000000000000000000000000000000000000000000000000000000000000000000000000000000000000000000000000000000000000000000000000000000000000000000000000000000000000000000000000000000000000000000000000000000000000000000000000000000000000000000000000000000000000000000000000000000000000000000000000000000000000000000000000000000000000000000000000000000000000000000000000000000000000000000000000000000000000000000000000000000000000000000000000000000000000000000000000000000000000000000000000000000000000000000000000000000000000000000000000000000000000000000000000000000000000000000000000000000000000000000000000000000000000000000000000000000000000000000000000000000000000000000000000000000000000000000000000000000000000000000000000000000000000000000000000000000000000000000000000000000000000000000000000000000000000000000000000000000000000000000000000000000000000000000000000000000000000000000000000000000000000000000000000000000000000000000000000000000000000000000000000000000000000000000000000000000000000000000000000000000000000000000000000000000000000000000000000000000000000000000000000000000000000000000000000000000000000000000000000000000000000000000000000000000000000000000000000000000000000000000000000000000000000000000000000000000000000000000000000000000000000000000000000000000000000000000000000000000000000000000000000000000000000000000000000000000000000000000000000000000000000000000000000000000000000000000000000000000000000000000000000000000000000000000000000000000000000000000000000000000000000000000000000000000000000000000000000000000000000000000000000000000000000000000000000000000000000000000000000000000000000000000000000000000000000000000000000000000000000000000000000000000000000000000000000000000000000000000000000000000000000000000000000000000000000000000000000000000000000000000000000000000000000000000000000000000000000000000000000000000000000000000000000000000000000000000000000000000000000000000000000000000000000000000000000000000000000000000000000000000000000000000000000000000000000000000000000000000000000000000000000000000000000000000000000000000000000000000000000000000000000000000000000000000000000000000000000000000000000000000000000000000000000000000000000000000000000000000000000000000000000000000000000000000000000000000000000000000000000000000000000000000000000000000000000000000000000000000000000000000000000000000000000000000000000000000000000000000000000000000000000000000000000000000000000000000000000000000000000000000000000000000000000000000000000000000000000000000000000000000000000000000000000000000000000000000000000000000000000000
#071980:0016000000000000
#0719c0:000000000000000000000000000000000000000000000000000000000000000000000000000000000000000000000000000000000000000000000000000000000000000000000000000000000000000000000000000000000000000000000000000000000000000000000000000000000000000000000000000000000000000000000000000000000000000000000000000000000000000000000000000000000000000000000000000000000000000000000000000000000000000000000000000000000000000000000000000000000000000000000000000000000000000000000000000000000000000000000000000000000000000000000000000000000000000000000000000000000000000000000000000000000000000000000000000000000000000000000000000000000000000000000000000000000000000000000000000000000000000000000000000000000000000000000000000000000000000000000000000000000000000000000000000000000000000000000000000000000000000000000000000000000000000000000000000000000000000000000000000000000000000000000000000000000000000000000000000000000000000000000000000000000000000000000000000000000000000000525252220000000000000000000000000000000000000000000000000000000000000000000000000000000000000000000000000000000000000000000000000000000000000000000000000000000000000000000000000000000000000000000000000000000000000000000000000000000000000000000000000000000000000000000000000000000000000000000000000000000000000000000000000000000000000000000000000000000000000000000000000000000000000000000000000000000000000000000000000000000000000000000000000000000000000000000000000000000000000000000000000000000000000000000000000000000000000000000000000000000000000000000000000000000000000000000000000000000000000000000000000000000000000000000000000000000000000000000000000000000000000000000000000000000000000000000000000000000000000000000000000000000000000000000000000000000000000000000000000000000000000000000000000000000000000000000000000000000000000000000000000000000000000000000000000000000000000000000000000000000000000000000000000000000000000000000000000000000000000000000000000000000000000000000000000000000000000000000000000000000000000000000000000000000000000000000000000000000000000000000000000000000000000000000000000000000000000000000000000000000000000000000000000000000000000000000000000000000000000000000000000000000000000000000000000000000000000000000000000000000000000000000000000000000000000000000000000000000000000000000000000000000000000000000000000000000000000000000000000000000000000000000000000000000000000000000000000000000000000000000000000000000000000000000000000000000000000000000000000000000000000000000000000000000000000000000000000000000000000000000000000000000000000000000000000000000000000000000000000000000000000000000000000000000000000000000000000000000000000000000000000000000000000000000000000000000000000000000000000000000000000000000000000000000000000000000000000000000000000000000000000000000000000000000000000000000000000000000000000000000000000000000000000000000000000000000000000000000000000000000000000000000000000000000000000000000000000000000000000000000000000000000000000000000000000000000000000000000000000000000000000000000000000000000000000000000000000000000000000000000000000000000000000000000000000000000000000000000000000000000000000000000000000000000000000000000000000000000000000000000000000000000000000000000000000000000000000000000000000000000000000000000000000000000000000000000000000000000000000000000000000000000000000000000000000000000000000000000000000000000000000000000000000000000000000000000000000000000000000000000000000000000000000000000000000000000000000000000000000000000000000000000000000000000000000000000000000000000000000000000000000000000000000000000000000000000000000000000000000000000000000000000000000000000000000000000000000000000000000000000000000000000000000000000000000000000000000000000000000000000000000000000000000000000000000000000000000000000000000000000000000000000000000000000000000000000000000000000000000000000000
