This file was generated by Ched 2.7.0.0.
#TITLE ""
#ARTIST ""
#DESIGNER ""
#DIFFICULTY 0
#PLAYLEVEL
#SONGID ""
#WAVE ""
#WAVEOFFSET 0
#JACKET ""
#REQUEST "ticks_per_beat 480"
#00002: 4
#BPM01: 147
#00008: 01
#TIL00: ""
#VOLUME: ""
#HISPEED 00
#MEASUREHS 00
#00118:14
#00314:14
#0051a:14
#00712:14
#00918:14
#00910:41
#01118:14
#00218:14
#00414:14
#0061a:14
#00812:14
#01214:14
#02518:14
#02514:0014
#02618:14
#02614:0014
#0271a:14
#02712:0014
#03612:2616
#0361f:21
#03610:0000000000000041
#01014:14
#02118:1414
#02110:41
#02214:1414
#0231a:1414
#02412:1414
#0131a:14
#0151a:14
#01612:14
#01412:14
#0281a:14
#03718:1616
#03812:16
#03818:0016
#04018:1616
#04112:1616
#04112:1616
#04218:16
#04212:0016
#04312:0016
#04318:16
#04418:2616
#04512:1616
#04618:16
#04612:0016
#04812:1616
#04810:41
#04918:1616
#04918:1616
#05012:16
#05018:0016
#05118:0016
#05112:16
#05812:16
#05818:0016
#05912:16
#05918:0016
#0701a:14
#07112:14
#07218:14
#07314:14
#06612:16
#06618:0016
#06712:16
#06718:0016
#0291f:11
#06410:41
#05610:41
#017380:14
#018380:24
#019340:14
#020340:24
#029320:14
#032340:34
#033340:24
#034380:14
#035380:24
#039320:1626
#047380:1626
#052320:16
#052340:0036
#053340:36
#053320:0026
#054380:1626
#055320:1626
#056380:16
#056360:0036
#057360:36
#057380:0026
#060320:16
#060340:0036
#061320:36
#061340:0026
#062380:1626
#063320:1626
#064380:16
#064360:0036
#065380:36
#065360:0026
#068320:16
#069340:26
#074380:1400000000000024
