This file was generated by Ched 2.7.0.0.
#TITLE ""
#ARTIST ""
#DESIGNER ""
#DIFFICULTY 0
#PLAYLEVEL
#SONGID ""
#WAVE ""
#WAVEOFFSET 0
#JACKET ""
#REQUEST "ticks_per_beat 480"
#00002: 4
#BPM01: 147
#00008: 01
#TIL00: ""
#VOLUME: ""
#HISPEED 00
#MEASUREHS 00
#0291f:11
#02916:0000001400000000
#0291a:0000000000140000
#01215:00001300130000000000000000130000
#01218:00000013001300000000000000000000
#01212:0000000000130000
#01312:00000000130000000000131300130000
#0131b:13000000000000000013000000000000
#01317:0013000000000000
#01316:0000000000000000000000000000001300130000000000000000000000000000
#01315:00000000000000131300000000000000
#01313:0000000000000000000000000000000000000000001300130000000000000000
#01318:0000001300001300
#0721b:2300130000001313
#07212:23131300
#07215:00000000000013000000001300000000
#07218:0013000000000000
#07318:00130013
#07315:1300000013000013
#07312:0013000000130000
#0731b:0000001300000000
#07115:00130013
#07118:1300000013000013
#0711b:0013000000130000
#07112:0000001300000000
#07012:0000130000001313
#0701b:23131300
#07018:00000000000013000000001300000000
#07015:0013000000000000
#03915:0000001300000000
#0271b:00131300
#02712:13001413
#02716:0000000000000013
#02717:0000001300000000
#0271a:14
#05918:0000001300140015
#05913:00000015
#05914:0014
#05818:0013000000000013
#05812:00000000000013000000001300000000
#0581b:1313
#05815:00130000
#0471b:0013
#04712:0013
#04715:0000000000130013
#04718:00000013
#0411b:0013
#04119:00000013
#04116:0000000000000014
#04114:00000013
#04414:00000000000000000000000000000000000000000000000000000000000000000000001500000000001500000000000000000000000000000000000000000000
#04412:2600000000000000140000000000000024000015000000000000000024000000
#04417:00000000000000000000000000000000000000000000000000000000000000000000000000000000000000000000000000000000001700000000000000000000
#0441a:0000000000000000140000000000000014000000000000000014000000000000
#04416:0000001400000000
#04418:26000000000000000000002400000000
#0401b:13
#04018:00000000000000130000130013001300
#04015:13000000000013000000001300130000
#0461a:00140000
#04616:00140000
#04612:14
#04618:1600000000000013
#04615:0000000000000013
#03812:16140000
#03816:00140000
#03818:0000000000000013
#03815:0000000000000013
#0381a:14
#03212:14000000000000333333333333333333
#03218:14
#03216:0000001300000000
#0741b:13000000230000000000001300000000
#07412:23000000130000002300001300000000
#07416:0000001300000000
#07417:0013000000000000
#07418:0000000000000023
#07415:0000000000000023
#06515:0000140000000013
#06512:0014001400001300
#06517:0014001400000000
#0651a:00140000
#06118:0000000000000013
#06115:0014001400000000
#06112:00140000
#0611a:0014001400000000
#06117:00140000
#0611b:00000013
#01019:0013000000000000
#01014:0013000000000000
#0101a:00000013000000000000000000000000
#01015:00000013000013000000000000000000
#01013:00130000000000000000000000000000
#01018:00130000000000130000000000130000
#01016:13
#0101b:1300000000130000
#00915:00000000000000000000000000000000000000000000000000000000130000000000000000160000000000000000000013000000000000000000000000000000
#0091a:0000001200000000
#00919:0000000000000000000000000014000000000000000000000000000000000000
#00917:0013000000000000
#0091b:1300000000130000
#00912:0000000000000000130000000000001600000000000000000000000000000000
#00910:41
#02812:0023000014000000
#0281a:14000014
#02818:00000000000000230000000000000000
#02815:0000002300000000
#0281b:00230000
#03314:0000000000000014
#03316:00000014
#03318:0000000000140000
#03312:33333333333333330000000000000000
#03112:0014000000140000
#03114:00000014
#03116:0000000000000014
#03016:0014140000000000
#0301a:0000001400000014
#02219:00130000
#02214:00130000
#02218:00000000000000000000130000130000
#02212:13
#00815:00000000000000000000140000130000
#00812:00140000
#00816:13
#0081b:13
#00817:0013000000000000
#00818:00000000000000000014000013000000
#00813:0000001400000000
#00814:0014
#00819:00000000000000140000000000000000
#0081a:00000000001400000000000000000000
#05118:00001415
#05115:0000001300000000
#05113:0000000000000015
#05114:0000000000140000
#06618:00000000000000000000001300000000
#06615:0013
#06612:0000001300000013
#0661b:0013000000000000
#06417:0014
#0641a:2400140000000014
#06415:0000140000000014
#06412:2414
#06410:41
#06315:00000013000000000000130000001300
#06318:00000013000000000000000013000000
#0621b:0000001300000013
#06212:0013000000000013
#06215:00000000000000000000001300000000
#06218:0013
#06015:0014
#06012:2400140000000014
#06017:0000140000000014
#0601a:2414
#0671b:1300001313000000
#06718:0013130000001300
#06715:00000013000000000000000000000000
#06712:1300001313000000
#06912:14
#0691a:00000023
#06919:0023
#06918:00230000
#06917:23
#06816:14
#06818:00000023
#06819:0023
#0681a:00230000
#0681b:23
#05716:0013000000001300
#05715:0000000000000000000000003313000000000000000000000000000000000000
#05713:0000000000000013330000000000000000000000000000000000000000000000
#05714:00000000001300000000000000000000
#0571a:0000000000000000000000003313000000000000000000000000000000000000
#05718:0000000000000013330000000000000000000000000000000000000000000000
#05719:00000000001300000000000000000000
#0571b:0013000000001300
#05612:2300130000000013
#0561b:2313
#05616:0013
#05617:0000130000000013
#05610:41
#05512:00000013000000000000000000000000
#0551b:00000013000000000000000000000000
#05518:0000000000130013
#05515:00000013
#05415:0013000000000013
#05418:0000130000000013
#0541b:00000000000013000000001300000000
#05412:1313
#05317:0013000000001300
#05318:0000000000000000000000003313000000000000000000000000000000000000
#0531a:0000000000000013330000000000000000000000000000000000000000000000
#05319:00000000001300000000000000000000
#05313:0000000000000000000000003313000000000000000000000000000000000000
#05315:0000000000000013330000000000000000000000000000000000000000000000
#05314:00000000001300000000000000000000
#05312:0013000000001300
#0521b:2300130000000013
#05212:2313
#05217:0013
#05216:0000130000000013
#05018:00000013000000000000000000001300
#05015:0000130000000013
#0501b:13000000000000000000001300000000
#05012:13000000000000000000001300000000
#04914:00000013
#04916:0000000000000014
#04919:00000013
#04912:0013
#04812:13130000
#04815:00000000000000130000130013001300
#04818:13000000000013000000001300130000
#04810:41
#04512:0014140000161600
#04516:00000014000000000000001600000000
#04519:0000001515000000
#04515:00000000000000150000000000001600
#0421b:13000000000000000000001300000000
#04212:13000000000000000000001300000000
#04218:00130000
#04215:00000013000000000000000000000000
#04312:00000016
#04318:0015
#04314:00140000
#03718:0000000000161600
#03714:00000000000000000000001600000000
#03712:0000001515000000
#03716:00000014000000150000000000000000
#03715:0000000000000016
#0371a:0014140000000000
#03614:00000000000000000000000000000000000000000000000000000000000000000000001500000000001500000000000000000000000000000000000000000000
#03612:2600000000000000140000000000000024000015000000000000000024000000
#03617:00000000000000000000000000000000000000000000000000000000000000000000000000000000000000000000000000000000001700000000000000000000
#0361a:0000000000000000140000000000000014000000000000000014000000000000
#03616:0000001400000000
#0361f:21
#03618:26000000000000000000002400000000
#03610:0000000000000041
#03416:00001414
#0341a:1400001414000000
#03412:14
#02615:13000000000013000000000000130000
#0261b:00000000130000130000000000000000
#02618:0013000000001300
#02612:00130000
#02512:00000000001300130000000000130000
#02518:00000000130013000000000013000013
#02515:00000000000000000013001300000000
#0251b:1300000013130000
#02415:00000000000000000000130000130000
#0241b:13
#02312:13000000000000130000000000000000
#02318:00000013
#02315:00000000000000000000000000130000
#0231b:00000000000000130000000000000000
#02314:00130000
#02319:00130000
#02115:00000000230000130000000000000000
#02118:00000000230000130000000000130000
#0211b:13
#02112:13000013
#02110:41
#02018:00130000
#02017:13
#0201b:00000000000000000000000000130000
#0201a:0000000000130000
#02019:00000000000000130000000000000000
#02015:0000001300000000
#02012:24242424
#0191b:13130000
#01917:0000000000130000
#01919:00000000000000130000000000000000
#01915:0000001300000013
#01918:00000000000000000000000000130000
#01912:24242424
#01815:00130000
#01816:13
#01812:00000000000000000000000000130000
#01813:0000000000130000
#01814:00000000000000130000000000000000
#01818:0000001300000000
#0181a:24242424
#01712:00130000
#01716:0000000000130000
#01714:22000000000000130000000000000000
#01718:0000001300000013
#01715:00000000000000000000000000130000
#0171a:22242424
#01517:00130000
#01514:00000000000000130000000000000000
#0151b:00000000000000000000130000130000
#01516:00000013
#01512:00130000
#01612:1300000000000000000000000000000000000000000000000014000000000000
#01615:00000000130000130000000000000000
#0161b:0000000000130000
#01614:00000000000000000000000012000014
#0161a:00000000000000000000000012000014
#01618:0000000000000000000000000000000000000000000000000014000000000000
#0141b:00130000000000000000130000130000
#01415:00000000000013001300000000130000
#01418:00000000000000130000000000000000
#01412:00130000000000000000000000000000
#0141a:12
#01414:12
#01118:00000000000000130000000000000000
#01116:0013000000000000
#01112:1300000000000000000000001300000000000000000000000000000000160000
#0111b:00000000130000000000001300000000
#0111b:00130000
#01114:00000000000000000000000000120000
#01115:0000000000130000
#00717:00130000
#00712:13
#00713:00000000000000130000000000000000
#00718:0000001300000000
#0071b:0000000000000013
#0071a:00000013
#00715:00000000000000000000000000130000
#00716:0013000000000000
#00312:13
#0031b:00000000130013000000000000130000
#00316:00000000000000130000130013001300
#00417:0000131300001300
#0041b:13
#00416:13
#00412:00000000000000130000000000130000
#00516:00130000
#0051b:13
#0051a:00000000000000130000000000000000
#00515:0000001300000000
#00512:0000000000000013
#00513:00000013
#00518:00000000000000000000000000130000
#00517:0013000000000000
#00614:0000001300000000
#00619:00000000000000130000000000000000
#00616:0013000000001300
#0061b:00000000000000000000000000130000
#00617:13130000
#00612:13
#0021b:00000000000000130000000000130000
#00216:0000131300001300
#00217:13
#00212:13
#00117:00000000000000130000130013001300
#00112:00000000130013000000000000130000
#0011b:13
#00116:13
#00018:0013001300002400
#00015:00130000
#00012:1324
#0001b:13
#00014:00000000000000000000002400000000
#0001a:00000000000000000024000000000000
#01352:13000000000000000000535300000000
#0135b:63
#01357:0023000000000000
#01356:0000000000000000000000000000006300630000000000000000000000000000
#01355:00000000000000535300000000000000
#01353:0000000000000000000000000000000000000000006300630000000000000000
#04152:0013
#0415b:0013
#0495b:0013
#04952:0013
#04656:00641400
#04652:5414
#0465a:00640000
#04658:1600000000000053
#04655:0000000000000063
#03156:00000000000000140000140000000000
#03056:00000000000000000000001400001400
#0305a:0014000000000000
#0295a:00000014000000000000000000000000
#02952:00000000000014000000000000000014
#0645a:14000000000000000000001400006400
#06455:00000000000000000000001400006400
#06452:1454
#06457:0054
#0655a:00641400
#06555:00641400
#06557:0054005400000000
#06552:0054005400000000
#06052:14000000000000000000001400005400
#06057:00000000000000000000001400005400
#0605a:1464
#06055:0064
#06152:00541400
#06157:00541400
#06155:0064006400000000
#0615a:0064006400000000
#05855:0000630000000013
#05858:0023000000000013
#05852:00000000000023000000005300000000
#0585b:6363
#05752:0013
#05757:0013
#05756:0063000000006300
#05755:0000000000000000000000000023000000000000000000000000000000000000
#05753:0000000000000023000000000000000000000000000000000000000000000000
#05754:00000000005300000000000000000000
#0575a:0000000000000000000000000023000000000000000000000000000000000000
#05758:0000000000000023000000000000000000000000000000000000000000000000
#05759:00000000005300000000000000000000
#0575b:0063000000000000
#05652:13000000000000000000001300005300
#05657:00000000000000000000001300005300
#0565b:1363
#05656:0063
#0535b:0013
#05356:0013
#05357:0053000000005300
#05358:0000000000000000000000000023000000000000000000000000000000000000
#0535a:0000000000000023000000000000000000000000000000000000000000000000
#05359:00000000006300000000000000000000
#05353:0000000000000000000000000023000000000000000000000000000000000000
#05355:0000000000000023000000000000000000000000000000000000000000000000
#05354:00000000006300000000000000000000
#05352:0053000000000000
#0525b:13000000000000000000001300006300
#05256:00000000000000000000001300006300
#05252:1353
#05257:0053
#0475b:00130000
#04752:00130000
#0445a:0000000000000000000000000000000000000000000000000064000014000000
#04452:1600000000000000000000000000000054000055000000000000000014000000
#04458:16000000000000000000005400000000
#04454:00000000000000000000000000000000000000000000000000000000000000000000002500000000002500000000000000000000000000000000000000000000
#04457:00000000000000000000000000000000000000000000000000000000000000000000000000000000000000000000000000000000002700000000000000000000
#04258:0000530000000013
#04255:0000000000000013
#0425b:63000000000000000000006300000000
#04252:00000000000000000000005300000000
#04358:00140016
#04353:0015
#04352:00000016
#0355a:14
#03552:14
#01552:13
#01558:13
#01557:00530000
#01554:00000000000000530000000000000000
#0155b:00000000000000000000000000630000
#0115b:13
#01158:00000000000000530000000000000000
#01156:0023000000000000
#01152:5300000000000000000000000000000000000000000000000000000000260000
#01154:00000000000000000000000000620000
#01254:12
#01258:16
#01255:00000000000000000000000000630000
#00952:1300000000000000000000000000002600000000000000000000000000000000
#0095a:0000006200000000
#00959:0000000000000000000000000024000000000000000000000000000000000000
#00957:0023000000000000
#0095b:63
#00955:00000000000000000000000000000000000000000000000000000000630000000000000000660000000000000000000000000000000000000000000000000000
#0365a:0000000000000000000000000000000000000000000000000064000014000000
#03652:1600000000000000000000000000000054000055000000000000000014000000
#03658:16000000000000000000005400000000
#03654:00000000000000000000000000000000000000000000000000000000000000000000002500000000002500000000000000000000000000000000000000000000
#03657:00000000000000000000000000000000000000000000000000000000000000000000000000000000000000000000000000000000002700000000000000000000
#03856:00541400
#0385a:6414
#03852:16540000
#03858:0000000000000053
#03855:0000000000000063
#07458:0000000000000013
#07455:0000000000000013
#07452:33000000530000003300005300000000
#0745b:63000000430000000000006300000000
#07456:0000002300000000
#07457:0023000000000000
#02158:00000000130000000000000000530000
#02155:00000000130000630000000000000000
#0215b:63
#02152:53
#01754:12
#0175a:12
#0685b:13
#06856:64
#0275b:00636300
#02752:53001453
#02756:0000000000000023
#02757:0000002300000000
#0275a:14
#0735b:0000006300000000
#07352:0053000000000000
#0725b:0000000000000063
#07152:0000005300000000
#0715b:0063000000000000
#07052:0000000000000053
#0405b:63
#04058:0000000000000053
#04055:63
#03252:54
#03258:54
#03256:0000006300000000
#01059:0053000000000000
#01054:0053000000000000
#0105a:00000023000000000000000000000000
#01055:00000023000000000000000000000000
#01053:00230000000000000000000000000000
#01058:00230000000000000000000000530000
#01056:63
#0105b:63
#02852:0054
#0285a:14000064
#00855:00000000000000000000000000630000
#0085b:63
#00857:0023000000000000
#06658:00000000000000000000005300000000
#06655:0063
#06358:00000023000000000000000000000000
#06355:00000023000000000000000000000000
#0625b:0000000000000063
#06252:0000000000000053
#06255:00000000000000000000006300000000
#06258:0053
#06752:0053
#06758:00000053
#06952:24
#05552:00000023000000000000000000000000
#0555b:00000023000000000000000000000000
#05455:0023000000000063
#05458:0000530000000053
#0545b:00000000000023000000006300000000
#05452:5353
#05058:0000000000000053
#05055:0000630000000063
#0505b:00000000000000000000006300000000
#05052:53000000000000000000005300000000
#04855:0000000000000063
#04858:53
#04552:00140016
#04559:0015
#03758:00000016
#03752:0015
#0375a:00140000
#03456:00006454
#0345a:0064
#03452:54
#02655:00000000000000000000000000630000
#0265b:00000000000000630000000000000000
#02552:00000000000000000000000000530000
#0255b:13
#02455:00000000000000000000000000630000
#0245b:13
#02258:00000000000000000000000000530000
#02252:13
#02352:13
#02355:00000000000000000000000000630000
#0235b:00000000000000630000000000000000
#01652:1300000000000000000000000000000000000000000000000024000000000000
#01655:00000000000000630000000000000000
#01654:00000000000000000000000062000064
#0165a:00000000000000000000000062000064
#01658:0000000000000000000000000000000000000000000000000024000000000000
#0145b:00230000000000000000000000630000
#01455:00000000000000000000000000630000
#01452:00230000000000000000000000000000
#0145a:52
#01454:62
#00752:53
#00756:0023000000000000
#00352:53
#00456:63
#00452:00000000000000000000000000530000
#0055b:63
#00557:0023000000000000
#0065b:00000000000000000000000000630000
#00652:53
#00656:0023000000000000
#0025b:00000000000000000000000000630000
#00257:53
#0015b:63
#0013b0:13
#001370:00230000
#001320:0000000013230000
#002370:13
#0023b0:00230000
#002360:0000000013230000
#0023b1:0000000000132300
#0023b1:00000000000000000000000000130000
#003371:23
#003320:13
#003360:00230000
#0033b0:0000000013230000
#004360:13
#004320:00230000
#004370:0000000013230000
#004321:0000000000132300
#004321:00000000000000000000000000130000
#005361:23
#0053b0:13230000
#005370:0053000000000000
#005340:0000000013230000
#005381:0000000000132300
#006321:13230000
#006361:0053000000000000
#006351:0000000013230000
#0063b0:0000000000132300
#0063b0:00000000000000000000000000130000
#007370:23
#007321:13230000
#007361:0053000000000000
#007391:0000000013230000
#007350:0000000000132300
#0083b0:13230000
#008370:0053000000000000
#008350:00000000000000000000000000130000
#009320:23
#0093b1:13230000
#009371:0053000000000000
#0093a1:00000000000012220000000000000000
#009391:0000000000000000000000000054000000000000000000000000000000000000
#009350:00000000000000000000000000000000000000000000000000000000130000005300000053560000230000000000000000000000000000000000000000000000
#009320:0000000000000000000000000000005600000000000000000000000000000000
#009380:00000000000000000000000000130000
#0103b0:33
#010380:00530000000000000000000000000000
#010390:0053000000000000
#0103a0:00000053000000000000000000000000
#010370:00230000
#010361:13
#010331:00530000000000000000000000000000
#010341:0053000000000000
#010351:00000053000000000000000000000000
#010321:00230000
#010351:0013
#010321:0000000000230000
#010321:00000000000000000000001300000000
#010351:00000000000000000000000000230000
#010380:00000000000000000000000000130000
#0113b0:23
#011321:13230000
#011361:0053000000000000
#011381:00000000000000130000000000000000
#0113b1:0000000000230000
#011341:00000000000000000000000000120000
#011321:0000000000000000000000000000000000000000000000000000000000560000
#012341:22
#011380:0000000000000000000000000000000000000000000000000000160000530000
#012380:26
#012350:0000001323000000
#012381:0013
#0123b1:0000000000230000
#0123b1:00000000000000000000001300000000
#012381:00000000000000000000000000230000
#012350:00000000000000000000000000130000
#013320:23
#0133b1:13230000
#013371:0053000000000000
#013351:00000000000000135323000000000000
#013361:0000000000000000000000000000005300530000000000000000000000000000
#013321:00000000000000000000135323000000
#013331:0000000000000000000000000000000000000000005300530000000000000000
#014341:12
#014321:00530000000000000000000000000000
#014351:00220000
#0143a0:12
#0143b0:00530000000000000000000000000000
#014390:00220000
#014350:00000000000000000000001300330000
#015320:23
#0143b1:00000000000000000000000000130000
#015381:23
#015371:00130000
#015391:00000000000000230000000000000000
#015340:00000000000000130000000000000000
#015360:0000000000230000
#0153b0:00000000000000000000000000130000
#016380:23
#016380:0013230000000000
#016380:00000000001300000000000000000000
#0163b0:00000000000000230000000000000000
#016351:00000000000000130000000000000000
#016321:0000000000230000
#016341:0000000000000000000000000000000000000000000000001200520000525400
#016321:0000000000000000000000000000000000000000000000000054000000000000
#017341:22
#0163a0:0000000000000000000000000000000000000000000000001200520000525400
#016380:0000000000000000000000000000000000000000000000000054000000000000
#0173a0:22
#0213b0:13
#021380:00230000
#021321:13
#021351:00230000
#021351:00000000000000130000000000000000
#021321:0000000000230000
#021380:0000000000132300
#021380:00000000000000000000000000130000
#0223b0:23
#0223b0:0000001323000000
#022321:0000000013230000
#022351:00000000000000000000001300230000
#022380:00000000000000000000000000130000
#0233b0:23
#0233b0:00000000000000130000000000000000
#023380:0000000000230000
#023351:0000000000132300
#023351:00000000000000000000000000130000
#024321:23
#024351:0013230000000000
#024380:0000132300000000
#024321:0000001323000000
#0243b0:0000000013230000
#024380:00000000000000000000001300230000
#024351:00000000000000000000000000130000
#025321:23
#025321:00000000000000000000000000130000
#025351:00000000000000000000000000000023
#0263b1:00000000000000130000000000000000
#026381:0000000000230000
#026350:0000000000132300
#026350:00000000000000000000000000130000
#027320:33
#027360:00230000
#0273b1:00133300
#027371:0000005300002300
#027320:00000013
#027360:0000000000000053
#028320:23
#028320:0014
#028360:00000024
#0283a1:00000014
#029361:34
#0293a1:00540024000000000000000000000000
#029320:1400542400000000
#029360:00540034000000000000000000000000
#029360:00000014
#029320:00000000000000000000000000540024
#0293a1:00000014
#029361:00000000000000000000000000540034
#0303a1:5424000000000000
#0303a1:0014
#030361:00000000000000000054002400000000
#030360:0000000014005424
#030320:00000000000000000054003400000000
#031320:00140000
#031360:00000000005400240000000000000000
#031361:0000140054240000
#0313a1:00000000005400340000000000000000
#032321:14000000000000333333333333333333
#032361:0000003300000000
#033321:33333333333333332300000000000000
#032380:14
#0333a0:00542400
#034320:14000034
#034360:0000003434000000
#035320:24
#0343a1:0014
#034361:00000034
#0353a1:24
#036321:0000000000000000000000000000000014000055000024000000000000000000
#036341:00000000000000000000000000000000000000000000000000000000000000000000005500000000005500000000000000000000000000000000000000000000
#036380:00000000000000000000001400000000
#0363a0:0000000000000000000000000000000000000000000000005454000024000000
#036370:00000000000000000000000000000000000000000000000000000000000000000000000000000000000000000000000000000000005700000000000000000000
#0383a0:1424
#038360:00340000
#038321:00140000
#038361:0024
#038351:00000000000000000000001300003300
#039321:00230000
#038380:00000000000000000000001300003300
#0393b0:00230000
#039380:0000001300000000
#0393b0:0023
#039351:0013
#039321:0000000000230000
#0393b0:0000000000130000
#039380:00000023
#039321:00000013
#039351:0000000000000023
#039380:0000000000000013
#0403b0:33
#040380:00230000
#040351:13
#040321:00230000
#040321:0000000013230000
#040381:0000000000000013
#0413b1:0023000000000000
#041320:0013000000000000
#041350:00230000
#0413b1:00130000
#041381:0000002300000000
#041350:0000001300000000
#041320:0023
#0423b0:13
#042380:00000023000000000000000000000000
#042380:00130000
#0423b0:0023
#042321:00000000000000001300003300000000
#042351:0000000000000023
#0423b0:00000000000000000000001300000000
#042380:0000000000000023
#043380:0014240000000000
#043330:0000001525000000
#043380:0000000000162600
#044320:0000000000000000000000000000000014000055000024000000000000000000
#044340:00000000000000000000000000000000000000000000000000000000000000000000005500000000005500000000000000000000000000000000000000000000
#044381:00000000000000000000001400000000
#0443a1:0000000000000000000000000000000000000000000000005454000024000000
#044371:00000000000000000000000000000000000000000000000000000000000000000000000000000000000000000000000000000000005700000000000000000000
#046321:1424
#046361:00340000
#0463a0:00140000
#046360:0024
#046380:00000000000000000000001300003300
#0473b0:00230000
#046351:00000000000000000000001300003300
#047321:00230000
#048381:13
#0483b1:00230000
#0483b1:0000000013230000
#048351:0000000000000013
#049321:0023000000000000
#0493b0:0013000000000000
#049380:00230000
#049321:00130000
#049351:0000002300000000
#049380:0000001300000000
#0493b0:0023
#050320:13
#050350:00000023000000000000000000000000
#050350:00130000
#050320:0023
#0503b1:00000000000000001300003300000000
#050381:0000000000000033
#0513b1:00230000
#050320:00000000000000000000001300000000
#050350:0000000000000033
#051320:00230000
#052370:0013
#0523b0:00000000000000000000002300000000
#052321:0013
#052361:00000000000000000000002300000000
#0523b1:0000000000000013
#053371:0033000000000000
#0533a1:0000000000000053330000000000000000000000000000000000000000000000
#053391:00000000005300000000000000000000
#053381:0000000000000000000000003353000000000000000000000000000000000000
#0533b1:0023
#052360:0000000000000013
#053320:0033000000000000
#053350:0000000000000053330000000000000000000000000000000000000000000000
#053340:00000000005300000000000000000000
#053330:0000000000000000000000003353000000000000000000000000000000000000
#053360:0023
#053370:00000013
#0543b0:23
#054321:13230000
#054351:0053000000000000
#054380:00132300
#0543b0:0000005300000000
#054321:0013
#054351:00000000000000000000002300000000
#0543b0:00000000000000000000001300000000
#054380:0000000000000033
#0553b0:00000053000000000000000000000000
#055380:0023
#054351:0000000000000013
#055321:00000053000000000000000000000000
#055351:0023
#056361:0013
#056321:00000000000000000000002300000000
#0563b0:0013
#056370:00000000000000000000002300000000
#056320:0000000000000013
#057360:0033000000000000
#057330:0000000000000053330000000000000000000000000000000000000000000000
#057340:00000000005300000000000000000000
#057350:0000000000000000000000003353000000000000000000000000000000000000
#057320:0023
#056371:0000000000000013
#0573b1:0033000000000000
#057381:0000000000000053330000000000000000000000000000000000000000000000
#057391:00000000005300000000000000000000
#0573a1:0000000000000000000000003353000000000000000000000000000000000000
#057371:0023
#057361:00000013
#058321:23
#0583b0:13230000
#058380:0053000000000000
#058351:00132300
#058321:0000005300000000
#0583b0:0013
#058380:00000000000000000000002300000000
#058321:00000000000000000000001300000000
#058351:0000000000000023
#060351:0014
#060321:00000000000000000000002400000000
#0603a0:0014
#060370:00000000000000000000002400000000
#060320:0000000000000014
#061350:0034003400000000
#061320:00342400
#060371:0000000000000014
#0613a1:0034003400000000
#061371:00342400
#061321:00000013
#062321:23
#0623b0:13230000
#062351:00132300
#062380:0013
#0623b0:00000000000000000000002300000000
#062351:00000000000000000000001300000000
#062321:0000000000000033
#063351:00000053000000000000000000000000
#063321:0023
#0623b0:0000000000000013
#063380:00000053000000000000000000000000
#0633b0:0023
#064370:0014
#0643a0:00000000000000000000002400000000
#064321:0014
#064351:00000000000000000000002400000000
#0643a1:0000000000000014
#065371:0034003400000000
#0653a1:00342400
#064350:0000000000000014
#065320:0034003400000000
#065350:00342400
#0653b0:00000013
#0663b0:23
#066321:13230000
#066380:00132300
#066351:0013
#066321:00000000000000000000002300000000
#066380:00000000000000000000001300000000
#0663b0:0000000000000023
#067320:0013
#067350:00000023
#067381:00000013
#0683b1:23
#068360:14
#069320:54
#070360:24
#070320:00000000000000001300002300000000
#070320:0000000000000013
#071350:23
#0713b0:0013000000000000
#071380:00230000
#071320:0000001300000000
#071350:0023
#0723b0:00000000000000001300002300000000
#0723b0:0000000000000013
#073380:23
#073320:0013000000000000
#073350:00230000
#0733b0:0000001300000000
#073380:0023
#0743b0:13230000
#074370:0053000000000000
#074321:00132300
#074361:0000005300000000
#0743b0:00000000000000001300003300000000
#074380:0000000000000023
#074321:00000000000000000000001300000000
#074351:0000000000000023
