This file was generated by Ched 2.7.0.0.
#TITLE ""
#ARTIST ""
#DESIGNER ""
#DIFFICULTY 0
#PLAYLEVEL
#SONGID ""
#WAVE ""
#WAVEOFFSET 0
#JACKET ""
#REQUEST "ticks_per_beat 480"
#00002: 4
#BPM01: 147
#00008: 01
#TIL00: ""
#VOLUME: ""
#HISPEED 00
#MEASUREHS 00
#00118:1414
#00114:00140000
#0031a:1414
#00312:00140000
#0091a:14140000
#00912:00001414
#00910:41
#0111a:14140000
#01112:00001414
#0171a:1414
#01712:00140014
#00214:1414
#00218:00140000
#00412:1414
#0041a:00140000
#01014:00001414
#01018:14140000
#01818:1414
#01814:00140014
#0191a:1414
#01912:00140014
#02018:1414
#02014:00140014
#01214:00001414
#01218:14140000
#0251a:14
#02512:00140000
#02519:0014
#02513:00000014
#02618:14
#02614:00140000
#02619:0014
#02613:00000014
#0411a:14
#04114:00140000
#04118:0014
#04112:00000014
#04218:14
#04212:00140000
#0421a:0014
#04214:00000014
#0431a:14
#04318:00140000
#04316:0014
#04314:00000014
#0441a:00140000
#04414:0014
#04418:00000014
#04412:24
#04512:14
#04516:00140014
#0451a:0014
#04612:14
#0461a:00140000
#04614:0014
#04618:00000014
#04716:00000014
#04712:1414
#0471a:00140000
#07012:00000014
#0701a:0014
#07014:00140000
#07018:14
#06718:00140015
#06713:0015
#06714:14
#05913:00000015
#05918:1415
#05914:00140000
#05112:00140000
#05116:00000014
#0511a:1414
#05014:00000014
#0501a:0014
#05012:00140000
#05018:14
#04912:00000014
#04918:0014
#04914:00140000
#0491a:14
#03912:1414
#0391a:00140000
#03916:00000014
#03818:00000014
#03814:0014
#0381a:00140000
#03812:14
#03716:00140014
#0371a:0014
#03712:14
#03618:00000014
#03614:0014
#0361a:00140000
#03612:24
#0361f:21
#03610:0000000000000041
#07118:14
#07114:00140000
#0711a:0014
#07112:00000014
#07218:14
#07214:00140000
#0721a:0014
#07216:00000014
#07312:14000014
#07316:00140000
#0731a:0014
#06318:16
#06316:00160000
#06812:16
#06815:0000000000000016
#0291f:11
#02912:0000003400003400
#00812:1414
#00818:00140000
#00718:1414
#00712:00140000
#00614:1414
#0061a:00140000
#0051a:1414
#00514:00140000
#05512:14
#05514:00140000
#03112:0000340000340000
#03012:0034000000000034
#02110:41
#06410:41
#05610:41
#04810:41
#06156:00000016
#05758:00000014
#06358:66
#06356:00260000
#06852:56
#06855:0000000000000026
#03558:14
#05354:00000014
#06554:00000016
#05552:54
#05554:00240000
#07458:0000000000000014
#0133a0:14240000
#013320:00001424
#014380:14240000
#014340:00001424
#0153a0:14240000
#015320:00001424
#016380:14240000
#016340:00001424
#0213a0:14000024
#021380:00343400
#022320:14000024
#022340:00343400
#023380:14000024
#0233a0:00343400
#024340:14000024
#024320:00343400
#0273a0:14340000
#027380:00003434
#0283a0:24
#029320:1400003400003400
#030320:0034000000000034
#030360:0034
#031320:0000340000340000
#032320:34
#033340:0024
#0343a0:14000034
#034380:0034
#035380:24
#0403a0:14240000
#040320:00001424
#0483a0:14240000
#048320:00001424
#052320:14000034
#052340:00343400
#053320:3434
#053340:00340024
#0543a0:14000024
#054380:00343400
#055320:1424
#055340:00540000
#0563a0:14000034
#056380:00343400
#0573a0:3434
#057380:00340024
#058320:14000024
#058340:00343400
#060380:16000036
#060360:00363600
#061380:3636
#061360:00360026
#062320:16000026
#062340:00363600
#063380:1626
#063360:00560000
#064320:16000036
#064340:00363600
#065320:3636
#065340:00360026
#066380:16000026
#066360:00363600
#068320:16
#068350:0000000000000056
#069320:00000026
#074380:1400000034000024
#0743a0:00340000
