This file was generated by Ched 2.7.0.0.
#TITLE ""
#ARTIST ""
#DESIGNER ""
#DIFFICULTY 0
#PLAYLEVEL
#SONGID ""
#WAVE ""
#WAVEOFFSET 0
#JACKET ""
#REQUEST "ticks_per_beat 480"
#00002: 4
#BPM01: 85
#00008: 01
#TIL00: ""
#VOLUME: ""
#HISPEED 00
#MEASUREHS 00
#0251b:1300000000000000000000000000000000000000330000331300003333000033
#02517:0013
#02512:0000001300000000
#02518:0000003333000033000000000000000000000000000000000000000000000000
#0291b:1300001300000000
#02915:13000000000000000000001300000000
#02912:0014240013000014
#02918:00000013000000001300000000000013
#0291a:0000000000142400
#00013:12
#0011b:12
#00116:00000012
#00213:00120012
#00218:0000000013130000
#00210:41
#00313:00120012
#00318:0000000013130000
#0041b:00120012
#00415:0000000013130000
#0051b:00120012
#00515:0000000013130000
#00616:00120012
#0061b:0000000013130000
#00716:00120012
#0071b:0000000013130000
#00818:00120012
#00812:0000000013130000
#00918:00120012
#00912:0000000013130000
#01012:13
#01018:0000001300000013
#01015:0013
#01010:41
#01115:0000001300000000
#0111b:1300000000331333
#01118:00003333000000001300000000000000
#01212:00130013
#01218:0000001300000000
#01215:0013
#01213:00000000000000000000000000330000
#01214:0000000000000000000000000000000000000000000000000000000000330000
#01318:1300001300001300
#0131b:00000033130000000000000000000000
#01315:0000000000130013
#0141a:14
#01415:0000001300000000000000001300000000000000000000000000000000000000
#01418:0000000013000000000000130000000000000033000000330000000000000000
#01412:0000000000000000140000000000000000000000000000000000003300000033
#01518:0013000000003300
#01515:00130000
#0151b:0000000000130000
#01612:0013000000000000
#0161b:0000000000130000
#01618:0000000000003313
#01615:00330000
#0171b:00130000000000000000000000000000
#01718:0053
#01815:003434343434143434343434000000000000000000000000
#01816:0000000000140014
#0181a:00000014
#01812:24
#01810:41
#01915:0000000034000014000000000000000000000000000000000000000000000013
#01912:14
#01918:0000000000000013
#02017:003434343434143434343434000000000000000000000000
#02015:00000000000000000000130000000013
#0201b:00000013
#02012:00000013
#02018:0000000000000013
#0201a:24
#02112:0000003313000000000000000000000000000000000000000000000000000000
#02118:00000013
#02218:0000001300000013000000000000000000000033330000330000000000000000
#02215:0000000013000000000000330000003300000000000000000000003333000033
#02212:24130013
#0221b:0013
#0231b:13
#02318:0000003333000013000000000000000000000000000000000000000013000000
#02315:0000000000000000000000000000000000000000130000000000001300000000
#0231a:00000014
#02312:0000000000000000000000000000000000000000000000000000000000000013
#0241a:00140000
#02415:0000000000000000000000130000000000000000000000000000000000000000
#02418:0000001300000000
#02412:0000000000000000000000000000001300000000000000000000000000000000
#02416:0000000000000000000000000000000000000033000000330000000000000000
#02616:00000000000000130000000000000000
#02617:23
#02612:0023000000000000
#02610:41
#02718:13000013000013000000130000000000
#02715:00001300000000001300001300001300
#02712:00240000
#0271a:00000024
#0281b:1300001300130000
#02812:0013000013000013
#02818:00000013000000000000000024000000
#02815:00000000000000000000001300000000
#02814:00240000
#03012:14000000000000000000001300000013
#0301b:00001323
#03015:00000000000000000013000000130000
#03018:0000000000130013
#03010:41
#0311a:14
#03112:00001314
#03118:00000000000000000013000000000000
#03115:0000000000130014
#0311b:00000000000000000000001300000000
#03212:1400000000130013
#0321b:00001323
#03215:00001313
#03218:0000000000130000
#03319:12131415
#03315:12
#03314:00130000
#03313:0014
#03312:00000015
#03412:26000000000000000000000000130000
#0341b:00000000000000000000000000130000
#0341f:11
#03418:26
#0361b:0000000000000012
#03619:22
#03718:00000012000000000000000000000000
#03815:000000003400000034000000340000003400000034000000140000003400000034000000340000003400000034000000000000000000000000000000000000000000000000000000000000000000000000340000340000000000000000340000
#0381a:0014
#03812:24000014
#0381f:21
#03817:0000000000000000000000000000000000000034340000340000000000000000
#03810:00410000
#0391a:14000014
#03917:0000003434000014000000000000000000000000000000000000000000000000
#03915:0000000000130000
#03914:0000000000000000000000000000000000000000000000000000001400000000
#03918:0000000000000014
#03912:0000000000000000000000000000000000000000000000000000000000000014
#0401a:00140000
#04014:0000000000000000000000140000000000000000000000000000000000000000
#04018:0000001400000000
#04012:0000000000000000000000000000001400000000000000000000000000000000
#04016:0000000000000000000000000000000000000034000000340000000000000000
#0411b:1300000000000000000000000000000000000000330000331300003333000033
#04117:0013
#04112:0000001300001300
#04118:0000003333000033000000000000000000000000000000000000000000000000
#04218:13
#04215:23
#0421a:00000054
#04212:00000064
#0255b:63000063
#02557:0063
#02657:13
#02656:00000000000000230000000000000000
#02652:0063000000000000
#00053:62
#0015b:52
#01052:63
#01055:0053
#0115b:53000063
#01158:0063
#01258:13
#01255:0063
#01252:00000063
#01358:6300002300000000
#0135b:00630000
#01552:13
#01558:0000000000000013
#0155b:0000000000630000
#01652:0063000000000000
#01655:0000001300000000
#0165b:0000000000530000
#01658:0000000000000063
#0175b:00230000000000000000000000000000
#01855:00240000
#01852:54
#01955:0000000000000054000000000000000000000000000000000000000000000000
#01952:54
#02057:00240000
#0205a:64
#02055:00000000000000000000000000000063
#02155:0013
#02152:0063000000000000
#02158:00000013
#02252:00530053
#0225b:0063
#0235b:6300001300000000
#02358:0000000000000063000000000000000000000000000000000000000000000000
#02352:0000000000000000000000000000000000000000000000000000000000000013
#02452:0000000000000000000000000000006300000000000000000000000000000000
#02456:0000000000000000000000000000000000000000000000000000001300000000
#03056:00140000
#03052:64
#0315a:54
#03156:00140000
#03152:00000064
#03155:0000000000000064
#03252:64
#03256:00140000
#03452:00000000000000000000000000230000
#0345b:00000000000000000000000000230000
#03558:16
#03552:16
#03659:62
#0365b:0000000000000062
#03758:00000022000000000000000000000000
#03855:00240000
#03852:54000054
#0385a:0064
#0395a:6400001400000000
#03957:0000000000000064000000000000000000000000000000000000000000000000
#03952:0000000000000000000000000000000000000000000000000000000000000014
#04052:0000000000000000000000000000006400000000000000000000000000000000
#04056:0000000000000000000000000000000000000000000000000000001400000000
#0415b:63000063
#04157:0063
#04255:63
#04258:63
#000330:12
#000360:0022
#0013b0:12
#001380:0022
#002380:13230000
#003380:13230000
#004350:13230000
#005350:13230000
#0063b0:13230000
#0073b0:13230000
#008320:13230000
#009320:13230000
#010320:13
#010350:00230000
#010350:0013
#010320:00000023
#0113b0:13
#011380:00003333230000000000000000000000
#011380:0013
#0113b0:0000000000333333
#012380:23
#012350:0013
#012320:00000033
#012330:00000000000000000000000000330000
#012340:0000000000000000000000000000000000000000000000000000000000330000
#013350:23
#013381:1300005300000000
#0133b1:00000033330000002300000000000000
#0143b1:0013
#014381:0000000000000000000000000000000000000033000000332300000000000000
#014350:00000013
#014320:0000000000000000000000000000000000000000000000000000003300000033
#015320:23
#0153b0:0000001300330000
#015380:0000000000003323
#016320:0013000000000000
#016350:0000332300000000
#0163b0:0000000000130000
#016380:0000000000003333
#0173b0:00530000000000000000000000000000
#017380:00332300
#018320:1424
#018350:003434343434343434343434000000000000000000000000
#019320:14000024
#019350:0000000034000034000000000000000000000000000000000000000000000000
#0203a0:1424
#020370:003434343434343434343434000000000000000000000000
#020350:00000000000000000000000000000013
#021320:0000003333000000000000000000000000000000000000000000000000000000
#021350:0023
#022320:00130000
#022350:0000000000000000000000330000003323000000000000000000000000000000
#0223b1:0013
#022381:0000000000000000000000000000000000000033330000332300000000000000
#022320:00000013
#022350:0000000000000000000000000000000000000000000000000000003333000033
#023350:23
#0233b1:1300002300000000
#023381:0000003333000033000000000000000000000000000000000000000000000000
#024321:0000000000000000000000000000001300000000000000000000000000000000
#024361:0000000000000000000000000000000000000033000000330000002300000000
#0253b1:13
#025381:0000003333000033000000000000000000000000000000000000000000000000
#025371:00230000
#025371:0013
#0253b1:0000000000000000000000000000000000000000330000333300003333000033
#026371:23
#026321:0013000000002300
#026361:00000000000000530000000000000000
#030321:14
#030361:00240000
#0313a1:14
#031361:00240000
#031321:00000014
#031351:0000000000000034
#032321:34
#032361:00240000
#034381:16
#034391:0055003500000000
#0343a1:0000000054340000
#0343b1:00000000000000000000000053330000
#035381:26
#034320:16005500000035005400340053330000
#035320:26
#036390:12
#0363b0:0000000000000032
#037380:00000052000000000000000000000000
#0373c0:0022
#038320:1424
#038350:003434343434343434343434000000000000000000000000
#0383a1:0014
#038371:0000000000000000000000000000000000000034340000342400000000000000
#038320:00000014
#038350:0000000000000000000000000000000000000000000000000000003434000034
#039350:24
#0393a1:1400002400000000
#039371:0000003434000034000000000000000000000000000000000000000000000000
#040321:0000000000000000000000000000001400000000000000000000000000000000
#040361:0000000000000000000000000000000000000034000000340000002400000000
#0413b1:13
#041381:0000003333000033000000000000000000000000000000000000000000000000
#041371:00230000
#041371:0013
#0413b1:0000000000000000000000000000000000000000330000333300003333000033
#042381:33
#0423a1:00000024
#042350:13
#042320:00000024
