This file was generated by Ched 2.7.0.0.
#TITLE ""
#ARTIST ""
#DESIGNER ""
#DIFFICULTY 0
#PLAYLEVEL
#SONGID ""
#WAVE ""
#WAVEOFFSET 0
#JACKET ""
#REQUEST "ticks_per_beat 480"
#00002: 4
#BPM01: 85
#00008: 01
#TIL00: ""
#VOLUME: ""
#HISPEED 00
#MEASUREHS 00
#0021a:1414
#00210:41
#0031a:1414
#00618:1414
#00718:1414
#00412:1414
#00512:1414
#00814:1414
#00914:1414
#0161a:14
#01614:0014
#0181a:00140000
#01814:0014
#01818:00000014
#01812:26
#01810:41
#01912:16
#01914:0000001600000000
#0201a:14
#02012:00140000
#02018:0014
#02014:00000014
#02118:16
#02116:0000001600000000
#02212:16
#0221a:00140000
#02214:0014
#02218:00000014
#02312:16
#02314:0000001600000000
#0241a:14
#02414:0014
#02418:00000014
#02512:14
#02518:0014
#02514:00000014
#02712:0014
#02814:0014
#02818:14
#0291a:14
#02912:0014
#03018:1414
#03010:41
#03114:1414
#0321a:1414
#03312:1414
#03812:00140000
#03818:2614
#03814:00000014
#0381f:21
#03810:00410000
#03918:16
#03916:0000001600000000
#04012:14
#0401a:00140000
#04014:0014
#04018:00000014
#04112:16
#04114:0000001600000000
#0341f:11
#03418:26000000000036000000360000360000
#02618:26
#02610:41
#01010:41
#04218:00000056
#01852:16
#01952:66
#01954:0000002600000000
#02158:56
#02156:0000002600000000
#02252:16
#02352:66
#02354:0000002600000000
#03559:14
#03458:66
#03858:16
#03958:56
#03956:0000002600000000
#04152:66
#04154:0000002600000000
#0003a0:1424
#001320:1424
#0103a0:14
#010380:0034
#0113a0:3424
#012320:14
#012340:0034
#013320:3424
#014380:14
#0143a0:0024
#015340:14
#015320:0024
#017380:1424
#019320:16000026
#019340:0000005600000000
#021380:16000026
#021360:0000005600000000
#023320:16000026
#023340:0000005600000000
#026380:16
#0273a0:24
#034380:16000000000036000000360000360000
#035390:24
#036340:14
#037320:3424
#039380:16000026
#039360:0000005600000000
#041320:16000026
#041340:0000005600000000
#042380:16000026
