This file was generated by Ched 2.7.0.0.
#TITLE ""
#ARTIST ""
#DESIGNER ""
#DIFFICULTY 0
#PLAYLEVEL
#SONGID ""
#WAVE ""
#WAVEOFFSET 0
#JACKET ""
#REQUEST "ticks_per_beat 480"
#00002: 4
#BPM01: 119
#00008: 01
#TIL00: ""
#VOLUME: ""
#HISPEED 00
#MEASUREHS 00
#0011a:14
#00214:14
#00318:14
#00412:14
#00512:0014
#0051a:24
#0061a:14
#00712:14
#0071a:0014
#00812:14
#01712:0016
#01718:26
#01710:41
#01818:16
#01812:0016
#01918:1616
#02012:16
#02018:0016
#02112:16
#02118:0016
#02212:16
#02218:0016
#02312:1616
#02418:16
#02412:0016
#0251a:14
#02510:41
#02614:14
#02718:14
#02812:14
#03012:14
#03118:14
#03214:14
#0331a:14
#03412:14
#03410:41
#05212:1616
#05318:16
#05312:0016
#05310:41
#05512:1616
#05618:1626
#05712:16
#05718:0016
#05118:2616
#04312:0016
#04318:26
#0431f:21
#04310:0041
#04418:16
#04412:0016
#04518:1616
#04612:16
#04618:0016
#04712:16
#04718:0016
#04812:16
#04818:0016
#04912:1616
#05018:16
#05012:0016
#0351f:11
#00910:41
#0093a0:14
#0103a0:24
#011320:14
#012320:24
#013380:14
#014380:24
#015340:14
#016340:24
#029380:1626
#035380:14
#0363a0:24
#037320:14
#038340:24
#0393a0:14
#040380:24
#041340:14
#042320:24
#054380:1626
#058320:16003636
#059320:26
