This file was generated by Ched 2.7.0.0.
#TITLE ""
#ARTIST ""
#DESIGNER ""
#DIFFICULTY 0
#PLAYLEVEL
#SONGID ""
#WAVE ""
#WAVEOFFSET 0
#JACKET ""
#REQUEST "ticks_per_beat 480"
#00002: 4
#BPM01: 119
#00008: 01
#TIL00: ""
#VOLUME: ""
#HISPEED 00
#MEASUREHS 00
#0161b:13
#01618:00130000
#01612:13
#00112:13000000000000535300000000000000
#00115:00000000130000000000005300000000
#00118:0013000000000000
#00114:00000000005300000000530000000000
#00113:00000000000053000053000000000000
#00312:13000000000000535300000000000000
#00318:0013000000000000
#00315:00000000130000000000005300000000
#00314:00000000005300000000530000000000
#00313:00000000000053000053000000000000
#00615:0000000013130000
#00618:13005353000053000013001300000000
#01515:00130000000013000000000000001300
#01518:0013000000001300
#0151b:1313
#01512:0013
#02415:0013
#02418:13
#0241b:00000013000000000000000000000000
#02915:130000530000530000530000530000005300000053000000530000000000000000000000000000000000000000000000000000000000000000000000000000000000000000000000000000000000000000000000000000000000000000000000
#0291b:00000013
#02912:00000000000053536300000000000000
#02913:005300
#02914:000000000000005300000000000000000000000000000000
#0291a:00000000000000000000000000530000
#02919:0000000000000053
#02918:00000000000000000000000000000053
#0331b:0013
#03318:1300001300000000
#03315:0013
#03415:00130000
#03418:00000000000000001353535353000000
#03410:41
#03517:0014
#03515:13
#0351f:11
#01315:13000013
#01318:0013
#01312:00003313000000000000130000000000
#0131b:0000000000130000
#01313:0000000000000033
#01314:00000000000000000000000000330000
#01815:1300000000000013
#01818:00000013000000000000000000000000
#0181b:0000003300000000
#02215:13000023
#02212:00000013000000000000000000000000
#0221b:0023
#02218:0000000000230000
#02115:2300000000000013
#02118:00000013000000000000000000000013
#0211b:0000003300000000
#0231b:00130000
#02318:00001300000000000000001300000000
#02312:0000000000130000
#02315:00130013
#0261a:14000000000000140000000000000000
#02615:00230023
#03114:00000000000000140000140000000000
#03112:24000000000000000000000000000014
#03118:00230023
#03212:0014000000000000
#03215:0000001300000000
#03218:00230000
#00418:1300000000130000
#00415:00000000001300000000000000000000
#00419:00530000000000000000000024000000
#00413:00000000000000530000000024000000
#0041a:0053000000000000
#0041b:00000053000000000000000000000000
#00414:0000005300000000
#00412:0053
#01718:2300000000000013
#01715:00000013000000000000000000000000
#01712:0000003300000000
#01710:41
#02018:1313
#0201b:00000013000000000000000000000000
#02712:23000000000000140000140000000014
#02718:00230023
#02812:0014000000000000
#02815:0000001300130000
#02818:00230023
#0251a:00000000000000140000140000000000
#0251b:23
#02515:00230023
#02510:41
#00218:13000000000000535300000000000000
#00215:00130000000000000000000000000000
#0021b:00000000130000000000005300000000
#0021a:00000000005300000000530000000000
#00219:00000000000053000053000000000000
#0051b:00000013000000000000000000000000
#00512:00000000000000001300000000003333
#00515:23000000000000000000333313000000
#00912:13
#00915:0000001300000000
#00918:0000000000000013
#0091b:0013
#00910:41
#01015:00130000
#01012:1300003313000000
#01115:00130013
#03019:0013000000000000
#03018:0000001300000000
#03015:13
#03014:00130000
#0361a:0014
#03612:13
#03615:0000000000000000000000000000000000000000000000005353530053000000
#05118:2300000013000013
#05115:00000013000000000000000000000000
#0511b:00000013000000000000000000000000
#05112:0013
#0141b:00000013000000000013000000000000
#01418:00000000001300130000000000000000
#01415:00000013000013000000000000001300
#0141a:0033
#00818:0000000013130000
#00815:13005353000053000013001300000000
#00712:00000013000000000000000000000000
#0071b:00000000000000001300000000333300
#00718:23000000000000000000333313000000
#00719:00000000000000000033000000000000
#01218:13131300
#01215:0013001300000000
#01219:00000000000000000053000000000000
#0121a:0000000000530000
#0121b:00000000000000000000005300000000
#01915:0013
#01918:13
#0191b:00000013000000000000000000000000
#01912:00000000000000000000001300000000
#03715:0014
#03718:13
#03812:0014
#0381b:13
#03818:00000000000000000000000000000000000000000000000000000000000000000000000000000000000000000000000053535300000000005353530000000000
#03917:0014
#03915:13
#0401a:0014
#04012:13
#04015:0000000000000000000000000000000000000000000000005353530053000000
#04115:0014
#04118:13
#0411b:0000000000000000000000000000000000000000000000005353530053000000
#05218:00000013000000000000000000000000
#05212:00000013000000000000000000000000
#05215:1300000013000013
#0521b:0013
#05015:0013
#05018:13
#0501b:00000013000000000000000000000000
#04415:1300003300000013
#04412:00000013000000000000000000000000
#04418:00000013000000000000000000000000
#0441b:0000003300000000
#04815:13
#04812:00000013000000000000000024000000
#0481a:0024
#04816:0000000000240000
#04715:00000013000000000000000000001300
#04718:23000000000033000000000000000013
#0471b:00000013000000000000000000000000
#04712:0000003300000000
#0491b:00130000
#04912:0000000000130000
#04915:00130013
#04918:00001300000000000000001300000000
#04318:2300003300000013
#0431b:00000013000000000000000000000000
#04315:00000013000000000000000000000000
#0431f:21
#04312:0000003300000000
#04310:0041
#04615:0013
#04618:13
#0461b:00000013000000000000000000000000
#04515:0013
#04518:13
#0451b:00000013000000000000000000000000
#04512:00000000000000000000001300000000
#04215:0000000000000013
#05815:0013
#05818:1313
#0581b:00000013000000000000000053000000
#05812:00000053
#05615:1300000000250000
#05612:00000013000000000000000025000000
#05619:0025
#05515:00000013000000000000000000001300
#05518:23000000000000001300000000000013
#0551b:00000013000000000000000000000000
#05512:0013
#0571b:00130000
#05712:0000000000130000
#05715:00130013
#05718:00001300000000000000001300000000
#05315:0013
#05318:13
#0531b:00000013000000000000000000000000
#05312:00000000000000000000001300000000
#05310:41
#05418:13
#0541b:00000013000000000000000000000000
#00758:13000063
#00752:00000063000000000000000000000000
#0075b:0063
#02455:0063
#02458:53
#0245b:00000023000000000000000000000000
#02255:63
#02252:00000063000000000000000000000000
#03152:14
#03255:0000005300000000
#0255b:13
#02752:13
#0055b:00000053000000000000000000000000
#00555:13000053
#00552:0053
#01052:6363
#01055:00630000
#0095b:0053
#00952:53
#01755:00000053000000000000000000000000
#01758:13
#01752:0013
#05158:1313
#05155:00000053000000000000000000000000
#0515b:00000053000000000000000000000000
#05152:0013
#03059:0013000000000000
#03058:0000001300000000
#01355:63000053
#01352:00000023000000000000000000000000
#03652:53
#01458:00000000000000530000000000000000
#0145b:00000000000000000023000000000000
#01858:00000063000000000000000000000000
#0185b:0013
#02058:6363
#0205b:00000063000000000000000013000000
#01955:0053
#01958:63
#0195b:00000063000000000000000000000000
#01952:00000000000000000000005300000000
#02158:00000063000000000000000000000000
#0215b:0013
#02952:0013
#03555:63
#0385b:63
#03758:53
#04052:53
#03955:63
#04158:53
#05258:00000063000000000000000000000000
#05252:00000063000000000000000000000000
#05255:1313
#0525b:0013
#05055:0063
#05058:53
#0505b:00000053000000000000000000000000
#04855:63
#04852:00000063000000000000000000000000
#04655:0053
#04658:63
#0465b:00000063000000000000000000000000
#0435b:00000053000000000000000000000000
#04358:1313
#04355:00000053000000000000000000000000
#04352:0013
#04452:00000063000000000000000000000000
#04455:0013
#04458:00000063000000000000000000000000
#0445b:0013
#04555:0053
#04558:63
#0455b:00000063000000000000000000000000
#04552:00000000000000000000005300000000
#0475b:00000053000000000000000000000000
#04758:1313
#04755:00000053000000000000000000000000
#04752:0013
#05855:0063
#05858:5353
#0585b:00000053000000000000000000000000
#05655:63
#05652:00000063000000000000000000000000
#05355:0053
#05358:63
#0535b:00000063000000000000000000000000
#05352:00000000000000000000005300000000
#05458:63
#0545b:00000063000000000000000000000000
#05555:00000053000000000000000000000000
#0555b:00000053000000000000000000000000
#05558:1313
#05552:0013
#0053b0:00000013000000000000000000000000
#005380:0000002300000000
#005320:00000000000000001300000000003333
#005350:00000000000000000000333333000000
#006320:23
#006350:0000000000001323
#007320:00000013000000000000000000000000
#007350:0000002300000000
#0073b0:00000000000000001300000000333300
#007390:00000000000000000033000000000000
#007380:00000000000000000000333333000000
#0083b0:23
#008380:0000000000001323
#009320:13
#009350:00000023000000000000000000000000
#0093b0:0013
#009380:00000000000000000000002300000000
#010320:13000000000033333300000000000000
#010350:00000033330000000000000023000000
#011380:13
#0113b0:00230000
#011380:0013
#0113b0:00000023
#013350:1300002300000000
#013320:00003333000000000000000000000000
#013350:00000013
#013340:00000000000000000000000000330000
#013330:0000000000000033
#014320:23
#014380:00000000000000130000002300000000
#0143a0:0033
#0143b0:00000000000000000033000000000000
#016350:0000001300002300
#017350:00000013000000000000000000000000
#017320:0000003323000000
#018380:00000013000000000000000000000000
#0183b0:0000003323000000
#019380:1300002300000000
#0193b0:00000033000000000000000000000000
#019350:0000000013000023
#019320:00000000000000000000003300000000
#020380:1300003333000000
#0203b0:00000033000000000000000023000000
#021380:00000013000000000000000000000000
#0213b0:0000003323000000
#022350:1300002300000000
#022320:00000033000000000000000000000000
#022350:00000013
#023350:23
#024380:1300002300000000
#0243b0:00000033000000000000000000000000
#024350:0013
#024320:00000023
#030320:0014
#030330:00000000000000000034000000000034
#030350:00000000000000000000003400340000
#030360:00000034
#031320:24
#032350:0000001300000000
#032320:00000023
#035350:13
#035320:0033
#036320:33
#036350:00003323
#037380:13
#0373b0:0033
#0383b0:33
#038380:00003323
#039350:13
#039320:0033
#040320:33
#040350:00003323
#041380:13
#0413b0:00003323
#0433b0:00000013000000000000000000000000
#043380:0000003323000000
#043351:00000013000000000000000000000000
#043321:0000003323000000
#044321:00000013000000000000000000000000
#044351:0000003323000000
#044380:00000013000000000000000000000000
#0443b0:0000003323000000
#045380:1300002300000000
#0453b0:00000033000000000000000000000000
#045350:0000000013000023
#045320:00000000000000000000003300000000
#046380:1300002300000000
#0463b0:00000033000000000000000000000000
#046350:0013
#046320:00000023
#0473b0:00000013000000000000000000000000
#047380:0000003323000000
#047351:00000013000000000000000000000000
#047321:0000003323000000
#048351:1300002300000000
#048321:00000033000000000000000000000000
#048321:00000014
#049321:24
#050381:1300002300000000
#0503b1:00000033000000000000000000000000
#050351:0013
#050321:00000023
#051351:00000013000000000000000000000000
#051321:0000002300000000
#0513b0:00000013000000000000000000000000
#051380:0000002300000000
#052380:00000013000000000000000000000000
#0523b0:0000002300000000
#052321:00000013000000000000000000000000
#052351:0000002300000000
#053381:1300003323000000
#0533b1:00000033000000000000000000000000
#053350:0000000013000033
#053320:00000000000000000000003300000000
#054350:23
#054381:1300003323000000
#0543b1:00000033000000000000000000000000
#054350:00001323
#054381:00000013
#055381:23
#055351:00000013000000000000000000000000
#055321:0000002300000000
#0553b0:00000013000000000000000000000000
#055380:0000002300000000
#056350:1300002300000000
#056320:00000033000000000000000000000000
#056320:00000015
#057320:25
#058380:1300003333000000
#0583b0:00000033000000000000000023000000
#058351:0013
#058321:00000023
#001950:00000000130000000000002300000000
#001920:00000000000000535300000000000000
#0029b0:00000000130000000000002300000000
#002980:00000000000000535300000000000000
#003950:00000000130000000000002300000000
#003920:00000000000000535300000000000000
#004980:13
#0049b0:00000023000000000000000000000000
#004950:00000000001300000000000000000000
#004920:0023
#006980:1300002300000000
#008950:1300002300000000
#012980:0013
#0129b0:00000000000000000000002300000000
#029950:13530000
#029920:0000005323000000
#0299b0:00000013
#029980:00000000000000000000000000000023
#034980:00001323
#036950:0000000000001323
#038980:0000000000000000000000000000000000000000000000001300000000230000
#040950:0000000000001323
#0419b0:0000000000001323
#058920:00000013
#059920:23
#0589b1:00000013
#0599b1:23
