This file was generated by Ched 2.7.0.0.
#TITLE ""
#ARTIST ""
#DESIGNER ""
#DIFFICULTY 0
#PLAYLEVEL
#SONGID ""
#WAVE ""
#WAVEOFFSET 0
#JACKET ""
#REQUEST "ticks_per_beat 480"
#00002: 4
#BPM01: 172
#00008: 01
#TIL00: ""
#VOLUME: ""
#HISPEED 00
#MEASUREHS 00
#00418:14
#0061a:14
#0081a:14
#0101a:14
#01010:41
#01114:14
#0121a:14
#01314:14
#01418:14
#01512:14
#01618:14
#01712:14
#02014:14
#02118:14
#0241a:14
#02512:14
#02618:2616
#02610:41
#02718:16
#02812:2616
#02912:16
#0351a:14
#03614:14
#03714:14
#04012:14
#04112:14
#0501a:14
#05114:14
#05218:14
#05312:14
#05818:2616
#0581f:21
#07318:0016
#07312:16
#00314:14
#00514:14
#00712:14
#00912:14
#03012:0016
#03018:26
#03118:16
#03218:0016
#03212:26
#03312:16
#0341a:14
#03410:41
#03818:14
#03918:14
#0541a:14
#05514:14
#05618:14
#05712:14
#06012:2616
#06212:0016
#06218:26
#06418:0016
#06412:26
#06618:2616
#06718:16
#06812:2616
#06912:16
#07012:0016
#07018:26
#07118:16
#07218:0016
#07212:26
#0461f:11
#05910:41
#01810:41
#04210:41
#001380:14
#002380:24
#018380:14
#019380:24
#022340:14
#023340:24
#042380:14
#0433a0:24
#044340:14
#045320:24
#0463a0:14
#047380:24
#048320:14
#049340:24
#059380:1626
#061320:1626
#063380:1626
#065320:1626
#074320:16
#075330:34343424
