This file was generated by Ched 2.7.0.0.
#TITLE ""
#ARTIST ""
#DESIGNER ""
#DIFFICULTY 0
#PLAYLEVEL
#SONGID ""
#WAVE ""
#WAVEOFFSET 0
#JACKET ""
#REQUEST "ticks_per_beat 480"
#00002: 4
#BPM01: 172
#00008: 01
#TIL00: ""
#VOLUME: ""
#HISPEED 00
#MEASUREHS 00
#00015:13131300
#00018:00000023
#00215:0000000000130000
#00218:13000013
#0021b:00000013000000000000000000001300
#0061b:1300000000130000
#00618:00000013000000000000000000001300
#00615:00000013
#0081b:1300000000130000
#00818:00000013000000000000000013000000
#00815:0000000000000013
#00912:1300000000130000
#00915:00000013000000000000000013000000
#00918:0000000000000013
#0101b:0000001300000000
#01018:0000000000000013
#01012:14
#01014:0014
#01010:41
#0111b:0000001300000000
#01118:0000000000000013
#01112:14
#01114:0014
#01215:0013
#01218:0000000000130000
#01212:14000013
#0121b:0000000000000013
#0121a:00140000
#01618:00131300
#01615:0013000000130000
#0161b:13000013
#01612:0000001300000013
#01718:0000130000000013
#01715:00000013
#01912:1300000000000013
#0191b:0013
#01915:0000000000130000
#01918:00000013
#02712:0000000000130000
#02718:00000013
#02715:0000000000000013
#0271b:0023000000000000
#02818:00001313
#02815:0000000000130000
#02812:0000240000000013
#0281a:24
#03112:0000000000130000
#03118:0023000000001300
#03115:0000000000000013
#03218:00001313
#03215:0000000000130000
#03212:0000240000000013
#0321a:24
#03315:0013000000130013
#03318:00001313
#03415:00130000
#03418:0000001300000000
#03412:0013
#0341b:13
#03414:00000000000000000000003300000000
#03410:41
#04318:00130000
#04415:13130000
#04418:00001313
#04512:13130000
#05115:13130000
#05518:13130000
#06418:00000013
#06415:0000000000000013
#06412:2424
#0641a:00240000
#06512:0013000000000000
#0651a:00000024
#06518:0024
#06514:0000000000240000
#0711b:0000000000130000
#07118:00000013
#07115:0013000000000013
#07215:0013
#07218:0000000000000013
#07212:14
#0721a:00140000
#0731b:0013000000000000
#07315:00001313
#07318:0000000000130013
#00318:0000000000130000
#00315:13000013
#00312:00000013000000000000000000001300
#00412:0000000000130000
#00415:00000013
#00418:1300000000000013
#0041b:00000013000000000000000000000000
#0051b:0000000000130000
#00518:00000013
#00515:1300000000000013
#00512:00000013000000000000000000000000
#00712:1300000000130000
#00715:00000013000000000000000000001300
#00718:00000013
#0131b:0000000000130000
#01318:00000013
#01315:0000000000000013
#01412:0000001300000000
#01415:0000000000000013
#0141a:14
#01418:0014
#01512:0000001300000000
#01515:0000000000000013
#0151a:14
#01518:0014
#0231b:13000013
#02318:0013
#02315:0000000000130000
#02312:0000001300000013
#03818:00130000
#03815:0000001300000000
#0381b:0013
#03812:13
#03819:00000000000000000000003300000000
#0351b:0013000000130000
#03515:00130013
#03518:0000001300000000
#03512:0013
#03618:1313
#03615:0013000000130000
#0361b:00130013
#03612:0000001300000013
#03718:0013130000002300
#03715:00000013000000000000230000000000
#03712:0000001300000000
#0371b:0023
#03912:0013000000130000
#03918:00130013
#03915:0000001300000000
#0391b:0013
#04015:1313
#04018:0013000000130000
#04012:00130013
#0401b:0000001300000013
#04115:0013130000000000
#04118:00000013000000000000000000000000
#0411b:0000001300000000
#04112:0023
#0421b:0013
#04218:13
#04210:41
#04715:00130000
#04818:13130000
#04815:00001313
#0491b:13130000
#04612:0013
#04615:13
#0461f:11
#0521b:1313
#05218:00130000
#05312:13
#05315:00130000
#05612:1313
#05615:00130000
#0591b:0000000000130000
#05915:00000013
#05918:0000000000000013
#05912:0023000000000000
#05910:41
#06015:00001313
#06018:0000000000130000
#0601b:0000000000000013
#06012:24
#0601a:00240000
#0631b:0000000000130000
#06315:0023000000001300
#06318:0000000000000013
#06712:0013000000000000
#0671b:0000000000130000
#06715:00000013
#06718:0000000000000013
#06812:13130000
#0681b:0013000000000000
#0681a:00000014
#06818:0024
#02514:00240014
#02518:2424
#02418:14
#02416:00140000
#02414:0014
#02412:00000014
#0261a:2424
#02612:00240024
#02618:0000000000000023
#02610:41
#02018:2300000000000023
#0201b:00000033000033000000000000000000
#02115:23
#02112:00000033000033000000000000000000
#02918:0000002600000000
#02912:0000000000260000
#03018:2424
#03014:00240024
#0301b:0000000000000023
#05715:23232300
#05718:00000023
#00114:24
#00112:00343434003400340000000000000000
#01812:24
#0181a:00240000
#01814:00002424
#01818:0000000000240024
#01810:41
#0221a:24
#02212:00240000
#02218:00002424
#02214:0000000000240024
#05812:2424
#0581a:00240024
#05815:0000000000000023
#0581f:21
#06112:0000002600000000
#06118:0000000000260000
#06214:2424
#06218:00240024
#06212:0000000000000023
#06615:0000000000000023
#06612:2424
#06618:00240024
#06914:00240000
#06918:0024
#07014:2424
#0701a:00240024
#07012:0000000000000023
#07518:23232323
#0065b:53
#00658:00000053000000000000000000000000
#0125b:0000000000000053
#01252:34
#0125a:00440000
#01358:0013000000000000
#01652:0000000000000063
#01758:00530000
#01952:53
#0205b:0013
#02058:63
#02152:0013
#02155:53
#0265a:1414
#02652:00140014
#02658:0000000000000053
#0275b:0053000000000000
#02758:0000001300000000
#0285a:14
#02852:0000140000000053
#03252:0000140000000053
#0325a:14
#03058:1414
#03054:00140014
#0305b:0000000000000063
#03158:0063000000000000
#0315b:0000001300000000
#03355:0053000000000000
#03452:0053
#06455:0000000000000063
#06452:1414
#0645a:00140000
#06552:0063000000000000
#0655a:00000014
#0695a:00000014
#06958:1464
#06954:00140000
#07255:0063
#07258:0000000000000053
#0735b:0053000000000000
#00058:00000013
#00154:54
#00258:63
#0025b:00000063000000000000000000000000
#00355:53
#00352:00000053000000000000000000000000
#00458:63
#0045b:00000063000000000000000000000000
#00555:53
#00552:00000053000000000000000000000000
#00752:63
#00755:00000063000000000000000000000000
#0085b:53
#00858:00000053000000000000000000000000
#00952:63
#00955:00000063000000000000000000000000
#03758:00000013
#05758:00000013
#01052:34
#01054:0034
#01152:34
#01154:0034
#0145a:44
#01458:0044
#0155a:44
#01558:0044
#01858:0000000000140014
#0235b:63
#02254:0000000000140014
#02958:0000004600000000
#02952:0000000000360000
#0385b:0063
#04258:53
#0425b:0053
#04652:0063
#04655:63
#0525b:5353
#05258:00530000
#05352:53
#05355:00530000
#05652:6363
#05655:00630000
#0605b:0000000000000063
#06052:14
#0605a:00140000
#05852:1414
#0585a:00140014
#05855:0000000000000063
#05952:0063000000000000
#05955:0000001300000000
#06152:0000003600000000
#06158:0000000000460000
#06254:1414
#06258:00140014
#06252:0000000000000053
#06355:0053000000000000
#06352:0000001300000000
#06655:0000000000000053
#06652:1414
#06658:00140014
#06752:0063000000000000
#06755:0000001300000000
#06858:0064
#0685a:00000064
#07054:1414
#0705a:00140014
#07052:0000000000000063
#07155:0053000000000000
#07152:0000001300000000
#001340:14
#001320:00343434003400343400340024000000
#002380:1300002300000000
#0023b0:00000033000000000000000000000000
#003350:1300002300000000
#003320:00000033000000000000000000000000
#004380:1300002300000000
#0043b0:00000033000000000000000000000000
#005350:1300002300000000
#005320:00000033000000000000000000000000
#0063b0:1300002300000000
#006380:00000033000000000000000000000000
#007320:1300002300000000
#007350:00000033000000000000000000000000
#0083b0:1300002300000000
#008380:00000033000000000000000000000000
#009320:1300002300000000
#009350:00000033000000000000000000000000
#0123b0:0000000000000013
#013380:0023000000000000
#016320:0000000000000013
#017350:0023000000000000
#017380:00130000
#0173b0:0023
#019320:13
#019350:00230000
#020380:13
#0203b0:00000033000033002300000000000000
#021350:13
#021320:00000033000033002300000000000000
#0233b0:13
#023380:00230000
#026380:0000000000000013
#0273b0:0033000000000000
#027380:0000002300000000
#028320:0000000000000013
#029350:0023000000000000
#0303b0:0000000000000013
#031380:0033000000000000
#0313b0:0000002300000000
#032320:0000000000000013
#033350:0033000000000000
#033320:0000002300000000
#034320:0013
#034340:00000000000000000000003300000000
#034350:0000000000000023
#0383b0:0013
#038390:00000000000000000000003300000000
#038380:0000000000000023
#041320:0000000013333333
#042320:23
#042381:13
#0423b1:0033
#043381:23
#043381:00001323
#045321:00001323
#046351:13
#046321:0033
#047351:23
#047351:00001323
#0493b1:00001323
#050321:13230000
#050380:13230000
#050320:00001323
#050381:00001323
#051321:00001323
#051380:00001323
#0523b0:1333
#052380:00330023
#053320:13003323
#053350:00330000
#0543b0:13230000
#054351:13230000
#0543b1:00001323
#054350:00001323
#0553b0:00001323
#055351:00001323
#056321:1333
#056351:00330023
#058351:0000000000000013
#059321:0033000000000000
#059351:0000002300000000
#0603b1:0000000000000013
#061381:0023000000000000
#062321:0000000000000013
#063351:0033000000000000
#063321:0000002300000000
#064351:0000000000000013
#065321:0033000000000000
#065351:0000002300000000
#066351:0000000000000013
#067321:0033000000000000
#067351:0000002300000000
#068381:0014
#0683a1:00000034
#069381:24
#069381:0014
#0693a1:00000024
#070321:0000000000000013
#071351:0033000000000000
#071321:0000002300000000
#072351:0013
#072321:00000023
#072381:0000000000000013
#0733b1:0033000000000000
#073381:0000002300000000
