This file was generated by Ched 2.7.0.0.
#TITLE ""
#ARTIST ""
#DESIGNER ""
#DIFFICULTY 0
#PLAYLEVEL
#SONGID ""
#WAVE ""
#WAVEOFFSET 0
#JACKET ""
#REQUEST "ticks_per_beat 480"
#00002: 4
#BPM01: 174
#00008: 01
#TIL00: ""
#VOLUME: ""
#HISPEED 00
#MEASUREHS 00
#01012:14
#01212:14
#0111a:14
#02114:14
#02214:14
#02318:14
#02418:14
#02512:14
#02612:14
#03112:14
#0321a:14
#03712:0016
#03718:26
#0371f:21
#03710:0000000000000041
#06414:14
#06410:41
#06818:14
#07214:14
#07914:14
#08018:14
#08112:14
#03818:16
#03812:0016
#04118:1616
#04212:1616
#04518:0016
#04512:26
#04612:16
#04618:0016
#04912:1616
#05018:1616
#05318:1616
#05310:41
#05418:16
#05512:1616
#05612:16
#06518:14
#06914:14
#07318:14
#0281f:0011
#00118:26
#00112:0000000000000026
#01912:24
#0191a:24
#01910:41
#0351a:24
#03512:24
#08212:24
#0821a:24
#00512:0000000000000026
#02712:24
#0271a:24
#02710:0041
#06112:24
#0611a:24
#08314:0000000000000024
#00910:41
#0033a0:1400000000000034
#0053a0:24
#007380:1400000000000034
#009380:24
#013380:14
#014380:24
#015340:14
#016340:24
#0173a0:14
#0183a0:24
#029380:14
#0303a0:24
#033340:14
#034320:24
#039380:1626
#040320:1626
#043380:1636
#044380:3626
#047320:1626
#048380:1626
#051320:1636
#052320:3626
#057380:14
#0583a0:24
#059340:14
#060320:24
#062380:14
#0633a0:24
#066340:14
#067320:24
#0703a0:14
#071380:24
#074320:14
#075340:24
#076380:14
#0763a0:0000000000000034
#0783a0:24
#083340:0000000000000014
#085320:00000024
