This file was generated by Ched 2.7.0.0.
#TITLE ""
#ARTIST ""
#DESIGNER ""
#DIFFICULTY 0
#PLAYLEVEL
#SONGID ""
#WAVE ""
#WAVEOFFSET 0
#JACKET ""
#REQUEST "ticks_per_beat 480"
#00002: 4
#BPM01: 174
#00008: 01
#TIL00: ""
#VOLUME: ""
#HISPEED 00
#MEASUREHS 00
#0031a:14
#00312:0000001400000000
#0031b:0000000000000013
#00315:0000000000000013
#00316:1400001400000000
#00712:14130013
#00718:0013000000000013
#0071a:0000001400000000
#00715:0013
#0071b:0000000000130000
#01315:0000131300130000
#01318:0013
#0131b:0000130000000013
#01312:0000000000000013
#01418:00131400
#01415:0013001300001300
#01412:0014
#0141b:00000013
#03117:0000000000000013
#03118:0013000000000000
#0311b:0000001300000000
#03112:0000000014000023
#0311a:0000000000140000
#03215:0013000000001300
#0321b:0013
#03212:0000001300000000
#0371b:1300001300000000
#03712:2400000000130000
#03716:0000000000000013
#03715:0000131300000000
#03717:0000000000130000
#0371a:0000000000000024
#0371f:21
#03710:0000000000000041
#0381b:0013000013130000
#03818:00130013
#03815:0000001300001300
#03812:0013
#03918:13
#0391b:0000001300000013
#03912:0000000000130000
#03916:0000131300000024
#03917:0000000000130000
#04019:0000131300000000
#04016:0013
#04014:0000000000130000
#04012:0013000000001300
#04015:0000000000000013
#0401b:00001313
#04018:0000000000000013
#04115:0013
#04118:0000000000130000
#04112:0000130000130013
#04117:00130000
#0411b:0000000000000013
#04215:13000013
#04218:0013000000000013
#0421b:0000000000130000
#04216:0000001300000000
#04212:0013000000130000
#04312:1300002400000024
#0431b:13
#0431a:0000000000240000
#04318:0000232300000023
#04315:0000000000230000
#05712:13
#05712:13
#05716:0013
#05718:00130013
#0571b:0013
#0581b:13
#05818:0000130000130013
#05815:00130013
#05812:0013
#06312:0013
#06317:0013
#06316:00000013
#0641b:1300000000130013
#06412:0000131300000013
#06416:0000000000130000
#06417:0000001300000000
#06410:41
#06517:0013
#0651b:00000013
#06515:00130000000000000000000000000000
#06518:00130000000000000000000000000000
#06512:0013
#06516:00000013
#0741b:1300001300000013
#07416:0000131300000013
#07412:1300000000130000
#07417:0000000000130000
#0751b:0000001300000000
#07517:0013000000130000
#07516:0000001300000013
#07512:0000000000130000
#07617:1300000000000013
#07612:1300000000000013
#07616:0000000000130000
#0761b:0000000000130000
#07614:00000013
#07619:00000013
#00114:00000013
#00119:00000013
#00112:1400000000000014
#0011a:1400000000000014
#00412:0013000000001400
#00418:00130000
#00415:0000001300000000
#0041a:0014
#0051b:1300000000130000
#00514:14
#00512:0000130000000013
#00518:0000001300000014
#00515:0013
#0061b:0013000000001300
#00615:00130000
#00618:0000001300000000
#00612:0013
#00818:0000130000130000
#00815:00001300000000000000001300000000
#00812:0000002400000000
#0081a:0000002400002400
#01115:0013000000000013
#0111b:00130013
#01118:0000000013000023
#01112:0000002400130000
#0111a:24
#00912:1300000000130000
#0091b:0000130000000013
#00916:0000001300000023
#00919:0000000013130000
#00917:23
#00910:41
#01012:0013000000001300
#01017:00130013
#01014:0000001313000000
#0101b:0013
#01218:0013000000130000
#01215:0000130000130000
#0121a:0000002400000000
#01212:0000002400000000
#01518:0000131300130000
#01515:0013
#01512:0000130000000013
#0151b:0000000000000013
#01615:00130000
#01618:0013001300001300
#0161a:0014
#01614:0014
#01612:00000013
#01715:0000131300130000
#01718:0013
#0171b:0000130000000013
#01712:0000000000000013
#01818:00130013
#01815:0013001300130000
#0181b:0013
#01812:0013
#02115:0000131300130000
#02118:0013
#0211b:0000130000000013
#02112:0000000000000013
#02217:00130000
#02212:0013001300000000
#02216:0000000000131300
#0221b:0013
#02219:00000013
#02318:0000131300130000
#02315:0013
#02312:0000130000000013
#0231b:0000000000000013
#0231a:24
#02512:2400131300000000
#02518:0013
#02515:0000000000130000
#0251b:0000130000000013
#02516:0000000000000013
#02618:0000130000130000
#02615:0000001300001300
#02612:0013000013000000
#0261b:00001313
#02415:00131300
#02418:0000001300000000
#0241b:0013000013000000
#02417:00000013
#02412:00000013
#02812:00000013
#0281b:00000000000000000000000000130000
#02814:0000000000000013
#02819:00000000000000000000000000000013
#0281f:0011
#02818:0000333300000000
#02815:0000333300000000
#02916:13000013
#02917:00131300
#03016:13000013
#03017:00131300
#0331b:13000013
#03312:00131300
#03316:13
#0341b:13000013
#03412:00131300
#04415:0000000000131313
#04418:00000000000000000000001300130013
#04412:0023000000000000
#0441a:0024
#04918:0013
#04915:0000000000130000
#0491b:0000130000130013
#04916:00130000
#04912:0000000000000013
#05018:13000013
#05015:0013000000000013
#05012:0000000000130000
#05017:0000001300000000
#0501b:0013000000130000
#0511b:1300001300000000
#05112:1300130000130000
#05116:0000001300000024
#05117:0000000000130000
#0511a:0000000000000024
#05218:0013000000001313
#05215:00000000000000000000000000130013
#0521b:0000001300000000
#05212:0013
#05312:0000131300000023
#05318:0000000013130000
#05315:0000000000130000
#0531b:00130000
#05317:0000000000000013
#0531a:24
#05310:41
#05412:0013000013001300
#05415:0000001300000013
#0541b:0013
#05418:0000000000130000
#0551b:0000131300000023
#05515:0000000013130000
#05518:0000000000130000
#05512:00130000
#05516:0000000000000013
#0551a:24
#05618:0013000000130000
#0561b:0000001300000013
#06016:0000000000141414
#06012:26
#06018:26
#06216:13
#06212:0000001300000000
#06217:0000001300000000
#0621b:23
#0671b:0013
#06716:0013
#06717:00000013
#06812:1300000000130000
#0681b:0000131300000013
#06817:0000000000130000
#06816:0000001300000013
#06918:0013000013131313
#06912:0013131300000000
#06915:00000000000000000013001300130013
#07112:0013
#07117:0013
#07116:00000013
#0721b:1300000000230000
#07212:0000132300000000
#07216:0000002400240023
#0721a:0000000000000024
#07316:0000002424001400
#07312:0023
#0771b:00000000000000000000001300000013
#07718:00000000130000000013000000130000
#07715:0000001300130013
#07712:00001313
#08314:0012000000001200
#08316:0000120000120000
#0831a:0000001200000024
#08318:0012
#03612:0024000000001400
#0361a:00000014
#03613:00240000
#03614:0000002400000000
#03615:0024
#01912:2424001400000024
#01918:0000001400000000
#0191a:0024000000140000
#01914:0000000000140000
#01917:0000000000000023
#01910:41
#08112:0000002400130000
#08115:0013000000000000
#08118:00130000
#0811b:0000000000230000
#0811a:0000002400000000
#06617:13
#0661b:0000001300000000
#06616:0000001300000000
#06612:23
#07012:0000001300000000
#07017:0000001300000000
#0701b:23
#08018:0013000000000013
#08012:24130013
#08015:0000000013000023
#0801b:0000000000130000
#0801a:0000002400000000
#07812:2400130000000013
#07817:0000131300000023
#07814:0000000013130000
#0781b:0000000000130000
#0791b:0013000000001300
#07916:00130013
#07919:0000001313000000
#07912:0013
#04512:1300001300000024
#0451b:0000000000130000
#04517:0000000000000013
#04518:0000131300000000
#04516:0000000000130000
#04612:0013000013130000
#04615:00130013
#04618:0000001300001300
#0461b:0013
#04715:13
#04712:0000001300000013
#0471b:0000000000130000
#04717:0000131300000000
#04716:0000000000130024
#04814:0000131300000000
#04817:0013
#04819:0000000000130000
#0481b:0013000000001300
#04818:0000000000000013
#04812:00001313
#04815:0000000000000013
#0351a:2424000000000000
#0351b:0000000000000023
#03515:0024000000000000
#03512:0000000024240000
#03517:0000000000240000
#03516:0000000000000024
#02015:0023002300002300
#02018:0000230000232300
#02012:0023
#0201b:0023
#08212:2424000000002424
#0821a:0000002424000000
#08216:0024000024000024
#0271b:2323000000002323
#02719:0000002323000000
#02712:0023000000002323
#02714:0000002323000000
#02710:0041
#05912:23242526
#0591b:23
#06116:24
#08517:00000052
#0835a:0000000000000054
#00852:0000001400000000
#0085a:0000001400004400
#01952:0000000000000014
#01957:0000000000000053
#02058:00000063
#02055:00000053
#03157:0000000000000053
#03152:0014
#0315a:0000000000140000
#0325b:0053
#0355b:0000000000000063
#0355a:0014000000000000
#03555:0014000000000000
#03552:0000000000140000
#03557:0000000000140000
#0365a:0014
#03655:0014
#0375b:53
#03756:0000000000000053
#03752:14
#0375a:0000000000000044
#03958:53
#0395b:0000000000000053
#03956:0000000000000034
#04258:0063000000000000
#0435a:0000000000140000
#04352:5300001400000014
#04358:0000000000000053
#05752:53
#05756:0023
#0585b:63
#05858:00230000
#06058:16
#06052:16
#0645b:6300000000000063
#06452:0000000000000053
#06457:0000001300000000
#06456:0000000000130000
#07256:0000001400140053
#0725b:63
#0725a:0000000000000014
#07452:0000000000530000
#07456:0000000000000053
#0755b:0000006300000000
#07557:0000000000530000
#07657:6300000000000053
#07652:6300000000000053
#0035a:14
#00352:0000001400000000
#0035b:0000000000000053
#0045a:0044
#00452:00000034
#0055b:53
#00552:0000000000000063
#00554:14
#00558:0000000000000014
#00758:0000000000000053
#00752:14
#0075a:0000001400000000
#00952:63
#0095b:0000000000000053
#0125a:0000001400000000
#01252:0000001400000000
#01258:0000000000530000
#01255:0000000000630000
#0135b:0000000000000053
#01352:14
#0135a:14
#0165a:0014
#01654:0014
#01652:00000063
#01658:00000063
#01552:1400000000000063
#01558:14
#0175b:0000000000000053
#01754:14
#0175a:14
#01858:00000053
#0215b:0000000000000053
#0215a:14
#02152:14
#02256:00000063
#0255b:0000000000000053
#0255a:14
#02655:00000063
#02352:1400000000000063
#02457:00000053
#0245b:0013
#02455:0013
#02452:00000013
#0275b:0000000000000063
#02752:0000000000000053
#02852:0016
#02858:0016
#02956:53
#02957:0063
#03056:53
#03057:0063
#0335b:53
#03352:0063
#0345b:53
#03452:0063
#03855:00000063
#04052:00000053
#04055:0000000000000023
#0405b:00000063
#04058:0000000000000023
#04152:33
#0415b:43
#04157:00530000
#05055:0053000000000000
#0515b:6300001300000000
#05156:0000000000000064
#0515a:0000000000000014
#05152:0000000000130000
#04956:00630000
#0495b:43
#04952:33
#05252:0053
#05355:0000000000530000
#05357:0000000000000053
#05352:0000000000000013
#0545b:0053
#05458:0000000000230000
#05452:00000063
#05455:0000000000000023
#05558:0000000000630000
#05556:0000000000000063
#0555b:0000000000000013
#05952:00141516
#05958:00000016
#06357:0053
#06356:00000063
#06555:00230000000000000000000000000000
#06558:00230000000000000000000000000000
#06852:53
#0685b:0000000000000063
#06856:0000001300000013
#06857:0000000000130000
#06756:0063
#06757:00000053
#06958:0023000000000000
#07157:0053
#07156:00000063
#07356:0064
#08256:0014000014000014
#0115a:14
#01152:0000001400000000
#01155:0000000000000053
#0445a:0014
#06156:24
#06154:0018
#06252:0000005300000000
#06257:0000005300000000
#0625b:53
#00152:1400000000000014
#0015a:1400000000000014
#0665b:0000006300000000
#06656:0000006300000000
#06652:63
#07052:0000005300000000
#07057:0000005300000000
#0705b:53
#07852:1400000000000063
#0815b:0000000000530000
#08152:0000001400000000
#0815a:0000001400000000
#08058:0000000000000063
#08052:14
#0805a:0000001400000000
#01452:0014
#01458:0014
#0145b:00000053
#01455:00000053
#04552:6300000000000034
#04557:0000000000000063
#04755:63
#04752:0000000000000063
#04756:0000000000000044
#04658:00000053
#0485b:00000063
#04858:0000000000000023
#04852:00000053
#04855:0000000000000023
#0033b0:0000000000000013
#004380:0023000000000000
#0053b0:13
#005380:00230000
#005320:0000000000000013
#006350:0023000000000000
#007380:0000000000000013
#0083b0:0023000000000000
#009320:13
#009360:00230000
#0093b0:0000000000000013
#010370:0023000000000000
#011350:0000000000000013
#012320:0023000000000000
#012380:0000000000130000
#0133a0:24
#012351:0000000000130000
#013321:24
#0133b1:0000000000000013
#014381:0023000000000000
#0143b1:00000013
#015381:24
#014350:00000013
#015320:24
#015320:0000000000000013
#016350:0023000000000000
#016320:00000013
#017340:24
#016381:00000013
#0173a1:24
#0173b1:0000000000000013
#018381:0023000000000000
#018381:00000013
#0193a1:24
#019371:0000000000000013
#0203b1:0023000000000000
#020381:00000013
#0213a1:24
#020350:00000013
#021320:24
#0213b0:0000000000000013
#022370:0023000000000000
#022360:00000013
#023320:24
#023320:0000000000000013
#024360:0023000000000000
#024370:00000013
#0253a0:24
#0253b0:0000000000000013
#026370:0023000000000000
#026350:00000013
#027320:23
#0273b0:0000000000000013
#028380:0033333326000000
#027321:0000000000000013
#028351:0033333300000000
#028321:0026
#029361:13
#029321:0023
#029370:0013
#0303b0:23
#030361:13
#030321:0023
#030370:0013
#0313b0:23
#031321:1323000000000000
#031351:0000132300000000
#031371:0000000000000013
#0323b1:0023000000000000
#032381:0000132300000000
#0323b1:0013
#032381:00000023
#0333b1:13
#033371:0023
#033320:0013
#034360:23
#0343b1:13
#034371:0023
#034320:0013
#035360:23
#0353b0:0000000000000013
#036370:0034000000000000
#036380:00340000
#036390:0000003400000000
#0363a0:0024
#0373b0:13
#037380:00230000
#037360:0000000000000013
#038320:0023000000000000
#038350:00000013
#039320:23
#039381:13
#0393b1:00230000
#0393b1:0000000000000013
#040371:0023000000000000
#040321:00000013
#040351:0000000000000053
#041321:23
#0403b0:00000013
#040380:0000000000000053
#0413b0:23
#041370:00130000
#0413b0:0023
#042380:0013000000000000
#0423b0:0000002300000000
#043320:13
#043350:00230000
#043380:0000000000000013
#0443b0:0023000000000000
#044321:0013003300000000
#044351:00332300
#045321:13
#045351:00230000
#045371:0000000000000013
#0463b1:0023000000000000
#046381:00000013
#0473b1:23
#047350:13
#047320:00230000
#047320:0000000000000013
#048360:0023000000000000
#0483b0:00000013
#048380:0000000000000053
#0493b0:23
#048321:00000013
#048351:0000000000000053
#049321:23
#049361:00130000
#049321:0023
#050351:0013000000000000
#050321:0000002300000000
#0513b1:13
#051371:00230000
#051361:0000000000000014
#052321:0023000000000000
#052351:0000132300000000
#052321:0013
#052351:00000023
#053351:0000000000130000
#053321:0000000000000023
#053370:0000000000000013
#0543b0:0023000000000000
#054380:0000132300000000
#0543b0:00001323
#054380:0000000000530000
#054321:00000013
#054351:0000000000000053
#055321:23
#055381:0000000000130000
#0553b1:0000000000000023
#055360:0000000000000013
#056320:0023000000000000
#056350:0000132300000000
#056320:0000000013230000
#056350:0000000000001323
#057320:13
#057360:0053
#058320:23
#0583b1:1323
#058381:00530000
#0593b1:13
#059381:00000026
#061361:14
#061341:0028
#0623b1:13
#062371:0000003300000000
#0633b1:00230000
#062320:0000001300000000
#063360:00230000
#063370:0013
#0633b0:00000023
#063361:00000013
#064321:23
#0643b0:13
#064370:00230000
#064320:0000000000000013
#065350:00530000000000000000000000000000
#065320:00230000
#0643b1:0000000000000013
#065381:00530000000000000000000000000000
#0653b1:00230000
#066321:13
#066361:0000003300000000
#067321:00230000
#0663b0:0000001300000000
#067370:00230000
#067360:0013
#067320:00000023
#067371:00000013
#0683b1:23
#068320:13
#068360:00230000
#0683b0:0000000000000013
#069380:0053000000000000
#0693b0:0000002300000000
#0703b0:13
#070370:0000003300000000
#0713b0:00230000
#070321:0000001300000000
#071361:00230000
#071371:0013
#0713b1:00000023
#071360:00000013
#072320:23
#0723b1:13
#072371:00230000
#072361:0000000000000013
#073321:0000002300000000
#073361:0014
#0733a1:00000024
#074321:0000000000130000
#074361:0000000000000033
#075321:0023000000000000
#0753b1:0000001300000023
#075371:0000000000330000
#076371:13
#0763b1:0023
#076320:13
#076360:0023
#076320:0000000000000013
#077360:0023000000000000
#076371:0000000000000013
#0773b1:0023000000000000
#078321:0000000000000013
#079361:0023000000000000
#080381:0000000000000013
#0813b1:0023000000000000
#0813b1:0000000000130000
#082361:24
#0833a1:0000000000000014
#085371:00000022
