This file was generated by Ched 2.7.0.0.
#TITLE ""
#ARTIST ""
#DESIGNER ""
#DIFFICULTY 0
#PLAYLEVEL
#SONGID ""
#WAVE ""
#WAVEOFFSET 0
#JACKET ""
#REQUEST "ticks_per_beat 480"
#00002: 4
#BPM01: 174
#00008: 01
#TIL00: ""
#VOLUME: ""
#HISPEED 00
#MEASUREHS 00
#00512:1400000000130000
#0051b:00130000
#00515:0000001300000000
#00518:0013
#0031b:1300000000000013
#00312:0000001300000000
#00315:1300000000000013
#00318:0000001300000000
#0041b:00000013
#00418:0013001300000000
#00415:00131300
#00615:00130000
#00618:0000001300000000
#00612:0013
#0061b:00000013
#00712:13130013
#00718:0013000000000013
#0071b:0000001300130000
#00715:0013
#00912:24130000
#00918:0000001300000000
#00915:0013
#0091b:0000000000130000
#0091a:24
#00910:41
#01018:00130000
#01015:0000001300000000
#0101b:0013
#01012:00000013
#01115:0013000000130000
#01118:00131313
#0111a:24
#01112:0000002400000024
#01214:0000240000140000
#01218:0024000000000000
#0121a:0000002400000000
#01318:00130000
#01315:0000001300130000
#0131b:0013
#01412:00130000
#0141b:0000001300000000
#01415:0013
#01418:00000013
#01515:00130000
#01518:0000001300130000
#01512:0013
#0161b:00130000
#01612:0000001300000000
#01618:0013
#01615:00000013
#0211b:0000130000000013
#02115:0000001300000000
#02118:0013
#02112:0000000000130000
#02212:00130000
#0221b:0000001300000000
#02215:00001313
#02218:0000000000130000
#02418:00130000
#02415:0000001300000000
#0241b:0013
#02412:00000013
#02518:0000130000000013
#02512:2400001300000000
#0251b:0013
#02515:0000000000130000
#0251a:24
#02615:00130013
#0261b:0000001300000000
#02612:0013
#02618:0000000000130000
#02312:2400130000000013
#02318:0000001300000000
#02315:0013
#0231b:0000000000130000
#0231a:24
#02915:13
#02912:0013
#0291b:13
#02918:0013
#03015:13
#0301b:13
#03018:0013
#03118:1313001300000000
#03115:0000130000000013
#03112:0013
#0311b:0000000000130000
#0321b:00130000
#03215:0000001300000000
#03218:0013
#03718:0000001300000000
#03715:0000130000130000
#0371b:0000000000000013
#0371a:24
#0371f:21
#03710:0000000000000041
#03812:00130013
#03818:0000001300130000
#03815:0013
#03918:1300000000130000
#03915:0000001300000000
#03912:0000000000000013
#04018:00130013
#04015:0000001300000000
#0401b:0013
#04118:0000000000130000
#04115:0000000000000013
#04112:00130000
#04218:1300000000130013
#04215:0013000000001300
#05315:00131300
#05318:0000001300000000
#0531b:0000000000130000
#05312:2400000000000013
#0531a:24
#05310:41
#05418:00130000
#05415:0000001300000000
#0541b:0013
#05518:00131300
#05515:0000001300000000
#05512:2400000000130000
#0551b:0000000000000013
#0551a:24
#05615:00130013
#05618:0000001300130000
#05612:0013
#0561b:0000000000000013
#05712:13
#05715:00130000
#0581b:13
#05818:00130013
#05812:0000000000130000
#05815:0000000000000013
#06218:0000001300000000
#0621b:23
#06312:0013
#06318:0013
#06315:00000013
#0631b:00000013
#06412:1300000000130000
#0641b:0000001300000000
#06418:0000000000000013
#06410:41
#06515:0013
#06518:00000013
#0671b:0013
#06715:0013
#06718:00000013
#06712:00000013
#0681b:1300000000130000
#06812:0000001300000000
#06815:0000000000000013
#06918:0013
#06915:00000013
#07112:0013
#07118:0013
#07115:00000013
#0711b:00000013
#07218:13
#07212:0000002400000000
#0721a:0000000000240000
#07214:0000000000000024
#07418:0000130000000013
#07415:0000001300000000
#0741b:0000000000130000
#07512:0000001300000000
#07515:0000000000130000
#07618:13
#0761b:0000000000000013
#04312:1300000000240000
#0431a:0000002400000000
#04314:0000000000000024
#04318:0000000000000024
#01914:0000001400000000
#01918:0000000000140000
#0191a:2424000000000000
#01912:0000000000000024
#01910:41
#00118:14
#00114:0000000000000014
#00815:0013000000000000
#00818:00130000
#00812:0000002400002400
#0081a:00000024
#05118:0000000000130024
#05115:0000001300000000
#0511b:13
#05114:0000000000000024
#01718:00130000
#01715:0000001300130000
#0171b:0013
#01812:00130013
#0181b:0000001300000000
#01815:0013
#01818:0000000000130000
#03318:13
#0331b:0013
#03312:13
#03315:0013
#03418:13
#03412:13
#03415:0013
#04515:0000001300000000
#04518:0000130000130000
#04512:2400000000000013
#0461b:00130013
#04615:0000001300130000
#04618:0013
#04715:1300000000130000
#04718:0000001300000000
#0471b:0000000000000013
#04815:00130013
#04818:0000001300000000
#04812:0013
#04915:0000000000130000
#04918:0000000000000013
#0491b:00130000
#05015:1300000000130013
#05018:0013000000001300
#06615:0000001300000000
#06612:23
#07018:0000001300000000
#0701b:23
#07312:0014
#0781b:00130000
#07815:0000001300000000
#07818:0013
#07812:2400000000130000
#0781a:24
#07915:00130000
#07918:0000001300000000
#07912:0013
#0791b:00000013
#08018:0013000000130000
#08015:00131313
#08012:24
#0801a:0000002400000024
#08315:0013000000130023
#08318:00130013
#08312:0000001300000000
#0831b:0013
#0281f:0011
#02812:0000343400000000
#03514:2424000000000000
#03512:0000000000000024
#03518:0000000024240000
#0351a:0000000000000024
#02018:0024000000240000
#02014:00240024
#0201a:0000002400000000
#02012:0024
#0271a:24000024
#02714:0024000000000024
#02718:0000002400000000
#02712:0024
#02710:0041
#06112:24
#0611a:24
#06012:24
#0601a:24
#05918:23
#08114:0024000000000000
#08118:00240000
#08112:0000002400000000
#08218:2424000000000000
#08214:0000002424000000
#0821a:0000000000002424
#08512:00000053
#00852:0000001400000000
#0125a:0000001400000000
#01254:0000000000540000
#01658:0013
#01655:00000053
#01952:0000000000000014
#02054:00000054
#0245b:0013
#02452:00000013
#0215b:0000000000000053
#02152:14
#02352:0000000000000063
#02558:0000000000000063
#02754:0000000000000054
#02852:0014
#02955:63
#02952:0063
#03055:63
#03155:0000000000000063
#03152:0013
#0315b:0000000000130000
#03258:0063
#03552:0000000000000054
#0355a:0000000000000064
#03654:0014
#03658:0014
#0375b:0000000000000053
#0375a:14
#03958:63
#03952:0000000000000063
#04255:0053000000000000
#04352:6300000000140000
#0435a:0000001400000000
#04354:0000000000000054
#04358:0000000000000064
#04452:0014
#0445a:0014
#05352:0000000000000053
#0545b:0063
#0555b:0000000000000063
#05752:53
#05755:00230000
#0585b:63
#05858:00230000
#06152:54
#0615a:64
#06154:0014
#06158:0014
#06258:0000005300000000
#0625b:53
#06452:5300000000130000
#06458:0000000000000053
#0645b:0000001300000000
#0685b:6300000000130000
#06855:0000000000000063
#06852:0000001300000000
#07258:53
#07252:0000001400000000
#0725a:0000000000140000
#07254:0000000000000054
#0745b:0000000000630000
#07458:0000000000000063
#07552:0000005300000000
#07555:0000000000530000
#07658:63
#0765b:0000000000000063
#04152:00530000
#0415b:13
#05158:0000000000130064
#05154:0000000000000054
#0515b:53
#05155:0000001300000000
#0525a:0014
#05252:0014
#0405b:0053
#04058:00000053
#00158:14
#00154:0000000000000014
#00552:14
#06052:14
#0605a:14
#01352:14
#01455:0013
#01458:00000053
#0155b:13
#01752:13
#03358:53
#0335b:0053
#03458:53
#04552:1400000000000063
#04755:53
#0475b:0000000000000053
#04852:0063
#04855:00000063
#04952:13
#0495b:00630000
#05058:0063000000000000
#05958:53
#06655:0000006300000000
#06652:63
#07058:0000005300000000
#0705b:53
#07352:0054
#08152:0000001400000000
#08355:0000000000000053
#0053b0:0000000000000013
#0063b0:0023000000000000
#009320:0000000000000013
#010320:0023000000000000
#012340:0000000000140000
#013320:24
#013380:0000000000000013
#014380:0023000000000000
#014380:00000013
#0153b0:23
#015350:0000000000000013
#016350:0023000000000000
#016350:00000013
#017320:23
#017380:0000000000000013
#018380:0023000000000000
#020340:00000014
#021320:24
#0213b0:0000000000000013
#022380:0023000000000000
#023320:0000000000000013
#024350:0023000000000000
#025380:0000000000000013
#0263b0:0023000000000000
#027340:0000000000000014
#028320:0034343424000000
#029350:13
#029320:0033
#030350:33
#030320:0023
#031350:0000000000000013
#032320:0023000000000000
#032380:0013
#0323b0:00000023
#033380:13
#0333b0:0033
#034380:33
#0343b0:0023
#035320:0000000000000014
#036340:0034343424000000
#0353a1:0000000000000014
#036381:0034343424000000
#0373b1:0000000000000013
#038381:0023000000000000
#039381:13
#0393b1:00230000
#039321:0000000000000013
#040351:0023000000000000
#0403b1:0013
#040381:00000033
#0413b1:23
#041321:00130000
#041351:0023
#042351:0013000000000000
#042321:0000002300000000
#043321:13
#043351:00230000
#043341:0000000000000014
#044321:0034343424000000
#043380:0000000000000014
#0443a0:0034343424000000
#045320:0000000000000013
#046350:0023000000000000
#047350:13
#047320:00230000
#0473b0:0000000000000013
#048380:0023000000000000
#048320:0013
#048350:00000033
#049320:23
#0493b0:00130000
#049380:0023
#050380:0013000000000000
#0503b0:0000002300000000
#0513b0:13
#051380:00230000
#051380:0000000000000014
#0523a0:0034343424000000
#051341:0000000000000014
#052321:0034343424000000
#053321:0000000000000013
#054351:0023000000000000
#0543b1:0013
#054381:00000023
#0553b1:0000000000000013
#056381:0023000000000000
#057321:1323
#057351:00530000
#0583b1:1323
#058381:00530000
#059381:13
#0593b1:00000023
#061321:14
#061341:0024
#0613a0:14
#061380:0024
#0623b0:13
#062380:0000003300000000
#0633b0:00230000
#064320:13
#064350:00230000
#064380:0000000000000013
#0653b0:00230000
#066320:13
#066350:0000003300000000
#067320:00230000
#0683b0:13
#068380:00230000
#068350:0000000000000013
#069320:00230000
#0703b0:13
#070380:0000003300000000
#0713b0:00230000
#072380:13
#0723b0:00230000
#072340:0000000000000014
#073320:0000003434000000
#074340:24
#0743b0:0000000000130000
#074380:0000000000000033
#0753b0:0023000000000000
#075320:0000001300000023
#075350:0000000000330000
#076380:13
#0763b0:0000000000333333
#077380:00000023
#0783b0:0000000000000013
#0793b0:0023000000000000
#083350:0000000000000013
#085320:00000023
