This file was generated by Ched 2.7.0.0.
#TITLE ""
#ARTIST ""
#DESIGNER ""
#DIFFICULTY 0
#PLAYLEVEL
#SONGID ""
#WAVE ""
#WAVEOFFSET 0
#JACKET ""
#REQUEST "ticks_per_beat 480"
#00002: 4
#BPM01: 174
#00008: 01
#TIL00: ""
#VOLUME: ""
#HISPEED 00
#MEASUREHS 00
#0211a:1414
#02114:00140000
#02212:1414
#02218:00140000
#0231a:1414
#02314:00140000
#03112:14140000
#03118:0014
#06414:14
#06418:00140000
#06412:0014
#0641a:00000014
#06410:41
#00512:1414
#00618:1414
#00914:0014
#0091a:24
#00910:41
#0101a:14
#01014:0014
#01312:1414
#0151a:1414
#01714:1414
#02412:1414
#02418:00140000
#0251a:1414
#02514:00140000
#02612:1414
#02618:00140000
#03214:14140000
#0321a:0014
#03714:00140000
#03718:0014
#0371a:24
#0371f:21
#03710:0000000000000041
#03812:14
#03818:00140000
#03814:0014
#0391a:14
#03914:00140000
#03918:0014
#03912:00000014
#04112:1414
#04118:00140000
#0421a:1414
#04214:00140000
#04312:14
#04318:0000141400000024
#04314:0000000000140000
#04518:00140000
#04514:0014
#04512:14
#0461a:14
#04614:00140000
#04618:0014
#04712:14
#04718:00140000
#04714:0014
#0471a:00000014
#0491a:1414
#04914:00140000
#05012:1414
#05018:00140000
#05318:1414
#05314:00140014
#05310:41
#05512:1414
#0551a:00140014
#0621a:14
#06218:00000014
#06818:14
#06814:00140000
#0681a:0014
#06812:00000014
#06612:14
#06614:00000014
#07018:14
#0701a:00000014
#07418:1414
#07514:1414
#07812:1414
#07818:00140000
#0791a:1414
#07914:00140000
#07618:14
#0761a:0000000000000014
#02712:0016000026000026
#02718:2600001600001600
#02710:0041
#04812:14
#0401a:14
#0511a:14
#05114:0000141400000024
#05118:0000000000140000
#05418:14
#05612:14
#08018:0000160000160000
#08012:2600002600000026
#0281f:0011
#00118:26
#00112:0000000000000026
#01912:2400000000000024
#0191a:2400000000000024
#01910:41
#0351a:2400000024000024
#03512:2400000024000024
#08314:0000000000000024
#01218:0000002400000000
#07212:24
#0721a:24
#07214:0000002400000024
#07218:0000000000240000
#08218:26000026
#08212:0000002600000000
#00318:0000003400000000
#00714:0000003400000000
#0111a:0000003400000000
#0441a:0034343400000000
#05212:0034343400000000
#01258:0000001400000000
#04058:00000014
#0405a:54
#0445a:0014
#04854:00000014
#04852:54
#0605a:14
#0625a:54
#06258:00000024
#06652:64
#06654:00000024
#07058:64
#0705a:00000024
#08354:0000000000000054
#07658:54
#0765a:0000000000000054
#04358:0000000000000054
#05154:0000000000000064
#05252:0014
#05458:54
#05652:54
#07254:0000000000000054
#0033a0:14
#003380:0000003400000034
#0043a0:0024
#007320:14
#007340:0000003400000034
#008320:0000002400000000
#011380:14
#0113a0:0000003400000034
#012380:0000002400000000
#014320:1424
#0163a0:1424
#018340:1424
#019320:0000000000000014
#020320:0024
#0193a1:0000000000000014
#0203a1:0024
#027321:0000000000000016
#028321:0026
#029381:14
#0293a1:0034
#030381:34
#0303a1:0024
#033341:14
#033321:0034
#034341:34
#034321:0024
#035321:0000000000000014
#036321:0034343424000000
#0353a0:0000000000000014
#0363a0:0034343424000000
#0403a0:14
#040380:00003424
#043380:0000000000000014
#0443a0:0034343424000000
#048320:14
#048340:00003424
#051340:0000000000000014
#052320:0034343424000000
#054380:14
#0543a0:0024
#056320:14
#056340:0024
#057380:14
#0583a0:34
#059380:34
#0603a0:24
#061320:1424
#0613a1:1424
#0623a1:14
#062381:00000054
#0633a1:0024
#065341:1424
#066321:14
#066341:00000054
#067321:0024
#069381:1424
#070381:14
#0703a1:00000054
#071381:0024
#072341:0000000000000014
#073321:0024
#076381:14
#0763a1:0000000000343434
#077381:0024
#080321:0000000000000016
#081321:0036362600000000
#083341:0000000000000014
#085321:00000024
