This file was generated by Ched 2.7.0.0.
#TITLE ""
#ARTIST ""
#DESIGNER ""
#DIFFICULTY 0
#PLAYLEVEL
#SONGID ""
#WAVE ""
#WAVEOFFSET 0
#JACKET ""
#REQUEST "ticks_per_beat 480"
#00002: 4
#BPM01: 185
#00008: 01
#TIL00: ""
#VOLUME: ""
#HISPEED 00
#MEASUREHS 00
#00113:14
#00119:00240000
#00414:00140000
#00416:0014
#0041a:0000001400001400
#00418:0014000000000000
#00412:24000014
#00912:1313
#00915:0013000000000000
#00918:00130000
#0091b:0000001300000000
#00916:00000013
#03012:16131300
#03017:0000001300000000
#0301b:00000013
#03016:0000000000000013
#03018:26
#03010:41
#00218:00141400
#00212:24000014
#00214:0000001400000000
#00312:14
#0031a:14000014
#00314:00141400
#00318:0000001400000000
#00518:00140000
#00516:0014
#00512:0000001400001400
#00514:0014000000000000
#0051a:14000014
#00612:00130000
#00618:2600000000000013
#00616:00000000000033330033003300000000
#00610:41
#0071b:0013
#00718:0000001300130000
#00715:00130013
#00712:0013000000000013
#0081b:0013000000130000
#00815:0013000000001300
#00812:0000001300000000
#00818:0000001300000013
#0101b:00130000
#01015:0000000000000013
#01017:00000000000033330033003300000000
#01112:0013
#01115:0000001300130000
#01118:00130013
#0111b:0013000000000013
#01212:0013000000000000
#01215:00131300
#01218:0000001300130000
#0121b:00000013
#01415:0000000000130013
#01412:13
#01418:00000053005300000000000013000000
#0141b:2353
#0141a:00530000000000530000000000000000
#01419:0053005300000000
#01417:00530000
#0151b:1300000000130000
#01515:0013000000001300
#01518:0000130000000013
#01512:0000001300000000
#01712:1300000000130000
#01718:0013000000001300
#01715:0000130000000013
#0171b:0000001300000000
#01618:0000000000130013
#01615:00000053005300000000000013000000
#01612:2353
#01613:00530000000000530000000000000000
#01614:0053005300000000
#01616:00530000
#01815:0000000000130013
#01818:00000053005300000000000013000000
#0181b:2353
#0181a:00530000000000530000000000000000
#01819:0053005300000000
#01817:00530000
#0191b:1300000000130000
#01918:0013000000000013
#01915:00130013
#01912:0000001300000000
#02018:0000000000130013
#02015:00000053005300000000000013000000
#02012:2353
#02013:00530000000000530000000000000000
#02014:0053005300000000
#02016:00530000
#02218:0000001300000000
#02213:0013
#02219:0000000000130000
#0221a:0000000000000013
#02214:00000013
#02212:24
#02315:1300000000130000
#02319:0013
#02318:00000013
#02314:0000000000000013
#0241a:1413
#02415:0000001300000000
#02414:0000000000130000
#02413:0000000000000013
#02419:00000013
#02518:1300000000130000
#02514:0013
#02515:00000013
#02519:0000000000000013
#02618:0000001300001300
#02612:2413
#02615:0000000000130000
#0261b:0000000000000013
#02715:1300000000130013
#02718:00001313
#0281a:1414
#02814:0014000000140000
#02818:00140014
#02812:0000001400000014
#03118:0000230000000013
#0311b:23
#03115:0023
#03112:00000023
#03215:1300000013000013
#0321b:0013000000130000
#03212:00130000
#03218:0000001300000000
#03312:0033130000000000
#0331b:00000013
#03316:0000000000000013
#0341b:13000013
#03412:00131300
#03417:0000001300000000
#03416:0000000000000013
#0351b:2300000000000013
#03518:00230000
#03515:0023
#03512:00000023
#03615:1313
#03618:0013000000130000
#03612:0000130000000013
#0361b:0000001300000013
#03714:00001313
#03719:0000000000130013
#03715:0033000000000000
#03718:0033000000000000
#0381b:00130000
#03816:0000001300000000
#03812:24000013
#03817:0000000000000013
#0381a:0014
#03915:0000000000000013
#03912:24
#03914:00240000
#03918:0024
#0391a:00000024
#04018:1300000013000013
#04012:0013000000140000
#0401b:00130000
#04015:0000001300000000
#0411b:0033130000000000
#04112:00000013
#04117:0000000000000013
#04212:14000013
#0421b:00130000
#04216:0000001300000000
#0421a:0014
#04217:0000000000000013
#04312:2400000000000013
#04314:00240000
#04318:0024
#0431a:00000024
#04418:1313
#04415:0013000000000000
#0441b:00130000
#04412:0000001300000014
#04414:0000000000140000
#0441a:0000000000000014
#0451b:0013000000130000
#04518:00130013
#04515:0000001300000013
#04512:0013
#0481a:0014
#04816:00000014
#04814:0014
#04812:24
#04810:41
#04912:0015
#04915:00000015
#04918:0015
#05018:0016
#05015:00000016
#05012:0016
#05112:0016
#05115:00000016
#05118:0016
#05219:0015
#05216:00000015
#05213:0015
#05312:0014
#05316:00000014
#05318:0014
#05512:0000180000000014
#0551a:0014
#05514:0000000000140000
#05518:00000014
#05616:0014
#0561a:14
#05610:41
#05715:14
#05716:0014
#0571a:14
#05816:0014
#05812:14
#05917:14
#05916:0014
#05912:14
#06016:0014
#0601a:14
#06115:14
#06116:0014
#0611a:14
#06212:15
#06215:0015
#06319:15
#06316:0015
#06417:00141414
#0641f:11
#06412:24
#06515:00141414
#0651a:24
#0661a:00140014
#06618:0014
#06614:24
#06712:00140014
#06714:0014
#06718:24
#0681a:00140000
#06812:00000014
#06814:24
#06818:0024
#0691a:00140000
#06919:0014
#06918:00000014
#06914:24
#07012:00140000
#0701a:00000014
#07018:24
#07014:0024
#07112:00140000
#07113:0014
#07114:00000014
#07118:24
#0741a:1414
#07415:0014000000000000
#07418:00140000
#07413:0000001400000000
#0741f:21
#07215:14
#0751a:0014000000000000
#07514:00141414
#07518:0000001400000000
#07512:0000000000140000
#07516:0000000000000014
#07510:41
#07618:0000140000000014
#07614:0000001400001400
#0761a:0014
#07714:0000260000000014
#07712:26
#07716:0026
#07718:00000026
#07818:1414
#07812:0014000000000000
#0781a:00140000
#07814:0000001400000000
#0791a:0014000024002400
#07914:0000141400000000
#07912:0000000000240024
#08014:0000140000000014
#08018:0000001400001400
#08012:0024
#0801a:24
#08118:2600000000000014
#08116:00260000
#08114:0026
#08112:00000026
#08214:1414
#0821a:0014000000000000
#08212:00140000
#08218:0000001400000000
#08312:0014000000000000
#08318:00141414
#08314:0000001400000000
#0831a:0000000000140000
#08316:0000000000000014
#08414:0000140000000014
#08418:0000001400001400
#08412:0014
#08518:2600000000000014
#08516:00260000
#08514:0026
#08512:00000026
#08614:1414
#0861a:0014000000000000
#08612:00140000
#08618:0000001400000000
#08712:0013000000130000
#08715:00130013
#08718:0000001300000013
#0871b:0013
#0921a:24140000
#09214:0014001400000000
#09212:0000000000140014
#09218:00002414
#09014:00142400
#0901a:24000014
#09018:0000001400000000
#09012:00000014
#09118:00142400
#09114:0000001400000000
#09112:24000014
#0911a:14000014
#09316:00130013000000000000000000000000
#0931b:2313231300000000
#09317:00000000000000000013001300000000
#09312:0000000023132313
#04718:00260000
#04714:000000000000000000003434
#07312:00000024
#08912:00260000
#08918:000000000000000000003434
#09415:26
#01314:0000002400000000
#02112:0000000000333333
#08810:41
#00153:14
#00159:00140000
#00658:1600000000000013
#00652:00630000
#00655:00000013
#00952:0063
#00956:00000063
#03058:16
#03052:1613
#00252:34
#00752:0000000000000013
#01052:13
#0105b:00530000
#01055:0000000000000013
#01058:00000013
#0115b:0000000000000013
#01354:0000001400000000
#01552:0000001300000000
#0175b:0000001300000000
#01952:0000001300000000
#02058:0000000000000063
#02252:14
#02355:53
#0245a:14
#02558:63
#02652:14
#02755:53
#0325b:0000000000130000
#03255:0000000000000063
#03352:00630000
#03355:0013
#0345b:13
#03452:0013
#03658:0000000000130000
#03652:0000000000000053
#0365b:0000000000000063
#03758:00130000
#03755:00130000
#03852:14
#0385a:0014
#04052:0000000000140000
#04058:0000000000000053
#0415b:00530000
#04158:0013
#04252:14
#0425a:0014
#04454:0000000000140000
#0445a:0000000000000014
#04452:0000000000000014
#04752:16
#04758:00160000
#04852:34
#0485a:0064
#04856:00000024
#04952:0055
#04955:00000025
#05058:0066
#05055:00000026
#05152:0056
#05155:00000026
#05259:0065
#05256:00000025
#05352:0054
#05356:00000024
#05556:18
#05552:00180000
#05656:0024
#0565a:64
#05756:0024
#0575a:64
#05856:0024
#05852:54
#05956:0024
#05952:54
#06056:0024
#0605a:64
#06156:0024
#0615a:64
#06252:65
#06255:0025
#06359:55
#06356:0025
#06954:64
#07158:64
#07352:00000014
#07255:64
#07455:0000000000000014
#07554:00006464
#07552:0000000000240000
#07556:0000000000000024
#07652:34
#0765a:0014
#08052:0014
#0805a:14
#07853:0000000000000014
#08259:0000000000000014
#08358:00005464
#0835a:0000000000240000
#08356:0000000000000024
#0845a:44
#08452:0014
#08659:0000000000000014
#08952:00160000
#08958:16
#0905a:44
#09455:16
#001320:0014
#001330:00000000000000000034000000000034
#001340:0000000000340034
#001350:00000000000000000000003400340000
#001360:00000034
#002320:24
#006320:00130000
#006360:00000000000033330033003300000000
#006350:00000023
#009320:0013
#009360:00000033
#010320:23
#0103b0:00130000
#010370:00000000000033330033003300000000
#010380:00000023
#012320:0000000000000014
#012340:0000000000000000000000000000000000000000000000000000000000540000
#013340:0000002400000000
#020380:0000000000000013
#0213b0:0033000000000000
#0213a0:00330000
#021390:0000003300000000
#021380:0023
#021351:0013
#021321:0000000000333333
#022321:24
#023351:13
#023321:00230000
#025381:13
#0253b1:00230000
#027351:13
#027321:00230000
#029351:1626
#032351:0000000000000013
#033321:0033330000000000
#033351:0023
#036321:0000000000000013
#037351:0033230000000000
#0363b0:0000000000000013
#037380:0033230000000000
#040380:0000000000000013
#0413b0:0033330000000000
#041380:0023
#046320:13000033
#047320:26
#047320:0014
#047330:00000000000000000034000000000000
#047340:000000000000000000000000000000340000000034003400
#047350:00000000000000000000003400000000
#047360:00000034
#048320:24
#0483a0:0014
#048360:00000054
#0493a0:24
#049320:0015
#049350:00000055
#050320:25
#050380:0016
#050350:00000056
#051380:26
#051320:0016
#051350:00000056
#052320:26
#052390:0015
#052360:00000055
#053390:25
#053320:0014
#053360:00000054
#054320:24
#054361:18
#055361:28
#0563a1:14
#056361:0054
#0573a1:34
#057361:0054
#0583a1:24
#058320:14
#058360:0054
#059320:34
#059360:0054
#060320:24
#0603a1:14
#060361:0054
#0613a1:34
#061361:0054
#0623a1:24
#062320:15
#062350:0055
#063320:25
#063391:15
#063361:0055
#064391:25
#064320:14
#065320:24
#0653a1:14
#0663a1:24
#066340:14
#067340:24
#067381:14
#068381:24
#068340:1424
#068381:0014
#069381:24
#069340:14
#070320:24
#070381:1424
#070340:0014
#071340:24
#071381:14
#0723a1:24
#072350:14
#073320:34343424
#074350:00000000000000000000145454542400
#074340:0000000000000000000000000000000000000000005600560056005600000000
#075340:00001434
#075320:0000000000540000
#075360:0000000000000054
#076320:24
#078330:00000000000000000000145454542400
#078320:0000000000000000000000000000000000000000005600560056005600000000
#082390:00000000000000000000145454542400
#082380:0000000000000000000000000000000000000000005600560056005600000000
#083380:00001434
#0833a0:0000000000540000
#083360:0000000000000054
#0843a0:24
#086390:00000000000000000000145454542400
#086380:0000000000000000000000000000000000000000005600560056005600000000
#0883b0:13000033
#089380:26
#0893a0:0014
#089390:00000000000000000034000000000000
#089380:000000000000000000000000000000340000000034003400
#089370:00000000000000000000003400000000
#089360:00000034
#0903a0:24
#0149b0:001300000000000000000000000000000000000000000000000000000000000000000000000000000000000000000000000000000000000000000000000000000000000000000000000000000000000000000000000000000000000000000000000000000000000000000000000000000000000000000000000000000000000000000000000000000000000000000000000000000000000000000000000000000000000000000000000000000000000000000000000000000000000000000000000000000000000000000000000000000000000000000000000000000000000000000000000000000000000000000000000000000000000000000000000000000000000000000000000000000000000000000000000000000000000000000000000000000000000000000000000000000000000000000000000000000000000000000000000000000000000000000000000000000000000000000000000000000000000000000000000000000000000000000000000000000000000000000000000000000000000000000000000000000000000000000000000000000000000000000000000000000000000000000000000000000000000000000000000000000000000000000000000000000000000000000000000000000000000000000000000000000000000000000000000000000000000000000000000000000000000000000000000000000000000000000000000000000000000000000000000000000000000000000000000000000000000000000000000000000000000000000000000000000000000000000000000000000000000000000000000000000000000000000000000000000000000000000000000000000000000000000000000000000000000000000000000000000000000000000000000000000000000000000000000000000000000000000000000000000000000000000000000000000000000000000000000000000000000000000000000000000000000000000000000000000000000000000000000000000000000000000000000000000000000000000000000000000000000000000000000000000000000000000000000000000000000000000000000000000000000000000000000000000000000000000000000000000000000000000000000000000000000000000000000000000000000000000000000000000000000000000000000000000000000000000000000000000000000000000000000000000000000000000000000000000000000000000000000000000000000000000000000000000000000000000000000000000000000000000053002300000000000000000000000000000000000000000000000000000000000000000000000000000000000000000000000000000000000000000000000000000000000000000000000000000000000000000000000000000000000000000000000000000000000000000000000000000000000000000000000000000000000000000000000000000000000000000000000000000000000000000000000000000000000000000000000000000000000000000000000000000000000000000000000000000000000000000000000000000000000000000000000000000000000000000000000000000000000000000000000000000000000000000000000000000000000000000000000000000000000000000000000000000000000000000000000000000000000000000000000000000000000000000000000000000000000000000000000000000000000000000000000000000000000000000000000000000000000000000000000000000000000000000000000000000000000000000000000000000000000000000000000000000000000000000000000000000000000000000000000000000000000000000000000000000000000000000000000000000000000000000000000000000000000000000000000000000000000000000000000000000000000000000000000000000000000000000000000000000000000000000000000000000000000000000000000000000000000000000000000000000000000000000000000000000000000000000000000000000000000000000000000000000000000000000000000000000000000000000000000000000000000000000000000000000000000000000000000000000000000000000000000000000000000000000000000000000000000000000000000000000000000000000000000000000000000000000000000000000000000000000000000000000000000000000000000000000000000000000000000000000000000000000000000000000000000000000000000000000000000000000000000000000000000000000000000000000000000000000000000000000000000000000000000000000000000000000000000000000000000000000000000000000000000000000000000000000000000000000000000000000000000000000000000000000000000000000000000000000000000000000000000000000000000000000000000000000000000000000000000000000000000000000000000000000000000000000000000000000000000000000000000000000000000000000000000000000000000000000000
#014970:000000000000000000000000000000000000000000000000000000000000000000000000000000000000000000000000000000000000000000000000000000000000000000000000000000000000000000000000000000000000000000000000000000000000000000000000000000000000000000000000000000000000000000000000000000000000000000000000000000000000000000000000000000000000000000000000000000000000000000000000000000000000000000000000000000000000000000000000000000000000000000000000000000000000000000000000000000000000000000000000000000000000000000000000000000000000000000000000000000000000000000000000000000000000000000000000000000000000000000000000000000000000000000000000000000000000000000000000000000000000000000000000000000000000000000000000000000000000000000000000000000000000000000000000000000000000000000000000000000000000000000000000000000000000000000000000000000000000000000000000000000000000000000000000000000000000000000000000000000000000000000000000000000000000000000000000000000000000000000000000005300000000000000000000000000000000000000000000000000000000000000000000000000000000000000000000000000000000000000000000000000000000000000000000000000000000000000000000000000000000000000000000000000000000000000000000000000000000000000000000000000000000000000000000000000000000000000000000000000000000000000000000000000000000000000000000000000000000000000000000000000000000000000000000000000000000000000000000000000000000000000000000000000000000000000000000000000000000000000000000000000000000000000000000000000000000000000000000000000000000000000000000000000000000000000000000000000000000000000000000000000000000000000000000000000000000000000000000000000000000000000000000000000000000000000000000000000000000000000000000000000000000000000000000000000000000000000000000000000000000000000000000000000000000000000000000000000000000000000000000000000000000000000000000000000000000000000000000000000000000000000000000000000000000000000000000000000000000000000000000000000000000000000000000000000000000000000000000000000000000000000000000000000000000000000000000000000000000000000000000000000000000000000000000000000000000000000000000000000000000000000000000000000000000000000000000000000000000000000000000000000000000000000000000000000000000000000000000000000000000000000000000000000000000000000000000000000000000000000000000000000000000000000000000000000000000000000000000000000000000000000000000000000000000000000000000000000000000000000000000000000000000000000000000000000000000000000000000000000000000000000000000000000000000000000000000000000000000000000000000000000000000000000000000000000000000000000000000000000000000000000000000000000000000000000000000000000000000000000000000000000000000000000000000000000000000000000000000000000000000000000000000000000000000000000000000000000000000000000000000000000000000000000000000000000000000000000000000000000000000000000000000000000000000000000000000000000000000000000000000000000000000000000000000000000000000000000000000000000000000000000000000000000000000000000000000000000000000000000000000000000000000000000000000000000000000000000000000000000000000000000000000000000000000000000000000000000000000000000000000000000000000000000000000000000000000000000000000000000000000000000000000000000000000000000000000000000000000000000000000000000000000000000000000000000000000000000000000000000000000000000000000000000000000000000000000000000000000000000000000000000000000000000000000000000000000000000000000000000000000000000000000000000000000000000000000000000000000000000000000000000000000000000000000000000000000000000000000000000000000000000000000000000000000000000000000000000000000000000000000000000000000000000000000000000000000000000000000000000000000000000000000000000000000000000000000000000000000000000000000000000000000000000000000000000000000000000000000000000000000000000000000000000000000000000000000000000000000000000000000
#016920:001300000000000000000000000000000000000000000000000000000000000000000000000000000000000000000000000000000000000000000000000000000000000000000000000000000000000000000000000000000000000000000000000000000000000000000000000000000000000000000000000000000000000000000000000000000000000000000000000000000000000000000000000000000000000000000000000000000000000000000000000000000000000000000000000000000000000000000000000000000000000000000000000000000000000000000000000000000000000000000000000000000000000000000000000000000000000000000000000000000000000000000000000000000000000000000000000000000000000000000000000000000000000000000000000000000000000000000000000000000000000000000000000000000000000000000000000000000000000000000000000000000000000000000000000000000000000000000000000000000000000000000000000000000000000000000000000000000000000000000000000000000000000000000000000000000000000000000000000000000000000000000000000000000000000000000000000000000000000000000000000000000000000000000000000000000000000000000000000000000000000000000000000000000000000000000000000000000000000000000000000000000000000000000000000000000000000000000000000000000000000000000000000000000000000000000000000000000000000000000000000000000000000000000000000000000000000000000000000000000000000000000000000000000000000000000000000000000000000000000000000000000000000000000000000000000000000000000000000000000000000000000000000000000000000000000000000000000000000000000000000000000000000000000000000000000000000000000000000000000000000000000000000000000000000000000000000000000000000000000000000000000000000000000000000000000000000000000000000000000000000000000000000000000000000000000000000000000000000000000000000000000000000000000000000000000000000000000000000000000000000000000000000000000000000000000000000000000000000000000000000000000000000000000000000000000000000000000000000000000000000000000000000000000000000000000000000000000000000000000053002300000000000000000000000000000000000000000000000000000000000000000000000000000000000000000000000000000000000000000000000000000000000000000000000000000000000000000000000000000000000000000000000000000000000000000000000000000000000000000000000000000000000000000000000000000000000000000000000000000000000000000000000000000000000000000000000000000000000000000000000000000000000000000000000000000000000000000000000000000000000000000000000000000000000000000000000000000000000000000000000000000000000000000000000000000000000000000000000000000000000000000000000000000000000000000000000000000000000000000000000000000000000000000000000000000000000000000000000000000000000000000000000000000000000000000000000000000000000000000000000000000000000000000000000000000000000000000000000000000000000000000000000000000000000000000000000000000000000000000000000000000000000000000000000000000000000000000000000000000000000000000000000000000000000000000000000000000000000000000000000000000000000000000000000000000000000000000000000000000000000000000000000000000000000000000000000000000000000000000000000000000000000000000000000000000000000000000000000000000000000000000000000000000000000000000000000000000000000000000000000000000000000000000000000000000000000000000000000000000000000000000000000000000000000000000000000000000000000000000000000000000000000000000000000000000000000000000000000000000000000000000000000000000000000000000000000000000000000000000000000000000000000000000000000000000000000000000000000000000000000000000000000000000000000000000000000000000000000000000000000000000000000000000000000000000000000000000000000000000000000000000000000000000000000000000000000000000000000000000000000000000000000000000000000000000000000000000000000000000000000000000000000000000000000000000000000000000000000000000000000000000000000000000000000000000000000000000000000000000000000000000000000000000000000000000000000000000000000000000000
#016960:000000000000000000000000000000000000000000000000000000000000000000000000000000000000000000000000000000000000000000000000000000000000000000000000000000000000000000000000000000000000000000000000000000000000000000000000000000000000000000000000000000000000000000000000000000000000000000000000000000000000000000000000000000000000000000000000000000000000000000000000000000000000000000000000000000000000000000000000000000000000000000000000000000000000000000000000000000000000000000000000000000000000000000000000000000000000000000000000000000000000000000000000000000000000000000000000000000000000000000000000000000000000000000000000000000000000000000000000000000000000000000000000000000000000000000000000000000000000000000000000000000000000000000000000000000000000000000000000000000000000000000000000000000000000000000000000000000000000000000000000000000000000000000000000000000000000000000000000000000000000000000000000000000000000000000000000000000000000000000000000005300000000000000000000000000000000000000000000000000000000000000000000000000000000000000000000000000000000000000000000000000000000000000000000000000000000000000000000000000000000000000000000000000000000000000000000000000000000000000000000000000000000000000000000000000000000000000000000000000000000000000000000000000000000000000000000000000000000000000000000000000000000000000000000000000000000000000000000000000000000000000000000000000000000000000000000000000000000000000000000000000000000000000000000000000000000000000000000000000000000000000000000000000000000000000000000000000000000000000000000000000000000000000000000000000000000000000000000000000000000000000000000000000000000000000000000000000000000000000000000000000000000000000000000000000000000000000000000000000000000000000000000000000000000000000000000000000000000000000000000000000000000000000000000000000000000000000000000000000000000000000000000000000000000000000000000000000000000000000000000000000000000000000000000000000000000000000000000000000000000000000000000000000000000000000000000000000000000000000000000000000000000000000000000000000000000000000000000000000000000000000000000000000000000000000000000000000000000000000000000000000000000000000000000000000000000000000000000000000000000000000000000000000000000000000000000000000000000000000000000000000000000000000000000000000000000000000000000000000000000000000000000000000000000000000000000000000000000000000000000000000000000000000000000000000000000000000000000000000000000000000000000000000000000000000000000000000000000000000000000000000000000000000000000000000000000000000000000000000000000000000000000000000000000000000000000000000000000000000000000000000000000000000000000000000000000000000000000000000000000000000000000000000000000000000000000000000000000000000000000000000000000000000000000000000000000000000000000000000000000000000000000000000000000000000000000000000000000000000000000000000000000000000000000000000000000000000000000000000000000000000000000000000000000000000000000000000000000000000000000000000000000000000000000000000000000000000000000000000000000000000000000000000000000000000000000000000000000000000000000000000000000000000000000000000000000000000000000000000000000000000000000000000000000000000000000000000000000000000000000000000000000000000000000000000000000000000000000000000000000000000000000000000000000000000000000000000000000000000000000000000000000000000000000000000000000000000000000000000000000000000000000000000000000000000000000000000000000000000000000000000000000000000000000000000000000000000000000000000000000000000000000000000000000000000000000000000000000000000000000000000000000000000000000000000000000000000000000000000000000000000000000000000000000000000000000000000000000000000000000000000000000000000000000000000000000000000000000000000000000000000000000000000000000000000000000000000000000000000000000
#0189b0:001300000000000000000000000000000000000000000000000000000000000000000000000000000000000000000000000000000000000000000000000000000000000000000000000000000000000000000000000000000000000000000000000000000000000000000000000000000000000000000000000000000000000000000000000000000000000000000000000000000000000000000000000000000000000000000000000000000000000000000000000000000000000000000000000000000000000000000000000000000000000000000000000000000000000000000000000000000000000000000000000000000000000000000000000000000000000000000000000000000000000000000000000000000000000000000000000000000000000000000000000000000000000000000000000000000000000000000000000000000000000000000000000000000000000000000000000000000000000000000000000000000000000000000000000000000000000000000000000000000000000000000000000000000000000000000000000000000000000000000000000000000000000000000000000000000000000000000000000000000000000000000000000000000000000000000000000000000000000000000000000000000000000000000000000000000000000000000000000000000000000000000000000000000000000000000000000000000000000000000000000000000000000000000000000000000000000000000000000000000000000000000000000000000000000000000000000000000000000000000000000000000000000000000000000000000000000000000000000000000000000000000000000000000000000000000000000000000000000000000000000000000000000000000000000000000000000000000000000000000000000000000000000000000000000000000000000000000000000000000000000000000000000000000000000000000000000000000000000000000000000000000000000000000000000000000000000000000000000000000000000000000000000000000000000000000000000000000000000000000000000000000000000000000000000000000000000000000000000000000000000000000000000000000000000000000000000000000000000000000000000000000000000000000000000000000000000000000000000000000000000000000000000000000000000000000000000000000000000000000000000000000000000000000000000000000000000000000000000000000053002300000000000000000000000000000000000000000000000000000000000000000000000000000000000000000000000000000000000000000000000000000000000000000000000000000000000000000000000000000000000000000000000000000000000000000000000000000000000000000000000000000000000000000000000000000000000000000000000000000000000000000000000000000000000000000000000000000000000000000000000000000000000000000000000000000000000000000000000000000000000000000000000000000000000000000000000000000000000000000000000000000000000000000000000000000000000000000000000000000000000000000000000000000000000000000000000000000000000000000000000000000000000000000000000000000000000000000000000000000000000000000000000000000000000000000000000000000000000000000000000000000000000000000000000000000000000000000000000000000000000000000000000000000000000000000000000000000000000000000000000000000000000000000000000000000000000000000000000000000000000000000000000000000000000000000000000000000000000000000000000000000000000000000000000000000000000000000000000000000000000000000000000000000000000000000000000000000000000000000000000000000000000000000000000000000000000000000000000000000000000000000000000000000000000000000000000000000000000000000000000000000000000000000000000000000000000000000000000000000000000000000000000000000000000000000000000000000000000000000000000000000000000000000000000000000000000000000000000000000000000000000000000000000000000000000000000000000000000000000000000000000000000000000000000000000000000000000000000000000000000000000000000000000000000000000000000000000000000000000000000000000000000000000000000000000000000000000000000000000000000000000000000000000000000000000000000000000000000000000000000000000000000000000000000000000000000000000000000000000000000000000000000000000000000000000000000000000000000000000000000000000000000000000000000000000000000000000000000000000000000000000000000000000000000000000000000000000000000000000000
#018970:000000000000000000000000000000000000000000000000000000000000000000000000000000000000000000000000000000000000000000000000000000000000000000000000000000000000000000000000000000000000000000000000000000000000000000000000000000000000000000000000000000000000000000000000000000000000000000000000000000000000000000000000000000000000000000000000000000000000000000000000000000000000000000000000000000000000000000000000000000000000000000000000000000000000000000000000000000000000000000000000000000000000000000000000000000000000000000000000000000000000000000000000000000000000000000000000000000000000000000000000000000000000000000000000000000000000000000000000000000000000000000000000000000000000000000000000000000000000000000000000000000000000000000000000000000000000000000000000000000000000000000000000000000000000000000000000000000000000000000000000000000000000000000000000000000000000000000000000000000000000000000000000000000000000000000000000000000000000000000000000005300000000000000000000000000000000000000000000000000000000000000000000000000000000000000000000000000000000000000000000000000000000000000000000000000000000000000000000000000000000000000000000000000000000000000000000000000000000000000000000000000000000000000000000000000000000000000000000000000000000000000000000000000000000000000000000000000000000000000000000000000000000000000000000000000000000000000000000000000000000000000000000000000000000000000000000000000000000000000000000000000000000000000000000000000000000000000000000000000000000000000000000000000000000000000000000000000000000000000000000000000000000000000000000000000000000000000000000000000000000000000000000000000000000000000000000000000000000000000000000000000000000000000000000000000000000000000000000000000000000000000000000000000000000000000000000000000000000000000000000000000000000000000000000000000000000000000000000000000000000000000000000000000000000000000000000000000000000000000000000000000000000000000000000000000000000000000000000000000000000000000000000000000000000000000000000000000000000000000000000000000000000000000000000000000000000000000000000000000000000000000000000000000000000000000000000000000000000000000000000000000000000000000000000000000000000000000000000000000000000000000000000000000000000000000000000000000000000000000000000000000000000000000000000000000000000000000000000000000000000000000000000000000000000000000000000000000000000000000000000000000000000000000000000000000000000000000000000000000000000000000000000000000000000000000000000000000000000000000000000000000000000000000000000000000000000000000000000000000000000000000000000000000000000000000000000000000000000000000000000000000000000000000000000000000000000000000000000000000000000000000000000000000000000000000000000000000000000000000000000000000000000000000000000000000000000000000000000000000000000000000000000000000000000000000000000000000000000000000000000000000000000000000000000000000000000000000000000000000000000000000000000000000000000000000000000000000000000000000000000000000000000000000000000000000000000000000000000000000000000000000000000000000000000000000000000000000000000000000000000000000000000000000000000000000000000000000000000000000000000000000000000000000000000000000000000000000000000000000000000000000000000000000000000000000000000000000000000000000000000000000000000000000000000000000000000000000000000000000000000000000000000000000000000000000000000000000000000000000000000000000000000000000000000000000000000000000000000000000000000000000000000000000000000000000000000000000000000000000000000000000000000000000000000000000000000000000000000000000000000000000000000000000000000000000000000000000000000000000000000000000000000000000000000000000000000000000000000000000000000000000000000000000000000000000000000000000000000000000000000000000000000000000000000000000000000000000000000000000000000
#020920:001300000000000000000000000000000000000000000000000000000000000000000000000000000000000000000000000000000000000000000000000000000000000000000000000000000000000000000000000000000000000000000000000000000000000000000000000000000000000000000000000000000000000000000000000000000000000000000000000000000000000000000000000000000000000000000000000000000000000000000000000000000000000000000000000000000000000000000000000000000000000000000000000000000000000000000000000000000000000000000000000000000000000000000000000000000000000000000000000000000000000000000000000000000000000000000000000000000000000000000000000000000000000000000000000000000000000000000000000000000000000000000000000000000000000000000000000000000000000000000000000000000000000000000000000000000000000000000000000000000000000000000000000000000000000000000000000000000000000000000000000000000000000000000000000000000000000000000000000000000000000000000000000000000000000000000000000000000000000000000000000000000000000000000000000000000000000000000000000000000000000000000000000000000000000000000000000000000000000000000000000000000000000000000000000000000000000000000000000000000000000000000000000000000000000000000000000000000000000000000000000000000000000000000000000000000000000000000000000000000000000000000000000000000000000000000000000000000000000000000000000000000000000000000000000000000000000000000000000000000000000000000000000000000000000000000000000000000000000000000000000000000000000000000000000000000000000000000000000000000000000000000000000000000000000000000000000000000000000000000000000000000000000000000000000000000000000000000000000000000000000000000000000000000000000000000000000000000000000000000000000000000000000000000000000000000000000000000000000000000000000000000000000000000000000000000000000000000000000000000000000000000000000000000000000000000000000000000000000000000000000000000000000000000000000000000000000000000000000000000053002300000000000000000000000000000000000000000000000000000000000000000000000000000000000000000000000000000000000000000000000000000000000000000000000000000000000000000000000000000000000000000000000000000000000000000000000000000000000000000000000000000000000000000000000000000000000000000000000000000000000000000000000000000000000000000000000000000000000000000000000000000000000000000000000000000000000000000000000000000000000000000000000000000000000000000000000000000000000000000000000000000000000000000000000000000000000000000000000000000000000000000000000000000000000000000000000000000000000000000000000000000000000000000000000000000000000000000000000000000000000000000000000000000000000000000000000000000000000000000000000000000000000000000000000000000000000000000000000000000000000000000000000000000000000000000000000000000000000000000000000000000000000000000000000000000000000000000000000000000000000000000000000000000000000000000000000000000000000000000000000000000000000000000000000000000000000000000000000000000000000000000000000000000000000000000000000000000000000000000000000000000000000000000000000000000000000000000000000000000000000000000000000000000000000000000000000000000000000000000000000000000000000000000000000000000000000000000000000000000000000000000000000000000000000000000000000000000000000000000000000000000000000000000000000000000000000000000000000000000000000000000000000000000000000000000000000000000000000000000000000000000000000000000000000000000000000000000000000000000000000000000000000000000000000000000000000000000000000000000000000000000000000000000000000000000000000000000000000000000000000000000000000000000000000000000000000000000000000000000000000000000000000000000000000000000000000000000000000000000000000000000000000000000000000000000000000000000000000000000000000000000000000000000000000000000000000000000000000000000000000000000000000000000000000000000000000000000000000000000000
#020960:000000000000000000000000000000000000000000000000000000000000000000000000000000000000000000000000000000000000000000000000000000000000000000000000000000000000000000000000000000000000000000000000000000000000000000000000000000000000000000000000000000000000000000000000000000000000000000000000000000000000000000000000000000000000000000000000000000000000000000000000000000000000000000000000000000000000000000000000000000000000000000000000000000000000000000000000000000000000000000000000000000000000000000000000000000000000000000000000000000000000000000000000000000000000000000000000000000000000000000000000000000000000000000000000000000000000000000000000000000000000000000000000000000000000000000000000000000000000000000000000000000000000000000000000000000000000000000000000000000000000000000000000000000000000000000000000000000000000000000000000000000000000000000000000000000000000000000000000000000000000000000000000000000000000000000000000000000000000000000000000005300000000000000000000000000000000000000000000000000000000000000000000000000000000000000000000000000000000000000000000000000000000000000000000000000000000000000000000000000000000000000000000000000000000000000000000000000000000000000000000000000000000000000000000000000000000000000000000000000000000000000000000000000000000000000000000000000000000000000000000000000000000000000000000000000000000000000000000000000000000000000000000000000000000000000000000000000000000000000000000000000000000000000000000000000000000000000000000000000000000000000000000000000000000000000000000000000000000000000000000000000000000000000000000000000000000000000000000000000000000000000000000000000000000000000000000000000000000000000000000000000000000000000000000000000000000000000000000000000000000000000000000000000000000000000000000000000000000000000000000000000000000000000000000000000000000000000000000000000000000000000000000000000000000000000000000000000000000000000000000000000000000000000000000000000000000000000000000000000000000000000000000000000000000000000000000000000000000000000000000000000000000000000000000000000000000000000000000000000000000000000000000000000000000000000000000000000000000000000000000000000000000000000000000000000000000000000000000000000000000000000000000000000000000000000000000000000000000000000000000000000000000000000000000000000000000000000000000000000000000000000000000000000000000000000000000000000000000000000000000000000000000000000000000000000000000000000000000000000000000000000000000000000000000000000000000000000000000000000000000000000000000000000000000000000000000000000000000000000000000000000000000000000000000000000000000000000000000000000000000000000000000000000000000000000000000000000000000000000000000000000000000000000000000000000000000000000000000000000000000000000000000000000000000000000000000000000000000000000000000000000000000000000000000000000000000000000000000000000000000000000000000000000000000000000000000000000000000000000000000000000000000000000000000000000000000000000000000000000000000000000000000000000000000000000000000000000000000000000000000000000000000000000000000000000000000000000000000000000000000000000000000000000000000000000000000000000000000000000000000000000000000000000000000000000000000000000000000000000000000000000000000000000000000000000000000000000000000000000000000000000000000000000000000000000000000000000000000000000000000000000000000000000000000000000000000000000000000000000000000000000000000000000000000000000000000000000000000000000000000000000000000000000000000000000000000000000000000000000000000000000000000000000000000000000000000000000000000000000000000000000000000000000000000000000000000000000000000000000000000000000000000000000000000000000000000000000000000000000000000000000000000000000000000000000000000000000000000000000000000000000000000000000000000000000000000000000000000000000000000
