This file was generated by Ched 2.7.0.0.
#TITLE ""
#ARTIST ""
#DESIGNER ""
#DIFFICULTY 0
#PLAYLEVEL
#SONGID ""
#WAVE ""
#WAVEOFFSET 0
#JACKET ""
#REQUEST "ticks_per_beat 480"
#00002: 4
#BPM01: 185
#00008: 01
#TIL00: ""
#VOLUME: ""
#HISPEED 00
#MEASUREHS 00
#00114:14
#00112:0014
#00118:00240000
#0011a:00000024
#00214:1414
#0021a:00140014
#00312:1414
#00318:00140000
#0041a:1414
#00414:00140014
#00518:1414
#00512:00140014
#0101a:14140000
#01114:14140000
#01218:14140000
#01418:00140000
#01414:0014
#01412:24
#0161a:14
#01614:00140000
#01618:0014
#01814:14
#01818:00140000
#01812:0014
#02018:14
#02014:00140000
#0201a:0014
#02318:14
#0231a:0014
#02218:0014
#02414:0014
#02514:14
#02512:0014
#02618:0014
#02718:14
#0271a:0014
#02814:0014
#02913:14
#02919:24
#03014:00140000
#03018:0014
#03012:00000014
#0301a:24
#03010:41
#0311a:14
#03114:00140000
#03118:0014
#03112:00000014
#0321a:1414
#03214:00140014
#03418:00140000
#03414:0014
#0341a:00000014
#03412:24
#03512:14
#03518:00140000
#03514:0014
#0351a:00000014
#03612:1414
#03618:00140014
#03814:00140000
#03818:0014
#03812:00000014
#0381a:24
#0391a:14
#03914:00140000
#03918:0014
#03912:00000014
#0401a:14140000
#04014:00001414
#04218:00140000
#04214:0014
#0421a:00000014
#04212:24
#04312:14
#04318:00140000
#04314:0014
#0431a:00000014
#04412:14140000
#04418:00001414
#04718:1414
#04714:00140014
#05514:1414
#05518:00140014
#06414:1414
#06418:00140000
#0641f:11
#0651a:1414
#06512:00140000
#06614:1414
#06618:00140014
#06818:1414
#06814:00140000
#06912:1414
#0691a:00140000
#07018:1414
#07014:00140014
#07414:00140000
#07418:2614
#07412:00000014
#0741f:21
#07518:14
#07514:00140000
#0751a:0014
#07510:41
#07618:00140000
#07612:2414
#0771a:1414
#07714:00140000
#07812:14
#07818:00140000
#07814:0014
#0781a:00000014
#07914:14
#07918:00140000
#07912:0014
#08014:00140000
#08018:0014
#08012:00000014
#0801a:24
#0811a:14
#08114:00140000
#08118:0014
#08112:00000014
#0821a:14140000
#08212:00001414
#08318:1414
#08314:00140000
#08418:00140000
#08414:0014
#0841a:00000014
#08412:24
#08512:14
#08518:00140000
#08514:0014
#0851a:00000014
#08612:14140000
#0861a:00001414
#08714:14
#08718:00140000
#08914:00140000
#08912:00000014
#08918:24
#0891a:0024
#09018:1414
#09014:00140014
#0911a:14141400
#09214:1414
#09218:00140014
#09312:14140000
#0931a:00001414
#05418:24
#07219:24
#09412:26
#00610:41
#08810:41
#04810:41
#05610:41
#01258:00640000
#0135a:0000001400000000
#02254:14
#02358:64
#0235a:0024
#02554:54
#02552:0024
#02758:64
#0275a:0024
#0305a:14
#03358:0014
#03754:0014
#0415a:0014
#04652:14
#05458:14
#06752:0014
#0715a:0014
#07458:16
#0755a:0014
#07952:0014
#0805a:14
#08358:0014
#08854:14
#00254:14
#09058:14
#09452:16
#0063a0:1424
#007340:1424
#008380:1424
#009320:1424
#012380:00140000
#0123a0:0000000000000034
#0133a0:0000002400000000
#0153a0:1424
#017320:1424
#019380:14
#0193a0:0024
#021340:14
#021320:0034
#022340:24
#023380:14
#0233a0:0034
#024380:24
#025340:14
#025320:0034
#026340:24
#027380:14
#0273a0:0034
#028380:24
#0333a0:14
#033390:00340000
#033380:0024
#037320:14
#037330:00340000
#037340:0024
#041380:14
#041390:00340000
#0413a0:0024
#045340:14
#045330:00340000
#045320:0034
#046320:24
#0483a0:14
#048380:0034
#049380:34
#0493a0:0024
#050320:14
#050340:0034
#051340:34
#051320:0024
#052380:14
#0523a0:0034
#0533a0:34
#053380:0034
#054380:24
#056320:14
#057330:34
#058320:34
#059330:24
#0603a0:14
#061390:34
#0623a0:34
#063390:24
#067320:1424
#0713a0:1424
#072330:14
#073330:24
#072391:14
#073391:24
#087341:00001434
#088341:24
