This file was generated by Ched 2.7.0.0.
#TITLE ""
#ARTIST ""
#DESIGNER ""
#DIFFICULTY 0
#PLAYLEVEL
#SONGID ""
#WAVE ""
#WAVEOFFSET 0
#JACKET ""
#REQUEST "ticks_per_beat 480"
#00002: 4
#BPM01: 78
#00008: 01
#TIL00: ""
#VOLUME: ""
#HISPEED 00
#MEASUREHS 00
#00514:14
#00510:41
#00912:14
#0101a:14
#01112:14
#01110:41
#0121a:14
#00414:14
#00418:0014
#00614:14
#00718:14
#00818:14
#01612:0014
#0171a:0014
#02018:0016
#02112:16
#02118:0016
#01918:16
#01910:0041
#02212:16
#02218:0026
#02412:0016
#02518:16
#02512:0016
#02312:16
#02618:16
#02812:0016
#02818:26
#02810:41
#02918:16
#03018:0016
#03012:16
#03212:0016
#03218:26
#03210:41
#03112:16
#03418:0016
#03412:16
#03618:2616
#03610:41
#03718:0016
#03712:16
#03812:1616
#03918:16
#03912:0016
#0131f:11
#01812:0026
#0181f:0021
#002380:14
#003380:24
#013340:14
#014340:00240000
#014380:00000014
#016380:24
#019320:0016
#020320:26
#023380:0016
#024380:26
#026320:00001636
#027320:36362600
#033380:1626
#035320:1626
#040380:16000026
