This file was generated by Ched 2.7.0.0.
#TITLE ""
#ARTIST ""
#DESIGNER ""
#DIFFICULTY 0
#PLAYLEVEL
#SONGID ""
#WAVE ""
#WAVEOFFSET 0
#JACKET ""
#REQUEST "ticks_per_beat 480"
#00002: 4
#BPM01: 78
#00008: 01
#TIL00: ""
#VOLUME: ""
#HISPEED 00
#MEASUREHS 00
#0131f:11
#01316:00000013
#01317:000000000000000000000000000000000000000000000013
#01319:000000000052000000000000005200000000000013000000
#01314:0000000000000013
#0131b:000000120000000052520000000000520000130000000000
#01312:26
#01318:2652
#0131a:000000000000005200000000
#04014:00140000
#04012:2413
#04018:00140062
#0401b:0013
#0401a:24
#04016:00000062
#02715:0000000000130013
#02718:0000000000130013
#02712:24001313
#0271b:00001313
#02713:0000001300000000
#02714:00130000
#0271a:2400001300000000
#02719:00130000
#0321a:2400240000002414
#03212:2400000024140000
#03216:000000000000000000000014000000000000000000000000
#03214:000000000014000000140000000000000000000000000000
#03218:000000140000000014000000000000000000000000000000
#03210:41
#02812:2400240000002414
#0281a:2400000024140000
#02816:000000000000000000000014000000000000000000000000
#02818:000000000014000000140000000000000000000000000000
#02814:000000140000000014000000000000000000000000000000
#02810:41
#03717:0000000000130000
#03719:000000000013000000000000000000000000000000130000
#03716:240000000013
#0371a:0000001300000000
#03713:000000001300000000240000
#0371b:00000013
#03718:000000000000000000000013000000000000000000000000
#03712:0013000000000000
#03714:0024
#03715:00240000
#03912:00140013
#03914:0014000000000013
#03917:000000240000000000001300
#03916:2400000000130000
#0391a:1400001300000000
#03913:000000000000000000000013000000000000000000000000
#03919:00000024
#03918:0024
#03614:000014000000000000140000000000140000000000140000
#03618:000000140000000014000000000014000000000000000000
#03612:240000000000140000000014000000000014000000000000
#0361a:24240024
#03616:0024
#03610:41
#03818:000014000000000000140000000000140000000000140000
#03814:000000140000000014000000000014000000000000000000
#0381a:240000000000140000000014000000000014000000000000
#03812:24240024
#03816:0024
#03518:000000000013
#03515:0000000000000013
#0351b:0000001300001300
#03519:0000000000130000
#03512:2414000013002400
#03516:0024
#0351a:00240000
#03118:0000000000000013
#03115:000000000013
#03112:0000241300001300
#03114:0000000000130000
#0311b:0013
#0311a:2414000000002400
#03116:0024
#03315:000000000013000000130000000000000000000013000000
#03318:000000130000000013000013000000130000000000130000
#03312:24002413
#0331a:00240024
#0341a:240000000000240000000014000000000000140000140000
#03416:0014000024140000
#03414:0000001400000000
#03418:001400
#03412:240000000014000000000000000000000000240000000000
#03012:240000000000240000000014000000000000140000140000
#03016:0014000024140000
#03018:0000001400000000
#03014:001400
#0301a:240000000014000000000000000000000000240000000000
#02915:000000130000000013000013000000130000000000130000
#02918:000000000013000000130000000000000000000013000000
#0291b:00000013
#02912:00240024
#0291a:2424
#02616:0000000000140014
#02618:000000000000000000000013000000000000000000000000
#0261b:230000131300000000230000
#02612:0013000023000000
#02615:0000001300000000
#02515:000000000000000000000013000000130000000000000013
#02512:230000131300000000231300
#02518:000000000000000000130000000000000013000000130000
#0251b:000000130000000000000000230013000000000000000000
#0231b:000000130000130000000000230000000013000000000013
#02312:2313001300001300
#02315:0000000000130013
#02318:000000000000001300001300
#0241b:0000130023130000
#02415:000000130000000000130000000013000000000000130000
#02418:000013000000000000000000000000000000130000000013
#02412:230000000000000000000000000000000013000000000000
#02215:0000001300000000
#02218:000000000000000000000000000000000000000000000013
#02214:0000000000130013
#02216:00000013
#0221b:00002313
#02212:2323
#02112:13001313
#02115:0000001300130013
#0211b:000000001300001300001300
#02118:000000000000000000000013000000000013000000000013
#02116:0024000000000000
#02018:0000001300000000
#02015:0013000000000000
#02012:0000000000130000
#02017:000000000000000000000000000000000000000000000013
#02014:0000000000000013
#02019:000000000013
#0201b:230000000000000000000000230000000013000000000000
#02016:00000013
#01818:000000000000130000000000000000000000000013000013
#01815:000000000013000000000000000000000000130000130000
#01819:0013000000000000
#01814:001300000000000000000000
#0181f:0021
#0181b:0023
#01918:0000160000130000
#01915:000000000000000000000000000000000000000000000013
#0191a:0000000000000013
#01914:000000000013
#01919:00000013
#01913:000000000000000000000000000000000013000000000000
#01912:160000230000000000000000230013000000000000000000
#0191b:0023
#01910:0041
#01715:001200
#01719:001200
#01718:12
#01616:000000000000000000000000000000000000000000000012
#01614:00000012
#0161a:00130000000000000000000012000000
#01617:1200000012120000
#01517:0013
#0151b:00000013
#01516:000000000000520000000000000000000013000000000000
#01514:000000005200001300000000
#01519:0000000000130000
#01512:0000000013000013
#01513:000052520000000000520000000000000000000000000000
#01515:000000000000005200000000000000000000000000000000
#0141b:0013001200000000
#01418:00120026
#01413:0000001200000012
#01416:00120000
#01412:13000026
#01415:000000000000000000000000000000000000000000000052
#01212:0000630000000013
#01215:00000013
#0121b:0000630000000013
#01218:00000013
#01214:000000000000000000000000000000000000000000000000000000000000000000000000000000000000000000000000006300000000000000000000000000000000000000000000000000000000000000000000000000000000000000000000000000000000000000000000000000000000000000000000000000000000000000000000000000000000000000000000000000000000000000000000000000000000000000000000000000000000000000000000000000000000000000000000
#01219:000000000000000000000000000000000000000000000000000000000000000000000000000000000000000000000000006300000000000000000000000000000000000000000000000000000000000000000000000000000000000000000000000000000000000000000000000000000000000000000000000000000000000000000000000000000000000000000000000000000000000000000000000000000000000000000000000000000000000000000000000000000000000000000000
#01118:000000000000000000000000000000000000000000000000000000000000000000000000000000000000000000000000006300000000000000000000000000000000000000000000000000000000000000000000000000000000000000000000130000000000000000000000000000000000000000000000000000000000000000000000000000000000000000000000000000000000000000000000000000000000000000000000000000000000000000000000000000000000000000000000
#01115:000000000000000000000000000000000000000000000000000000000000000000000000000000000000000000000000000000000000000000000000000000000000000000000000000000000000000000000000000000001300000000000000000000000000000000000000000000000000000000000000000000000000000000000000000000000000000000000000006300000000000000000000000000000000000000000000000000000000000000000000000000000000000000000000
#0111a:00630013
#01113:00130063
#01110:41
#00919:00631300
#00914:13000063
#00912:000000000000000000000000000000000000000000000000000000000000000000000000000000000000000000000000000000000000000000000000000000000000000000000000000000000000000000000000000000000000000000000000000000000000000000000000000000000000000000000000000000000000000000000000000000000000000000000000006300000000000000000000000000000000000000000000000000000000000000000000000000000000000000000000
#0091b:000000000000000000000000000000000000000000000000000000000000000000000000000000000000000000000000006300000000000000000000000000000000000000000000000000000000000000000000000000000000000000000000000000000000000000000000000000000000000000000000000000000000000000000000000000000000000000000000000000000000000000000000000000000000000000000000000000000000000000000000000000000000000000000000
#0081a:13000012
#00817:0000000000120000
#00816:000000000012000000000000000000000000000000120000
#00818:000000120000000000000000000000000000000012000000
#00813:13
#00814:00000012
#00815:000012120000
#00819:000000000000000000120012000000000000000000000000
#00714:00000012
#00718:000012120000
#00716:000000000000000000120012000000000000000052000000
#00719:000000000012000000000000005200000000000000000000
#00715:000000120000000000000000000000000000005200000000
#00712:13
#0071b:23333333333333330000000000000000000000000000000000000000000000000000000000000000520000000000000000000000000000000000000000000000
#00717:0000000000000052
#0071a:000000000000005200000000
#00614:00000012
#00617:0000000000120000
#00618:000000000012000000000000000000000000000000120000
#00616:000000120000000000000000000000000000000012000000
#0061a:13000012
#00613:13
#00619:000012120000
#00615:000000000000000000120012000000000000000000000000
#0051a:00000012
#00516:000012120000
#00518:000000000000000000120012000000000000000052000000
#00515:000000000012000000000000005200000000000000000000
#00519:230000120000000000000000000000000000005200000000
#00514:230000000000005200000000
#00510:41
#00517:0000000000000052
#00513:0000000000520000
#00316:12
#00312:00160000
#00318:12160000
#00412:1214131514160000
#0041c:12
#0041b:00130000
#0041a:0014000014000000
#00419:0000001500000000
#00418:0000000000160000
#00214:0000000000120000
#00212:0012
#0021a:0012000000000000
#0021c:12
#01014:00630000
#01012:000000000000000000000000000000000000000000000000000000000000000000000000000000000000000000000000006300000000000000000000000000000000000000000000000000000000000000000000000000000000000000000000000000000000000000000000000000000000000000000000000000000000000000000000000000000000000000000000000000000000000000000000000000000000000000000000000000000000000000000000000000000000000000000000
#01019:00630000
#0101b:000000000000000000000000000000000000000000000000000000000000000000000000000000000000000000000000006300000000000000000000000000000000000000000000000000000000000000000000000000000000000000000000000000000000000000000000000000000000000000000000000000000000000000000000000000000000000000000000000000000000000000000000000000000000000000000000000000000000000000000000000000000000000000000000
#02256:00140000
#0225b:0013
#02252:0013
#02255:0000006300000000
#01753:000000000000000000000000000000000000000000000012
#01758:000000000000000000000014000000000000000000000012
#0175b:000000000000000000000000000000000012000000000000
#01754:000000000000000000000014000000000000000000000000
#01756:000000000000000000000000000000000012000000000000
#01755:006200
#01759:005200
#01458:00521216
#01456:00621200
#01452:13000016
#0145b:0000002200000000
#01453:0000002200000000
#0115b:13
#01152:13
#00452:5224532554261500
#00459:0000002500001500
#0045c:62
#0045b:00630000
#0045a:0024000064000000
#00458:0000000000260000
#02052:00130000
#0205b:0013
#02058:0000005300000000
#02055:0063000000000000
#0195b:0000001300000000
#01952:6613000000000000
#01958:00560000
#01658:0012000000000000
#0165a:00230000000000000000000000000000
#01657:52
#02852:1400000000000054
#0285a:1400000000640000
#04052:5453
#0405a:64
#04054:00640000
#04058:00540000
#0405b:0063
#02156:0014000000000000
#02152:53
#0185b:0013
#01858:00530000
#01352:16
#01358:16
#0365a:14
#03652:14
#03654:0000000000000064
#03252:1400000000540000
#0325a:1400000000000064
#02755:0000000000230023
#02758:0000000000230023
#02752:00005353
#0275b:00006363
#03952:00240000
#03954:0064000000000000
#0395a:24
#03858:0000000000000054
#03552:0054000000000000
#0345a:0000000000000064
#02652:0053000000000000
#0255b:0063000000000000
#02352:0053005300000000
#0235b:00630000
#02455:0063006300000000
#0245b:00630000
#02458:00000053
#0155b:00000013
#01252:0000000000000053
#01255:00000063
#0125b:0000000000000063
#01258:00000053
#00855:0012
#00356:62
#00352:00660000
#00358:52560000
#0315a:0064000000000000
#03052:0000000000000054
#00659:0012
#002380:00120000
#003380:32560000
#0033c0:000000000052000000000000
#0043c0:32
#0043a0:0054000034000000
#0043b0:00330000
#004390:0000005500002500
#004380:0000000000560000
#002361:00000012
#003361:32
#003321:000000560052000000000000
#004321:3254335534562500
#0073b1:13333333333333330000000000000000000000000000000000000000000000000000000000000000000000000000000000000000000000000000000000000000
#007371:0023000000000000
#009391:13230000
#009341:00001323
#010391:13230000
#010340:13230000
#0103b0:000000000000000000000000000000000000130000003333
#0113b0:23
#010321:000000000000000000000000000000000000130000003333
#011321:23
#0113a1:0013230000000000
#011331:000000000000001300230000
#012321:13230000
#0123b0:0013230000000000
#012350:000000000000000000000013000033000000330000000000
#012320:000000000000000000000000000000003300000000330000
#013320:26
#012381:000000000000133300330000
#0123b1:000000000000000000000000000000003300000000330000
#013381:26
#014381:00122200
#0143b1:0000005200000000
#014360:00122200
#014330:0000005200000000
#016370:12
#0163a0:00530000000000000000000000000000
#016380:0022000000000000
#017350:000000000012000032000000000000000000000000000000
#017340:000000000000000000000024000000000000000000000000
#017391:000000123200000000000000
#017381:000000000000000000000024000000000000000000000000
#0173b1:000000000000000000000000000012000022000000000000
#017360:000000000000000000000000000000120022000000000000
#017330:000000000000000000000000000000000000000012000022
#017381:000000000000000000000000000000000000000000120022
#018381:00130000
#0183b1:0023
#018320:0000000013230000
#0183b1:0000000000132300
#019321:1623000000000000
#019381:00160000
#0193b1:0000002300000000
#020351:0013000000000000
#020321:00230000
#020381:0000001300000000
#0203b1:0023
#021321:13
#021361:0024000000000000
#022361:0014240000000000
#022351:0000001300000000
#022321:0023
#023321:0013000000000000
#023351:00230000
#0233b0:00130000
#023380:0000002300000000
#023321:0000001300000000
#023351:0023
#024351:0013000000000000
#024321:00230000
#0243b0:00130000
#024380:0000002300000000
#024351:0000001300000000
#024321:0023
#024381:00000013
#0243b1:0000000000000023
#0253b1:0013000000000000
#025381:00230000
#026321:0013000000000000
#026351:00230000
#027321:00001333
#027351:0000000000530053
#028321:24
#0273b0:00001333
#027380:0000000000530053
#0283a0:24
#0283a0:0000000000140000
#028360:00000024
#028320:0000000000000014
#029360:24
#030320:0000000000000014
#031360:0024000000000000
#0313a1:0014000000000000
#031361:0000002400000000
#032321:0000000000140000
#032361:00000024
#0323a1:0000000000000014
#033361:24
#0343a1:0000000000000014
#035361:0024000000000000
#035320:0014000000000000
#035360:0000002400000000
#036340:0000000000000014
#037320:24
#038380:0000000000000014
#0393a0:54
#039380:0024000000000000
#039341:0014002400000000
#039321:00540000
#0403a1:14
#040381:00540022
#0403b1:0053
#040320:1453
#040340:00540000
#040360:00000022
#005960:0012
#005930:0000000000220000
#0059a0:00000012
#005970:0000000000000022
#007980:0012
#0079b0:0000000000220000
#007940:00000012
#007970:0000000000000022
#0139b0:000000120000000052520000000000220000000000000000
#013990:000000000052000000000000000000000000000000000000
#013980:0052
#014930:0000000000000012
#014950:000000000000000000000000000000000000000000000052
#015930:000052520000000000220000000000000000000000000000
#015960:00520000
