This file was generated by Ched 2.7.0.0.
#TITLE ""
#ARTIST ""
#DESIGNER ""
#DIFFICULTY 0
#PLAYLEVEL
#SONGID ""
#WAVE ""
#WAVEOFFSET 0
#JACKET ""
#REQUEST "ticks_per_beat 480"
#00002: 4
#BPM01: 78
#00008: 01
#TIL00: ""
#VOLUME: ""
#HISPEED 00
#MEASUREHS 00
#00618:0000130000001313
#00615:000000130013
#00612:13
#0061b:13
#01918:0000000000130013
#01915:00000013
#0191a:14
#01912:00140000
#01916:0024000000000000
#01910:0041
#02018:00000013
#02015:0000000000000013
#0201a:00140000
#02016:0014001400000000
#02012:2424
#02918:0013000023000013
#02912:2300001300000000
#02915:000000000000230000000000000000130000000013000000
#0291b:23000023
#02718:00130013
#02715:0000001300001300
#0271b:2313
#02712:2313
#0241b:2300000023001313
#02412:0013130023000000
#02415:2300000000131300
#02418:0000131300000000
#0211a:0000001400000014
#0211b:13
#02112:1300000000140000
#02116:00001414
#02118:0023000000000000
#02115:0023000000000000
#03015:0013000023000000
#03012:2300001300002300
#03018:000000000000230000000013000000000000000000000000
#0301b:2300000000130013
#03718:000000000000240000000014000000000000000014000000
#03712:2400001400002400
#0371a:2400000000140000
#03719:0014000000000000
#03714:000000000014000000000000240000000000000000140000
#03618:000000000000140000000014000000000000240000000000
#03614:000000000000000000000000240000000014000000140000
#03619:0014000000000000
#03613:0000001400000000
#0361a:2400000000140000
#03612:24240000
#03610:41
#0071b:1300000000535300
#00712:13
#00715:00130000
#00718:0000000013000053
#00719:000000000000000000000000005300000000000053000000
#0071a:000000000000000000000000000053000000005300000000
#01115:0000130000130000
#0111b:0013
#01118:0013000000001300
#01110:41
#02518:2300000000002313
#0251b:0013001323000000
#02515:0013000023130000
#02512:23000023
#03318:0013001323000013
#03312:0000230000130000
#03315:230000000000000000000013000000000000000013000000
#0331b:13000023
#0321b:2313000000130000
#03215:000000000013000000000000230000000000000000000000
#03212:2300001300002300
#03218:000000000000230000000013000000000000000000130000
#03210:41
#03512:0013
#03518:000000000000000000000000000000130000000013000000
#03515:0000000000002313
#03516:0013000000000000
#0351b:0023
#04018:0014
#04014:0014
#0401a:24140000
#04012:24140063
#0401b:00000063
#00218:13
#00215:0013
#00318:13
#00315:13
#00312:0054
#0031a:0054
#00419:13131300
#00414:13131300
#00413:00000015
#00418:00000015
#00518:00130000
#00515:0000000013000053
#0051b:23
#00512:2300000000535300
#00510:41
#00514:000000000000000000000000005300000000000053000000
#00513:000000000000000000000000000053000000005300000000
#00815:0000130000001313
#00818:000000130013
#0081b:13
#00812:13
#01215:13000013
#01218:0013000000001300
#01212:00131300
#0121b:00131300
#01318:00131300
#01315:0000001300000000
#01312:23000014
#01316:0000000000000014
#0131f:11
#0131b:23
#01515:13130000
#01518:0013000000000000
#01516:0000000000140014
#0151a:0014
#01512:00000014
#01416:0014000000000000
#0141a:14
#01412:00140023
#0141b:00000023
#0161a:14
#01615:00001313
#01618:0000000000130000
#0171b:13
#01712:13
#01812:000000000033130000000000000000000000000000000000
#0181b:000000000033130000000000000000000000000000000000
#01815:1300000023000013
#01818:13002313
#0181f:0021
#01819:000033330000000000000000000000000000000000000000
#01814:000033330000000000000000000000000000000000000000
#02215:0000001300001300
#02218:0000001300000013
#02212:0023
#0221b:0023
#0231b:23132300
#02312:23132300
#02314:0000000000130000
#02319:0000000000000013
#02316:00000014
#02315:0013000000000000
#02318:0000001300000000
#02612:0013000000000000
#02618:0013000000000000
#0261b:23
#02614:0023
#0261a:00000023
#02615:23
#02619:0023
#02613:00000023
#02818:0013000023000000
#0281b:2300001300002300
#02815:000000000000230000000013000000000000000000130000
#02812:2300000000130000
#02810:41
#03117:0013000000000000
#03118:000000000000000000000000000000130000000013000000
#03115:0000000023000013
#03112:00000023
#03412:2313000000130013
#03418:000000000013000000000000230000000000000000000000
#0341b:2300001300002300
#03415:000000000000230000000013000000000000000000000000
#03814:000000000000140000000014000000000000240000000000
#03818:000000000000000000000000240000000014000000000000
#03813:0014000000000000
#03819:0000001400000000
#03812:2400000000140000
#0381a:2400240000000014
#03916:0014000000000000
#0391a:0000000000140000
#03918:000000000014
#03914:0000000024000014
#03912:00000024
#0145b:00000013
#01452:00540013
#01456:0014
#0325b:13
#03252:13
#01352:13
#0135b:13
#0275b:0063
#02752:0053
#02755:00000063
#02758:00000053
#0285b:13
#02852:13
#04058:0054
#04054:0064
#0405a:00640000
#04052:00540000
#00358:53
#00355:63
#00458:00000015
#00453:00000015
#00655:0013
#00858:0013
#0095b:00130000
#00952:00000013
#01058:00130000
#01152:13
#01155:00130000
#01158:00000013
#01252:00135300
#0125b:00136300
#01258:00000053
#01255:00000063
#0165a:64
#01656:00140000
#0175b:63
#01758:00130000
#01752:53
#01755:00130000
#01858:5313
#01852:00530000
#01855:6313
#0185b:00630000
#0195a:64
#01952:00540000
#01956:0014001400000000
#02052:0014
#0215b:63
#02158:0013000000000000
#02152:53
#02155:0013000000000000
#02256:0014000000000000
#02255:0000006300000000
#02252:0013
#02258:0000005300000000
#0225b:0013
#0255b:0013000000000000
#02555:0013000000000000
#02652:0013000000000000
#02658:0013000000000000
#0305b:0000000000000063
#03157:0053000000000000
#03556:0063000000000000
#03452:0000000000000053
#0385a:0000000000000064
#03956:0054000000000000
#002380:00130000
#003380:33
#0033a0:0024
#002351:00000013
#003351:33
#003321:0024
#0093b1:13230000
#009321:00001323
#010381:13230000
#010351:00000013
#011321:23
#012321:0013
#012351:00000033
#013321:23
#0123b0:0013
#012380:00000033
#0133b0:23
#014320:00140000
#014360:0024
#0163a0:14
#016360:00240000
#0173b0:13
#017380:00230000
#017321:13
#017351:00230000
#017381:0000000013330000
#018381:3323
#018391:000033330000000000000000000000000000000000000000
#0183b1:000000000033330000000000000000000000000000000000
#017350:0000000000001333
#018350:3323
#018340:000033330000000000000000000000000000000000000000
#018320:000000000033330000000000000000000000000000000000
#0193a0:14
#019360:0024000000000000
#019320:00140000
#019360:0000002400000000
#0213b0:13
#021380:0023000000000000
#021321:13
#021351:0023000000000000
#022361:1424000000000000
#022351:0000001300000000
#022321:0023
#022380:0000001300000000
#0223b0:0023
#0273b0:0013
#027380:00000033
#0283b0:23
#027321:0013
#027351:00000033
#028321:23
#0303b1:0000000000000013
#031371:0033000000000000
#0313b1:0000002300000000
#034321:0000000000000013
#035361:0033000000000000
#035321:0000002300000000
#0383a1:0000000000000014
#039361:0034000000000000
#0393a1:0000002400000000
#0403a1:14540000
#040381:0054
#0403b1:00000023
#040320:14540023
#040340:0054
#005950:000000000000000000000000000000000000000000000000000000000000000000000000000000000000000000000000000000000000000000000000000000000000000000000000000000000000000000000000000000000000000000000000000000000000000000000000000000000000000000000000000000000000000000000000000000000000000000000000000000000000000000000000000000000000000000000000000000000000000000000000000000000000000000000000000000000000000000000000000000000000000000000000000000000000000000000000000000000000000000000000000000000000000000000000000000000000000000000000000000000000000000000000000000000000000000000000000000000000000000000000000000000000000000000000000000000000000000000000000000000000000000000000000000000000000000000000000000000000000000000000000000000000000000000000000000000000000000000000000000000000000000000000000000000000000000000000000000000000000000000000000000000000000000000000000000000000000000000000000000000000000000000000000000000000000000000000000000000000000000000000000000000000000000000000000000000000000000000000000000000000000000000000000000000000000000000000000000000000000000000000000000000000000000000000000000000000000000000000000000000000000000000000000000000000000000000000000000000000000000000000000000000000000000000000000000000000000000000000000000000000000000000000000000000000000000000000000000000000000000000000000000000000000000000000000000000000000000000000000000000000000000000000000000000000000000000000000000000000000000000000000000000000000000000000000000000000000000000000000000000000000000000000000000000000000000000000000000000000000000000000000000000000000000000000000000000000000000000000000000000000000000000000000000000000000000000000000000000000000000000000000000000000000000000000000000000000000000000000000000000000000000000000000000000000000000000000000000000000000000000000000000000000000000000000000000000000000000000000000000000000000000000000000000000000000000000000000000000000000000000000130000000000000000000000000000000000000000000000000000000000000000000000000000000000000000000000000000000000000000000000000000000000000000000000000000000000000000000000000000000000000000000000000000000000000000000000000000000000000000000000000000000000000000000000000000000000000000000000000000000000000000000000000000000000000000000000000000000000000000000000000000000000000000000000000000000000000000000000000000000000000000000000000000000000000000000000000000000000000000000000000000000000000000000000000000000000000000000000000000000000000000000000000000000000000000000000000000000000000000000000000000000000000000000000000000000000000000000000000000000000000000000000000000000000000000000000000000000000000000000000000000000000000000000000000000000000000000000000000000000000000000000000000000000000000000000000000000000000000000000000000000000000000000000000000000000000000000000000000000000000000000000000000000000000000000000000000000000000000000000000000000000000000000000000000000000000000000000000000000000000000000000000000000000000000000000000000000000000000000000000000000000000000000000000000000000000000000000000000000000000000000000000000000000000000000000000000000000000000000000000000000000000000000000000000000000000000000000000000000000000000000000000000000000000000000000000000000000000000000000000000000000000000000000000000000000000000000000000000000000000000000000000000000000000000000000000000000000000000000005353230000000000000000000000000000000000000000000000000000000000000000000000000000000000000000000000000000000000000000000000000000000000000000000000000000000000000000000000000000000000000000000000000000000000000000000000000000000000000000000000000000000000000000000000000000000000000000000000000000000000000000000000000000000000000000000000000000000000000000000000000000000000000000000000000000000000000000000000000000000000000000000000000000000000000000000000000000000000000000000000
#005920:0000000000535300
#007980:000000000000000000000000000000000000000000000000000000000000000000000000000000000000000000000000000000000000000000000000000000000000000000000000000000000000000000000000000000000000000000000000000000000000000000000000000000000000000000000000000000000000000000000000000000000000000000000000000000000000000000000000000000000000000000000000000000000000000000000000000000000000000000000000000000000000000000000000000000000000000000000000000000000000000000000000000000000000000000000000000000000000000000000000000000000000000000000000000000000000000000000000000000000000000000000000000000000000000000000000000000000000000000000000000000000000000000000000000000000000000000000000000000000000000000000000000000000000000000000000000000000000000000000000000000000000000000000000000000000000000000000000000000000000000000000000000000000000000000000000000000000000000000000000000000000000000000000000000000000000000000000000000000000000000000000000000000000000000000000000000000000000000000000000000000000000000000000000000000000000000000000000000000000000000000000000000000000000000000000000000000000000000000000000000000000000000000000000000000000000000000000000000000000000000000000000000000000000000000000000000000000000000000000000000000000000000000000000000000000000000000000000000000000000000000000000000000000000000000000000000000000000000000000000000000000000000000000000000000000000000000000000000000000000000000000000000000000000000000000000000000000000000000000000000000000000000000000000000000000000000000000000000000000000000000000000000000000000000000000000000000000000000000000000000000000000000000000000000000000000000000000000000000000000000000000000000000000000000000000000000000000000000000000000000000000000000000000000000000000000000000000000000000000000000000000000000000000000000000000000000000000000000000000000000000000000000000000000000000000000000000000000000000000000000000000000000000000000000000000000130000000000000000000000000000000000000000000000000000000000000000000000000000000000000000000000000000000000000000000000000000000000000000000000000000000000000000000000000000000000000000000000000000000000000000000000000000000000000000000000000000000000000000000000000000000000000000000000000000000000000000000000000000000000000000000000000000000000000000000000000000000000000000000000000000000000000000000000000000000000000000000000000000000000000000000000000000000000000000000000000000000000000000000000000000000000000000000000000000000000000000000000000000000000000000000000000000000000000000000000000000000000000000000000000000000000000000000000000000000000000000000000000000000000000000000000000000000000000000000000000000000000000000000000000000000000000000000000000000000000000000000000000000000000000000000000000000000000000000000000000000000000000000000000000000000000000000000000000000000000000000000000000000000000000000000000000000000000000000000000000000000000000000000000000000000000000000000000000000000000000000000000000000000000000000000000000000000000000000000000000000000000000000000000000000000000000000000000000000000000000000000000000000000000000000000000000000000000000000000000000000000000000000000000000000000000000000000000000000000000000000000000000000000000000000000000000000000000000000000000000000000000000000000000000000000000000000000000000000000000000000000000000000000000000000000000000000000000000000005353230000000000000000000000000000000000000000000000000000000000000000000000000000000000000000000000000000000000000000000000000000000000000000000000000000000000000000000000000000000000000000000000000000000000000000000000000000000000000000000000000000000000000000000000000000000000000000000000000000000000000000000000000000000000000000000000000000000000000000000000000000000000000000000000000000000000000000000000000000000000000000000000000000000000000000000000000000000000000000000000
#0079b0:0000000000535300
