This file was generated by Ched 2.7.0.0.
#TITLE ""
#ARTIST ""
#DESIGNER ""
#DIFFICULTY 0
#PLAYLEVEL
#SONGID ""
#WAVE ""
#WAVEOFFSET 0
#JACKET ""
#REQUEST "ticks_per_beat 480"
#00002: 4
#BPM01: 78
#00008: 01
#TIL00: ""
#VOLUME: ""
#HISPEED 00
#MEASUREHS 00
#02718:14000014
#02714:00140000
#00218:14
#00214:0014
#01314:00000014
#01312:00140000
#0131a:2414
#0131f:11
#04014:0014
#04012:14
#00514:00140014
#00518:1414
#00510:41
#0061a:1414
#00612:00140000
#00718:00140014
#00714:1414
#00812:1414
#0081a:00140000
#00918:1414
#01014:1414
#0111a:1414
#01110:41
#01212:1414
#01418:1414
#01414:00140000
#01412:00000024
#01518:0014
#0151a:14
#01512:00140000
#01514:00000014
#01618:14
#01614:00140000
#01812:00000014
#0181a:0024
#0181f:0021
#01914:00000014
#01910:0041
#0201a:14
#02016:00140000
#0221a:00000014
#02212:0024
#02318:00000014
#02412:14
#02416:00140000
#02618:0014
#02614:00000014
#02812:00140000
#0281a:24
#02810:41
#02914:00140014
#02918:0014
#0301a:14
#03016:00140000
#03012:0014
#03114:0014
#03118:00000014
#0321a:00140000
#03212:24
#03210:41
#03318:00140014
#03314:0014
#03412:14
#03416:00140000
#0341a:0014
#03518:0014
#03514:00000014
#03612:00140000
#03618:0000001400000000
#0361a:24
#03610:41
#0381a:14
#03814:00141400
#03818:0000001400000000
#03716:00140000
#0371a:0014
#03712:00000014
#03912:0014
#0391a:00000014
#02758:00000054
#0285a:14
#0185a:0014
#01854:00140000
#04054:0064
#04052:54
#00454:00000014
#01458:0014
#02154:0014000000000000
#02252:0014
#0225a:0014000000000000
#02558:0014000000000000
#02652:0014000000000000
#03252:14
#0365a:14
#003320:1424
#0033a1:1424
#004341:14343424
#016381:00001434
#017381:34240000
#017341:00001434
#018341:34240000
#0193a1:1424
#019381:00340000
#020321:0014
#020341:00000034
#021341:3424000000000000
#021381:0014
#0213a1:00000034
#0223a1:3424000000000000
#023321:1424
#023341:00340000
#0243a1:0014
#024381:00000034
#025381:3424000000000000
#025341:0014
#025321:00000034
#026321:3424000000000000
#027381:00001434
#0283a1:24
#028381:0014
#0283a1:00000034
#029381:24
#0303a1:0000000000001434
#031381:00240000
#032341:0014
#032321:00000034
#033341:24
#034321:0000000000001434
#035341:00240000
#036321:0014
#036341:00000034
#037321:24
#038381:0000000000001434
#0393a1:00240000
#040321:14000023
#040341:00545400
