This file was generated by Ched 2.7.0.0.
#TITLE ""
#ARTIST ""
#DESIGNER ""
#DIFFICULTY 0
#PLAYLEVEL
#SONGID ""
#WAVE ""
#WAVEOFFSET 0
#JACKET ""
#REQUEST "ticks_per_beat 480"
#00002: 4
#BPM01: 145
#00008: 01
#TIL00: ""
#VOLUME: ""
#HISPEED 00
#MEASUREHS 00
#00115:00000000000000520000000000001300
#0021b:13
#00215:00130013
#00218:0013000000000013
#00212:0000001300000000
#0021a:0014
#00210:41
#02718:00000013001300000000000000001300
#02715:00000013
#02712:0013131300000000
#0271b:13
#0271a:0024
#00515:00001300130000000000000000000013
#00518:00000013000000000000000000001300
#0051a:1400001400000000
#00512:0014
#00312:1314
#00315:0013000000000013
#00318:00130013
#0031b:0000001300000000
#0041a:14
#00412:0013000000000013
#00415:00130013
#00418:0000001300130000
#0041b:0013
#0061a:14
#00615:00001300000000130033330000000000
#00618:00000013000013000000000000000000
#00612:00140000
#0071a:14
#00715:00001300000000130000000000000000
#00718:00000013000013001300330000000000
#00712:00140000
#00814:1313130000000000
#00817:00130013000000000000000000000000
#00819:0000000013131300
#00816:00000000000000000013001300000000
#01012:0014000000000000
#01018:00000000130000130000001300000000
#01015:00000000001300000000000000000000
#0101b:00000000000000000013000000330000
#0101a:24
#01010:41
#0111a:0014000000000000
#01115:00000000130000130000001300000000
#01118:00000000001300000000000000000000
#01112:14000000000000000013000000330000
#01212:0014000000000000
#01218:00000000130000130000001300000000
#01215:00000000001300000000000000000000
#0121a:14
#0121b:00000000000000000013000000330000
#01315:13131300
#01318:0013001300001300
#01319:00000000000000000000000000530000
#0131a:0000000000000053
#0131b:00000000000000000000000000000053
#01312:00000000000000000000005300000000
#01313:0000000000530000
#01314:00000000000000000053000000000000
#0141a:00000000000000140000000000000000
#01416:00000000000000000014000000000000
#01412:00000000240000000000001400000000
#01418:00000000000000000000000000130000
#01415:0000000000000013
#01512:00000000000000140000000000000000
#01516:00000000000000000014000000000000
#0151a:00000000000000000000001400000000
#01515:00000000000000000000000000130000
#01518:0000000000000013
#0161a:00000000000000140000000000000000
#01616:00000000000000000014000000000000
#01612:00000000000000000000001400000000
#01618:00000000000000000000000000130000
#01615:0000000000000013
#01715:0000000000000013
#0181a:14
#01812:0013000013000000
#01818:0000131300001300
#01815:00000000001300000000000000001300
#01815:00000000001300000000000000000000
#01810:41
#01918:00000000000000130000000013000000
#01915:0000001313000013
#01915:0000001300000000
#0191a:14
#01912:0013000000000000
#0191b:00130000
#0211b:1313000000000000
#02115:00130013000000000000000000000000
#02118:0000131300000000
#02112:00000000001300130000000024000000
#0211a:00001424
#0221b:1353
#0221a:00530000000000530053000000000000
#02219:0053005300530000
#02218:00000053005300000000005300000000
#02217:00530053
#02312:1353
#02313:00530000000000530053000000000000
#02314:0053005300530000
#02315:00000053005300000000005300000000
#02316:00530053
#0241a:1400001400000000
#02412:14140000
#02415:0000000013131300
#02418:00000000000000000013001300000000
#02518:0000000000000013
#02618:00130000000000000000130000000000
#02612:2313000024000000
#0261b:0000131300000013
#02615:00000000001300000000000013000013
#02610:41
#02817:00130013000000000000000000000000
#02812:2313131300000000
#02816:00000000000000000013001300000000
#0281b:0000000023131313
#02917:00130000000000000000000000000000
#02912:2313000024000000
#02916:00000000001300000000000000000000
#0291b:0000231300000000
#02918:0000000000000013
#02915:00000000000000000000000000000013
#03212:1400001400000000
#0321a:14140000
#03218:0000000013131300
#03215:00000000000000000013001300000000
#03412:00140000
#03418:00000000000000130013001300000000
#03415:0000000013131300
#0341f:11
#0341a:24
#0351b:0000001300000000
#03518:0013
#03515:0000000000130000
#0351a:00000024
#03512:23000024
#0361a:00140000
#03615:00000000000000130013001300000000
#03618:0000000013131300
#03612:14
#03712:0000001300002400
#03715:0013
#03718:0000000000130000
#0371a:00000024
#0371b:23
#03812:14000024
#03818:0000130000130000
#03815:0013
#0391a:14000024
#03915:0000130000130000
#03918:0013
#04012:14
#04013:00140000
#04017:00000013000000000000000000000000
#04014:0014
#04018:00000000000000130000000000000000
#0401a:1400000000140000
#04015:00000014
#04118:00000013000013000000000000000000
#04115:00131300
#0411a:0000000000140000
#04114:0000000000000013
#04119:0000000000000013
#04614:0000140000140000
#04618:00000014
#0461a:2400002424000000
#04612:0000000000000024
#04718:0014000000002400
#04714:0000140000140014
#0471a:0000001424000000
#04712:24
#04812:00240014
#04815:0014
#04818:26
#04915:14
#04912:0014
#0491a:0014
#05018:0000000000002414
#0501a:0000241400000000
#05014:0000000024140000
#05112:2414000024140000
#0511a:0000241400000000
#05114:0000000000000014
#05118:00000024
#05214:0000000000002414
#05212:0000241400000000
#05218:0000000024140000
#0521a:24
#05318:2600000026160000
#05315:00000026000000000000000000000000
#05312:0000002600002600
#05418:0000001400000014
#05412:0000000000140000
#0541a:00240024
#05414:0024
#05512:0014000000140000
#0551a:0000001400000014
#05514:24
#05517:00240000
#05515:0024
#05518:00000024
#0561a:00240014
#05617:0014
#05615:00140014
#05612:2414
#05717:14
#0571a:0014
#05715:0014
#05712:24
#05818:0000000000000013
#05912:1314
#05918:00130013
#05915:0013000000000013
#0591b:0000001300000000
#05910:41
#06218:00001300130013000000000000000013
#06215:00000013001300000000000000001300
#06212:1414
#0621a:00000014
#0601b:13
#06018:0013000000000013
#06015:00130013
#06012:0000001300000000
#0601a:0014
#06112:1413
#0611b:0013000000000013
#06118:00130013
#06115:0000001300130000
#06316:00343434003434140034343400000000
#06312:14
#06416:00340034343400341434343400000000
#0641a:14
#06512:1400000000000014
#06517:00000013000000000000000000000000
#06513:00140000
#06518:00000000000000130000000000000000
#06514:0014
#0651a:0000000000140000
#06516:00000014
#06615:00000016
#04212:2400240000000024
#0421a:24000024
#04214:0000002400000000
#04216:0024
#04218:0000000000240000
#0421f:21
#0201a:24343434000000000000000000000000
#02012:00000000000000000034343400000000
#0301a:2464
#03019:00640000000000640064000000000000
#03018:0064006400640000
#03017:00000064006400000000006400000000
#03016:00640064
#03112:2464
#03113:00640000000000640064000000000000
#03114:0064006400640000
#03115:00000064006400000000006400000000
#03116:00640064
#04314:2400000000240000
#04316:0024000000002400
#04318:0000240000000024
#0431a:0000002400000000
#04312:0024
#04310:41
#0441a:0000240000000024
#04418:0000002400000000
#04416:0024
#04414:0000000000240000
#04412:24000024
#04518:2400000000240000
#04516:0024000000002400
#04514:0000240000000024
#04512:0000002400000000
#0451a:0024
#00019:00000000000000520000000000000000
#04252:14
#0425a:14
#00652:00000013
#00655:00000000000000630000000000000000
#00758:0053
#0075b:00000013
#00854:00130000
#00859:00000013
#00952:0014
#0095a:0014
#0105b:00000000000000000063000000001300
#01058:00000000000000630000006300000000
#01155:00000000000000530000005300000000
#01152:00000000000000000053000000001300
#01258:00000000000000630000006300000000
#0125b:00000000000000000063000000001300
#01452:00140000
#0155a:00140000
#01652:00140000
#0205a:00140000
#02052:00000014
#02554:0014
#02558:0014
#02952:0014
#03358:0014
#03354:0014
#0345a:14
#03452:00140000
#03455:00000063
#03552:13
#0365a:00140000
#03658:00000053
#03652:14
#0375b:13
#03852:64000014
#03858:00630000
#0395a:54000014
#03955:00530000
#04152:14
#0415a:0000000000140000
#04055:00000064
#04452:14
#0465a:14
#04858:16
#04852:00640064
#04855:0064
#04955:64
#04952:0064
#0495a:0064
#05054:14
#05058:14
#0525a:14
#05452:16
#05652:14
#0565a:00540054
#05657:0054
#05757:54
#05752:64
#05755:0024
#0575a:0024
#05857:14
#05852:14
#06352:64000014
#06356:00000000000000640000000000000000
#0645a:54000014
#06456:0064
#06655:0016
#000390:12000000000000220000000000000000
#001350:12000000000000220000000000000000
#006350:00000000000000130033330000000000
#006320:00000023
#007380:0000000013330000
#0073b0:00000023
#009320:14000034000034002400000000000000
#0093a1:14000034000034002400000000000000
#010381:00000000000000130000003300000000
#0103b1:00000000000000000033000000332300
#011351:00000000000000130000003300000000
#011321:00000000000000000033000000332300
#012381:00000000000000130000003300000000
#0123b1:00000000000000000033000000332300
#014321:14240000
#0153a1:14240000
#016321:14240000
#0173a1:1400340034342400
#0203a1:14343434240000000000000000000000
#020321:00000000000000001434343424000000
#025321:1400543400000000
#025341:00540034000000542400000000000000
#0253a0:1400543400000000
#025380:00540034000000542400000000000000
#0333a0:1400543400000000
#033380:00540034000000542400000000000000
#033321:1400543400000000
#033341:00540034000000542400000000000000
#034351:00000013
#035321:23
#036381:00000013
#0373b1:23
#038321:14
#038351:00230000
#038380:00130000
#0383a0:0024
#0393a0:14
#039380:00230000
#039351:00130000
#039321:0024
#040351:00000014
#041321:24
#048321:00140034
#048351:0034
#049351:34
#049321:0034
#050341:24
#0493a0:0014
#050380:24
#053320:00000000000000000000000016363600
#054320:26
#0563a0:00140034
#056370:0034
#057370:34
#0573a0:0054
#058370:24
#057321:14
#057351:0054
#058321:24
#063321:14000024
#063361:00343434003434340034343400000000
#0643a1:14000024
#064361:00340034343400343434343400000000
#066351:16000036000036002600000000000000
#013950:0013
#013920:000000000000000000000000000000000000000000000000000000000000000000000000000000000000000000000000000000000000000000000000000000000000000000000000000000000000000000000000000000000000000000000000000000000000000000000000000000000000000000000000000000000000000000000000000000000000000000000000000000000000000000000000000000000000000000000000000000000000000000000000000000000000000000000000000000000000000000000000000000000000000000000000000000000000000000000000000000000000000000000000000000000000000000000000000000000000000000000000000000000000000000000000000000000000000000000000000000000000000000000000000000000000000000000000000000000000000000000000000000000000000000000000000000000000000000000000000000000000000000000000000000000000000000000000000000000000000000000000000000000000000000000000000000000000000000000000000000000000000000000000000000000000000000000000000000000000000000000000000000000000000000000000000000000000000000000000000000000000000000000000000000000000000000000000000000000000000000000000000000000000000000000000000000000000000000000000000000000000000000000000000000000000000000000000000000000000000000000000000000000000000000000000000000000000000000000000000000000000000000000000000000000000000000000000000000000000000000000000000000000000000000000000000000000000000000000000000000000000000000000000000000000000000000000000000000000000000000000000000000000000000000000000000000000000000000000000000000000000000000000000000000000000000000000000000000000000000000000000000000000000000000000000000000000000000000000000000000000000000000000000000000000000000000000000000000000000000000000000000000000000000000000000000000000000000000000000000000000000000000000000000000000000000000000000000000000000000000000000000000000000000000000000000000000000000000000000000000000000000000000000000000000000000000000000000000000000000000000000000000000000000000000000000000000000000000000000000000000000000000000000000000000000000000000000000000000000000000000000000000000000000000000000000000000000000000000000000000000000000000000000000000000000000000000000000000000000000000000000000000000000000000000000000000000000000000000000000000000000000000000000000000000000000000000000000000000000000000000000000000000000000000000000000000000000000000000000000000000000000000000000000000000000000000000000000000000000000000000000000000000000000000000000000000000000000000000000000000000000000000000000000000000000000000000000000000000000000000000000000000000000000000000000000000000000000000000000000000000000000000000000000000000000000000000000000000000000000000000000000000000000000000000000000000000000000000000000000000000000000000000053230000000000000000000000000000000000000000000000000000000000000000000000000000000000000000000000000000000000000000000000000000000000000000000000000000000000000000000000000000000000000000000000000000000000000000000000000000000000000000000000000000000000000000000000000000000000000000000000000000000000000000000000000000000000000000000000000000000000000000000000000000000000000000000000000000000000000000000000000000000000000000000000000000000000000000000000000000000000000000000000000000000000000000000000000000000000000000000000000000000000000000000000000000000000000000000000000000000000000000000000000000000000000000000000000000000000000000000000000000000000000000000000000000000000000000000000000000000000000000000000000000000000000000000000000000000000000000000000000000000000000000000000000000000000000000000000000000000000000000000000000000000000000000000000000000000000000000000000000000000000000000000000000000000000000000000000000000000000000000000000000000000000000000000000000000000000000000000000000000000000000000000000000000000000000000000000000000000000000000000000000000000000000000000000000000000000000000000000000000000000000000000000000000000000000000000000000000000000000000000000
#013980:00000013
#0139b0:000000000000000000000000000000000000000000000000000000000000000000000000000000000000000000000000000000000000000000000000000000000000000000000000000000000000000000000000000000000000000000000000000000000000000000000000000000000000000000000000000000000000000000000000000000000000000000000000000000000000000000000000000000000000000000000000000000000000000000000000000000000000000000000000000000000000000000000000000000000000000000000000000000000000000000000000000000000000000000000000000000000000000000000000000000000000000000000000000000000000000000000000000000000000000000000000000000000000000000000000000000000000000000000000000000000000000000000000000000000000000000000000000000000000000000000000000000000000000000000000000000000000000000000000000000000000000000000000000000000000000000000000000000000000000000000000000000000000000000000000000000000000000000000000000000000000000000000000000000000000000000000000000000000000000000000000000000000000000000000000000000000000000000000000000000000000000000000000000000000000000000000000000000000000000000000000000000000000000000000000000000000000000000000000000000000000000000000000000000000000000000000000000000000000000000000000000000000000000000000000000000000000000000000000000000000000000000000000000000000000000000000000000000000000000000000000000000000000000000000000000000000000000000000000000000000000000000000000000000000000000000000000000000000000000000000000000000000000000000000000000000000000000000000000000000000000000000000000000000000000000000000000000000000000000000000000000000000000000000000000000000000000000000000000000000000000000000000000000000000000000000000000000000000000000000000000000000000000000000000000000000000000000000000000000000000000000000000000000000000000000000000000000000000000000000000000000000000000000000000000000000000000000000000000000000000000000000000000000000000000000000000000000000000000000000000000000000000000000000000000000000000000000000000000000000000000000000000000000000000000000000000000000000000000000000000000000000000000000000000000000000000000000000000000000000000000000000000000000000000000000000000000000000000000000000000000000000000000000000000000000000000000000000000000000000000000000000000000000000000000000000000000000000000000000000000000000000000000000000000000000000000000000000000000000000000000000000000000000000000000000000000000000000000000000000000000000000000000000000000000000000000000000000000000000000000000000000000000000000000000000000000000000000000000000000000000000000000000000000000000000000000000000000000000000000000000000000000000000000000000000000000000000000000000000000000000000000000000000000000000000000000000000000000000000000000000000000000000000000000000000000000000000000000000000000000000000000000000000000000000000000000000000000000000000000000000000000000000000000000000000000000000000000000000000000000000000000000000000000000000000000000000000000000000000000000000000000000000000000000000000000000000000000000000000000000000000000000000000000000000000000000000000000000000000000000000000000000000000000000000000000000000000000000000000000000000000000000000000000000000000000000000000000000000000000000000000000000000000000000000000000000000000000000000000000000000000000000000000000000000000000000000000000000000000000000000000000000000000000000000000000000000000000000000000000000000000000000000000000000000000000000000000000000000000000000000000000000000000000000000000000000000000000000000000000000000000000000000000000000000000000000000000000000000000000000000000000000000000000000000000000000000000000000000000000000000000000000000000000000053230000000000000000000000000000000000000000000000000000000000000000000000000000000000000000000000000000000000000000000000000000000000000000000000000000000000000000000000000000000000000000000000000000000000000000000000000000000000000000000000
#0229b0:1353
#022970:000000000000000000000000000000000000000000000000000000000000000000000000000000000000000000000000000000000000000000000000000000000000000000000000000000000000000000000000000000000000000000000000000000000000000000000000000000000000000000000000000000000000000000000000000000000000000000000000000000000000000000000000000000000000000000000000000000000000000000000000000000000000000000000000000000000000000000000000000000000000000000000000000000000000000000000000000000000000000000000000000000000000000000000000000000000000000000000000000000000000000000000000000000000000000000000000000000000000000000000000000000000000000000000000000000000000000000000000000000000000000000000000000000000000000000000000000000000000000000000000000000000000000000000000000000000000000000000000000000000000000000000000000000000000000000000000000000000000000000000000000000000000000000000000000000000000000000000000000000000000000000000000000000000000000000000000000000000000000000000000530000000000000000000000000000000000000000000000000000000000000000000000000000000000000000000000000000000000000000000000000000000000000000000000000000000000000000000000000000000000000000000000000000000000000000000000000000000000000000000000000000000000000000000000000000000000000000000000000000000000000000000000000000000000000000000000000000000000000000000000000000000000000000000000000000000000000000000000000000000000000000000000000000000000000000000000000000000000000000000000000000000000000000000000000000000000000000000000000000000000000000000000000000000000000000000000000000000000000000000000000000000000000000000000000000000000000000000000000000000000000000000000000000000000000000000000000000000000000000000000000000000000000000000000000000000000000000000000000000000000000000000000000000000000000000000000000000000000000000000000000000000000000000000000000000000000000000000000000000000000000000000000000000000000000000000000000000000000000000000000000000000000000000000000000000000000000000000000000000000000000000000000000000000000000000000000000000000000000000000000000000000000000000000000000000000000000000000000000000000000000000000000000000000000000000000000000000000000000000000000000000000000000000000000000000000000000000000000000000000000000000000000000000000000000000000000000000000000000000000000000000000000000000000000000000000000000000000000000000000000000000000000000000000000000000000000000000000000000000000000000000000000000000000000000000000000000000000000000000000000000000000000000000000000000000000000000000000000000000000000000000000000000000000000000000000000000000000000000000000000000000000000000000000000000000000000000000000000000000000000000000000000000000000000000000000000000000000000000000000000000000000000000000000000000000000000000000000000000000000000000000000000000000000000000000000000000000000000000000000000000000000000000000000000000000000000000000000000000053535353230000000000000000000000000000000000000000000000000000000000000000000000000000000000000000000000000000000000000000000000000000000000000000000000000000000000000000000000000000000000000000000000000000000000000000000000000000000000000000000000000000000000000000000000000000000000000000000000000000000000000000000000000000000000000000000000000000000000000000000000000000000000000000000000000000000000000000000000000000000000000000000000000000000000000000000000000000000000000000000000000000000000000000000000000000000000000000000000000000000000000000000000000000000000000000000000000000000000000000000000000000000000000000000000000000000000000000000000000000000000000000000000000000000000000000000000000000000000000000000000000000000000000000000000000000000000000000000000000000000000000000000000000000000000000000000000000000000000000000000000000000000000000000000000000000000000000000000000000000000000000000000000000000000000000000000000000000000000000000000000
#023920:1353
#023960:000000000000000000000000000000000000000000000000000000000000000000000000000000000000000000000000000000000000000000000000000000000000000000000000000000000000000000000000000000000000000000000000000000000000000000000000000000000000000000000000000000000000000000000000000000000000000000000000000000000000000000000000000000000000000000000000000000000000000000000000000000000000000000000000000000000000000000000000000000000000000000000000000000000000000000000000000000000000000000000000000000000000000000000000000000000000000000000000000000000000000000000000000000000000000000000000000000000000000000000000000000000000000000000000000000000000000000000000000000000000000000000000000000000000000000000000000000000000000000000000000000000000000000000000000000000000000000000000000000000000000000000000000000000000000000000000000000000000000000000000000000000000000000000000000000000000000000000000000000000000000000000000000000000000000000000000000000000000000000000000530000000000000000000000000000000000000000000000000000000000000000000000000000000000000000000000000000000000000000000000000000000000000000000000000000000000000000000000000000000000000000000000000000000000000000000000000000000000000000000000000000000000000000000000000000000000000000000000000000000000000000000000000000000000000000000000000000000000000000000000000000000000000000000000000000000000000000000000000000000000000000000000000000000000000000000000000000000000000000000000000000000000000000000000000000000000000000000000000000000000000000000000000000000000000000000000000000000000000000000000000000000000000000000000000000000000000000000000000000000000000000000000000000000000000000000000000000000000000000000000000000000000000000000000000000000000000000000000000000000000000000000000000000000000000000000000000000000000000000000000000000000000000000000000000000000000000000000000000000000000000000000000000000000000000000000000000000000000000000000000000000000000000000000000000000000000000000000000000000000000000000000000000000000000000000000000000000000000000000000000000000000000000000000000000000000000000000000000000000000000000000000000000000000000000000000000000000000000000000000000000000000000000000000000000000000000000000000000000000000000000000000000000000000000000000000000000000000000000000000000000000000000000000000000000000000000000000000000000000000000000000000000000000000000000000000000000000000000000000000000000000000000000000000000000000000000000000000000000000000000000000000000000000000000000000000000000000000000000000000000000000000000000000000000000000000000000000000000000000000000000000000000000000000000000000000000000000000000000000000000000000000000000000000000000000000000000000000000000000000000000000000000000000000000000000000000000000000000000000000000000000000000000000000000000000000000000000000000000000000000000000000000000000000000000000000000000000000000000053535353230000000000000000000000000000000000000000000000000000000000000000000000000000000000000000000000000000000000000000000000000000000000000000000000000000000000000000000000000000000000000000000000000000000000000000000000000000000000000000000000000000000000000000000000000000000000000000000000000000000000000000000000000000000000000000000000000000000000000000000000000000000000000000000000000000000000000000000000000000000000000000000000000000000000000000000000000000000000000000000000000000000000000000000000000000000000000000000000000000000000000000000000000000000000000000000000000000000000000000000000000000000000000000000000000000000000000000000000000000000000000000000000000000000000000000000000000000000000000000000000000000000000000000000000000000000000000000000000000000000000000000000000000000000000000000000000000000000000000000000000000000000000000000000000000000000000000000000000000000000000000000000000000000000000000000000000000000000000000000000000
#0309a0:1454
#030960:000000000000000000000000000000000000000000000000000000000000000000000000000000000000000000000000000000000000000000000000000000000000000000000000000000000000000000000000000000000000000000000000000000000000000000000000000000000000000000000000000000000000000000000000000000000000000000000000000000000000000000000000000000000000000000000000000000000000000000000000000000000000000000000000000000000000000000000000000000000000000000000000000000000000000000000000000000000000000000000000000000000000000000000000000000000000000000000000000000000000000000000000000000000000000000000000000000000000000000000000000000000000000000000000000000000000000000000000000000000000000000000000000000000000000000000000000000000000000000000000000000000000000000000000000000000000000000000000000000000000000000000000000000000000000000000000000000000000000000000000000000000000000000000000000000000000000000000000000000000000000000000000000000000000000000000000000000000000000000000000540000000000000000000000000000000000000000000000000000000000000000000000000000000000000000000000000000000000000000000000000000000000000000000000000000000000000000000000000000000000000000000000000000000000000000000000000000000000000000000000000000000000000000000000000000000000000000000000000000000000000000000000000000000000000000000000000000000000000000000000000000000000000000000000000000000000000000000000000000000000000000000000000000000000000000000000000000000000000000000000000000000000000000000000000000000000000000000000000000000000000000000000000000000000000000000000000000000000000000000000000000000000000000000000000000000000000000000000000000000000000000000000000000000000000000000000000000000000000000000000000000000000000000000000000000000000000000000000000000000000000000000000000000000000000000000000000000000000000000000000000000000000000000000000000000000000000000000000000000000000000000000000000000000000000000000000000000000000000000000000000000000000000000000000000000000000000000000000000000000000000000000000000000000000000000000000000000000000000000000000000000000000000000000000000000000000000000000000000000000000000000000000000000000000000000000000000000000000000000000000000000000000000000000000000000000000000000000000000000000000000000000000000000000000000000000000000000000000000000000000000000000000000000000000000000000000000000000000000000000000000000000000000000000000000000000000000000000000000000000000000000000000000000000000000000000000000000000000000000000000000000000000000000000000000000000000000000000000000000000000000000000000000000000000000000000000000000000000000000000000000000000000000000000000000000000000000000000000000000000000000000000000000000000000000000000000000000000000000000000000000000000000000000000000000000000000000000000000000000000000000000000000000000000000000000000000000000000000000000000000000000000000000000000000000000000000000000000000000054545454240000000000000000000000000000000000000000000000000000000000000000000000000000000000000000000000000000000000000000000000000000000000000000000000000000000000000000000000000000000000000000000000000000000000000000000000000000000000000000000000000000000000000000000000000000000000000000000000000000000000000000000000000000000000000000000000000000000000000000000000000000000000000000000000000000000000000000000000000000000000000000000000000000000000000000000000000000000000000000000000000000000000000000000000000000000000000000000000000000000000000000000000000000000000000000000000000000000000000000000000000000000000000000000000000000000000000000000000000000000000000000000000000000000000000000000000000000000000000000000000000000000000000000000000000000000000000000000000000000000000000000000000000000000000000000000000000000000000000000000000000000000000000000000000000000000000000000000000000000000000000000000000000000000000000000000000000000000000000000000000
#031920:1454
#031960:000000000000000000000000000000000000000000000000000000000000000000000000000000000000000000000000000000000000000000000000000000000000000000000000000000000000000000000000000000000000000000000000000000000000000000000000000000000000000000000000000000000000000000000000000000000000000000000000000000000000000000000000000000000000000000000000000000000000000000000000000000000000000000000000000000000000000000000000000000000000000000000000000000000000000000000000000000000000000000000000000000000000000000000000000000000000000000000000000000000000000000000000000000000000000000000000000000000000000000000000000000000000000000000000000000000000000000000000000000000000000000000000000000000000000000000000000000000000000000000000000000000000000000000000000000000000000000000000000000000000000000000000000000000000000000000000000000000000000000000000000000000000000000000000000000000000000000000000000000000000000000000000000000000000000000000000000000000000000000000000540000000000000000000000000000000000000000000000000000000000000000000000000000000000000000000000000000000000000000000000000000000000000000000000000000000000000000000000000000000000000000000000000000000000000000000000000000000000000000000000000000000000000000000000000000000000000000000000000000000000000000000000000000000000000000000000000000000000000000000000000000000000000000000000000000000000000000000000000000000000000000000000000000000000000000000000000000000000000000000000000000000000000000000000000000000000000000000000000000000000000000000000000000000000000000000000000000000000000000000000000000000000000000000000000000000000000000000000000000000000000000000000000000000000000000000000000000000000000000000000000000000000000000000000000000000000000000000000000000000000000000000000000000000000000000000000000000000000000000000000000000000000000000000000000000000000000000000000000000000000000000000000000000000000000000000000000000000000000000000000000000000000000000000000000000000000000000000000000000000000000000000000000000000000000000000000000000000000000000000000000000000000000000000000000000000000000000000000000000000000000000000000000000000000000000000000000000000000000000000000000000000000000000000000000000000000000000000000000000000000000000000000000000000000000000000000000000000000000000000000000000000000000000000000000000000000000000000000000000000000000000000000000000000000000000000000000000000000000000000000000000000000000000000000000000000000000000000000000000000000000000000000000000000000000000000000000000000000000000000000000000000000000000000000000000000000000000000000000000000000000000000000000000000000000000000000000000000000000000000000000000000000000000000000000000000000000000000000000000000000000000000000000000000000000000000000000000000000000000000000000000000000000000000000000000000000000000000000000000000000000000000000000000000000000000000000000000000000000054545454240000000000000000000000000000000000000000000000000000000000000000000000000000000000000000000000000000000000000000000000000000000000000000000000000000000000000000000000000000000000000000000000000000000000000000000000000000000000000000000000000000000000000000000000000000000000000000000000000000000000000000000000000000000000000000000000000000000000000000000000000000000000000000000000000000000000000000000000000000000000000000000000000000000000000000000000000000000000000000000000000000000000000000000000000000000000000000000000000000000000000000000000000000000000000000000000000000000000000000000000000000000000000000000000000000000000000000000000000000000000000000000000000000000000000000000000000000000000000000000000000000000000000000000000000000000000000000000000000000000000000000000000000000000000000000000000000000000000000000000000000000000000000000000000000000000000000000000000000000000000000000000000000000000000000000000000000000000000000000000000
