This file was generated by Ched 2.7.0.0.
#TITLE ""
#ARTIST ""
#DESIGNER ""
#DIFFICULTY 0
#PLAYLEVEL
#SONGID ""
#WAVE ""
#WAVEOFFSET 0
#JACKET ""
#REQUEST "ticks_per_beat 480"
#00002: 4
#BPM01: 145
#00008: 01
#TIL00: "66'1440:1.0, 66'1439:10000.0"
#VOLUME: ""
#HISPEED 00
#MEASUREHS 00
#0021a:1414
#00210:41
#00312:1414
#00418:1414
#00514:1414
#0061a:14
#00614:0014
#00718:14
#00712:0014
#0081a:1414
#01014:0014
#01018:00000014
#0101a:24
#01010:41
#0121a:14
#01214:0014
#01218:00000014
#01112:14
#01118:0014
#01114:00000014
#01312:14
#01318:00140000
#01314:0014
#0131a:00000014
#01412:14
#01418:0014
#01414:00000014
#0151a:14
#01514:0014
#01518:00000014
#01612:14
#01618:0014
#01614:00000014
#01812:1414
#01818:00140000
#01810:41
#0191a:1414
#01914:00140000
#02012:14
#0201a:0014
#02114:1414
#02118:00140000
#02418:14
#02414:0014
#03214:1414
#03218:00140014
#0341a:1414
#03414:00140014
#0341f:11
#03612:1414
#03618:00140014
#0381a:1414
#03814:00140014
#03918:1414
#03912:00140014
#0401a:14
#04012:0014
#04218:00140000
#04214:0014
#0421a:00000014
#04212:26
#0421f:21
#04312:14
#04318:00140000
#04314:0014
#0431a:00000014
#04310:41
#04412:14
#0441a:00140000
#04414:0014
#04418:00000014
#04512:14
#0451a:00140000
#04514:0014
#04518:00000014
#04612:14
#0461a:00141400
#04614:00000014
#04714:14
#04718:00141400
#04712:00000014
#04812:14
#04818:00140014
#04814:0014
#05014:00140000
#05018:2614
#05012:00000014
#0511a:14
#05114:00140000
#05118:0014
#05112:00000014
#0521a:14
#05212:00140000
#05218:0014
#05214:00000014
#05414:00141400
#05418:00000014
#05518:14
#05512:00141400
#0551a:00000014
#0561a:14
#05614:00140014
#05618:0014
#05718:14
#05914:14141400
#05910:41
#06018:14141400
#06112:14
#06118:00140000
#06114:0014
#0611a:00000014
#06212:14141400
#0631a:14
#06314:00140000
#06318:0014
#06312:00000014
#0641a:14
#06414:00140000
#06418:0014
#06412:00000014
#0651a:14140000
#06512:00001414
#0531a:24
#02610:41
#0005a:00000000000000140000000000000000
#00152:00000000000000140000000000000000
#00954:0014
#02558:0014
#03354:0014
#0405a:14
#04052:0014
#04252:16
#04954:0014
#05058:16
#0545a:14
#05758:64
#0585a:14
#0003a0:14000000000000240000000000000000
#001320:14000000000000240000000000000000
#009340:14000034000034002400000000000000
#0173a0:1424
#0223a0:1424
#023320:1424
#025380:14000034000034002400000000000000
#026340:14
#026330:0000003400000000
#026320:00000034
#027330:0034000000000000
#027340:0024
#028380:14
#028390:0000003400000000
#0283a0:00000034
#029390:0034000000000000
#029380:0024
#030320:14
#030330:0000003400000000
#030340:00000034
#031330:0034000000000000
#031320:0024
#0303a1:14
#030391:0000003400000000
#030381:00000034
#031391:0034000000000000
#0313a1:0024
#033341:14000034000034002400000000000000
#0353a1:1424
#037321:1424
#041381:1424
#049341:1424
#0533a1:14000034000034003400340034000000
#0543a1:24
#057381:14
#0583a1:24
#066381:14000034000034002400000000000000
#0669d0:000000000000000000000000000000000000000000000000000000000000000000000000000000000000000000000000000000000000000000000000000000000000000000000000000000000000000000000000000000000000000000000000000000000000000000000000000000000000000000000000000000000000000000000000000000000000000000000000000000000000000000000000000000000000000000000000000000000000000000000000000000000000000000000000000000000000000000000000000000000000000000000000000000000000000000000000000000000000000000000000000000000000000000000000000000000000000000000000000000000000000000000000000000000000000000000000000000000000000000000000000000000000000000000000000000000000000000000000000000000000000000000000000000000000000000000000000000000000000000000000000000000000000000000000000000000000000000000000000000000000000000000000000000000000000000000000000000000000000000000000000000000000000000000000000000000000000000000000000000000000000000000000000000000000000000000000000000000000000000000000000000000000000000000000000000000000000000000000000000000000000000000000000000000000000000000000000000000000000000000000000000000000000000000000000000000000000000000000000000000000000000000000000000000000000000000000000000000000000000000000000000000000000000000000000000000000000000000000000000000000000000000000000000000000000000000000000000000000000000000000000000000000000000000000000000000000000000000000000000000000000000000000000000000000000000000000000000000000000000000000000000000000000000000000000000000000000000000000000000000000000000000000000000000000000000000000000000000000000000000000000000000000000000000000000000000000000000000000000000000000000000000000000000000000000000000000000000000000000000000000000000000000000000000000000000000000000000000000000000000000000000000000000000000000000000000000000000000000000000000000000000000000000000000000000000000000000000000000000000000000000000000000000000000000000000000000000000000000000000000000000000000000000000000000000000000000000000000000000000000000000000000000000000000000000000000000000000000000000000000000000000000000000000000000000000000000000000000000000000000000000000000000000000000000000000000000000000000000000000000000000000000000000000000000000000000000000000000000000000000000000000000000000000000000000000000000000000000000000000000000000000000000000000000000000000000000000000000000000000000000000000000000000000000000000000000000000000000000000000000000000000000000000000000000000000000000000000000000000000000000000000000000000000000000000000000000000000000000000000000000000000000000000000000000000000000000000000000000000000000000000000000000000000000000000000000000000000000000000000000000000000000000000000000000000000000000000000000000000000000000000000000000000000000000000000000000000000000000000000000000000000000000000000000000000000000000000000000000000000000000000000000000000000000000000000000000000000000000000000000000112100000000000000000000000000000000000000000000000000000000000000000000000000000000000000000000000000000000000000000000000000000000000000000000000000000000000000000000000000000000000000000000000000000000000000000000000000000000000000000000000000000000000000000000000000000000000000000000000000000000000000000000000000000000000000000000000000000000000000000000000000000000000000000000000000000000000000000000000000000000000000000000000000000000000000000000000000000000000000000000000000000000000000000000000000000000000000000000000000000000000000000000000000000000000000000000000000000000000000000000000000000000000000000000000000000000000000000000000000000000000000000000000000000000000000000000000000000000000000000000000000000000000000000000000000000000000000000000000000000000000000000000000000000000000000000000000000000000000000000000000000000000000000000000000000000000000000000000000000000000000000000000000000000000000000000000000000000000000000000000
